#TITLE:ぱ ぴ ぷ ぺ POP!;
#SUBTITLE:;
#ARTIST:Appare!;
#TITLETRANSLIT:Pa Pi Pu Pe POP!;
#SUBTITLETRANSLIT:;
#ARTISTTRANSLIT:Appare!;
#GENRE:POP;
#CREDIT:;
#MUSIC:Pa Pi Pu Pe POP!.ogg;
#BANNER:Pa Pi Pu Pe POP!.png;
#BACKGROUND:Pa Pi Pu Pe POP!-bg.png;
#CDTITLE:;
#SAMPLESTART:71.075;
#SAMPLELENGTH:12.632;
#SELECTABLE:YES;
#OFFSET:1.557;
#BPMS:0.000=152.000
,20.500=76.000
,21.000=152.000
,34.000=76.000
,34.500=152.000
,35.500=76.000
,36.000=152.000
,37.000=76.000
,37.500=152.000
,38.500=76.000
,39.500=152.000
,103.500=76.000
,105.000=152.000
,169.500=76.000
,170.500=152.000
,237.500=76.000
,238.000=152.000
,239.000=76.000
,239.500=152.000
,240.500=76.000
,241.000=152.000
,242.000=76.000
,243.000=152.000
;
#STOPS:19.000=0.099
,19.250=0.099
,19.500=0.099
,19.750=0.099
,20.000=0.197
,33.000=0.099
,33.250=0.099
,33.500=0.099
,33.750=0.099
,34.500=0.099
,34.750=0.099
,35.000=0.099
,35.250=0.099
,36.000=0.099
,36.250=0.099
,36.500=0.099
,36.750=0.099
,37.500=0.099
,37.750=0.099
,38.000=0.099
,38.250=0.099
,104.750=0.197
,236.500=0.099
,236.750=0.099
,237.000=0.099
,237.250=0.099
,238.000=0.099
,238.250=0.099
,238.500=0.099
,238.750=0.099
,239.500=0.099
,239.750=0.099
,240.000=0.099
,240.250=0.099
,241.000=0.099
,241.250=0.099
,241.500=0.099
,241.750=0.099
;
#LASTBEATHINT:1.411067;
#BGCHANGES:4.000=Pa Pi Pu Pe POP!.avi=1.000=0=0=0=StretchNoLoop====,
99999.000=-nosongbg-=1.000=0=0=0=StretchNoLoop====
;
#FGCHANGES:;

//--------------- dance-single - ----------------
#NOTES:
     dance-single:
     :
     Hard:
     12:
     0,0,0,0,0:
0000
0000
0000
0000
,
0000
0000
0000
0000
0000
0000
1000
0100
,
1000
0002
0000
0000
0103
0010
0100
0001
,
1000
0002
0000
0000
0013
0100
1000
0000
,
1000
0000
0000
0000
0000
0000
0000
0000
0000
0000
0000
0000
0000
0000
0000
0000
0000
0000
0000
0000
0000
0000
0000
0000
0002
0000
0000
0000
0000
0000
0000
0000
0000
0000
0000
0000
0000
0000
0000
0000
0000
0000
0000
0000
0000
0000
0000
0000
0000
0000
0000
0000
0000
0000
0000
0000
0000
0000
0000
0000
0000
0000
0000
0000
0000
0000
0000
0000
0000
0000
0000
0000
0000
0000
0000
0000
0000
0000
0000
0000
0000
0000
0000
0000
0000
0000
0000
0000
0000
0000
0000
0000
0000
0000
0000
0000
1003
0000
0000
0000
0000
0000
0000
0000
0000
0000
0000
0000
0000
0000
0000
0000
0000
0000
0000
0000
0000
0000
0000
0000
0001
0000
0000
0000
0000
0000
0000
0000
0000
0000
0000
0000
0000
0000
0000
0000
0000
0000
0000
0000
0000
0000
0000
0000
2000
3000
0000
0000
0000
0000
0000
0000
0000
0000
0000
0000
0200
0300
0000
0000
0000
0000
0000
0000
0000
0000
0000
0000
0020
0030
0000
0000
0000
0000
0000
0000
0000
0000
0000
0000
0002
0003
0000
0000
0000
0000
0000
0000
0000
0000
0000
0000
,
2000
3000
0000
0000
0000
0000
0000
0000
0000
0000
0000
0000
0000
0000
0000
0000
0000
0000
0000
0000
0000
0000
0000
0000
2002
3003
0000
0000
0000
0000
0000
0000
0000
0000
0000
0000
0000
0000
0000
0000
0000
0000
0000
0000
0000
0000
0000
0000
0001
0000
0000
0000
0000
0000
0000
0000
0000
0000
0000
0000
0000
0000
0000
0000
0000
0000
0000
0000
0000
0000
0000
0000
0100
0000
0000
0000
0000
0000
0000
0000
0000
0000
0000
0000
0000
0000
0000
0000
0000
0000
0000
0000
0000
0000
0000
0000
0010
0000
0000
0000
0000
0000
0000
0000
0000
0000
0000
0000
0000
0000
0000
0000
0000
0000
0000
0000
0000
0000
0000
0000
2000
0000
0000
0000
0000
0000
0000
0000
0000
0000
0000
0000
0000
0000
0000
0000
0000
0000
0000
0000
0000
0000
0000
0000
0000
0000
0000
0000
0000
0000
0000
0000
0000
0000
0000
0000
0000
0000
0000
0000
0000
0000
0000
0000
0000
0000
0000
0000
0000
0000
0000
0000
0000
0000
0000
0000
0000
0000
0000
0000
0000
0000
0000
0000
0000
0000
0000
0000
0000
0000
0000
0000
,
3001
0010
1000
0010
0001
2000
0000
0000
,
3001
0000
1000
0000
0100
0020
0000
0000
,
0031
0000
0000
0000
0000
0000
0000
0000
0000
0000
0000
0000
0000
0000
0000
0000
0000
0000
0000
0000
0000
0000
0000
0000
1000
0000
0000
0000
0000
0000
0000
0000
0000
0000
0000
0000
0000
0000
0000
0000
0000
0000
0000
0000
0000
0000
0000
0000
0002
0003
0000
0000
0000
0000
0000
0000
0000
0000
0000
0000
0200
0300
0000
0000
0000
0000
0000
0000
0000
0000
0000
0000
0020
0030
0000
0000
0000
0000
0000
0000
0000
0000
0000
0000
2000
3000
0000
0000
0000
0000
0000
0000
0000
0000
0000
0000
0002
0003
0000
0000
0000
0000
0000
0000
0000
0000
0000
0000
0000
0000
0000
0000
0000
0000
0000
0000
0000
0000
0000
0000
2000
3000
0000
0000
0000
0000
0000
0000
0000
0000
0000
0000
0200
0300
0000
0000
0000
0000
0000
0000
0000
0000
0000
0000
0020
0030
0000
0000
0000
0000
0000
0000
0000
0000
0000
0000
0002
0003
0000
0000
0000
0000
0000
0000
0000
0000
0000
0000
2000
3000
0000
0000
0000
0000
0000
0000
0000
0000
0000
0000
0000
0000
0000
0000
0000
0000
0000
0000
0000
0000
0000
0000
,
0002
0003
0000
0000
0000
0000
0000
0000
0000
0000
0000
0000
0200
0300
0000
0000
0000
0000
0000
0000
0000
0000
0000
0000
0020
0030
0000
0000
0000
0000
0000
0000
0000
0000
0000
0000
2000
3000
0000
0000
0000
0000
0000
0000
0000
0000
0000
0000
0002
0003
0000
0000
0000
0000
0000
0000
0000
0000
0000
0000
0000
0000
0000
0000
0000
0000
0000
0000
0000
0000
0000
0000
2000
3000
0000
0000
0000
0000
0000
0000
0000
0000
0000
0000
0200
0300
0000
0000
0000
0000
0000
0000
0000
0000
0000
0000
0020
0030
0000
0000
0000
0000
0000
0000
0000
0000
0000
0000
0002
0003
0000
0000
0000
0000
0000
0000
0000
0000
0000
0000
2000
3000
0000
0000
0000
0000
0000
0000
0000
0000
0000
0000
0000
0000
0000
0000
0000
0000
0000
0000
0000
0000
0000
0000
1000
0000
0000
0000
0000
0000
0000
0000
0000
0000
0000
0000
0000
0000
0000
0000
0000
0000
0000
0000
0000
0000
0000
0000
0001
0000
0000
0000
0000
0000
0000
0000
0000
0000
0000
0000
0000
0000
0000
0000
0000
0000
0000
0000
0000
0000
0000
0000
,
0001
0010
0100
0100
1000
0010
0010
0100
,
0001
1000
0100
0001
0100
2000
0000
3010
,
0010
0100
0001
0001
0010
0100
0100
1000
,
0001
0100
1000
0100
0001
0020
0000
0130
,
0100
1000
0010
0010
0100
0001
0001
1000
,
0001
0010
1000
0001
0100
0000
0110
0000
,
1000
0100
0010
0001
1000
0001
0100
0010
,
0000
0010
0100
0001
2000
0000
3001
0100
,
0001
0010
0001
0100
0001
1000
0020
0000
,
1030
0001
0010
0001
0100
0010
1000
1001
,
1000
0100
1000
0010
1000
0100
0020
0000
,
0031
0100
0010
1010
0000
0101
0000
0001
,
0100
1000
0100
0001
0010
1000
0020
0000
,
0031
0100
0010
1000
0100
0010
0001
1001
,
1000
0010
0001
0010
1000
0100
0001
0000
,
0001
0000
0000
0000
0000
0000
0000
0000
0000
0000
0000
0000
0000
0000
0000
0000
0000
0000
0000
0000
0000
0000
0000
0000
0100
0000
0000
0000
0000
0000
0000
0000
0000
0000
0000
0000
0000
0000
0000
0000
0000
0000
0000
0000
0000
0000
0000
0000
1000
0000
0000
0000
0000
0000
0000
0000
0000
0000
0000
0000
0000
0000
0000
0000
0000
0000
0000
0000
0000
0000
0000
0000
1100
0000
0000
0000
0000
0000
0000
0000
0000
0000
0000
0000
0000
0000
0000
0000
0000
0000
0000
0000
0000
0000
0000
0000
0000
0000
0000
0000
0000
0000
0000
0000
0000
0000
0000
0000
0000
0000
0000
0000
0000
0000
0000
0000
0000
0000
0000
0000
0011
0000
0000
0000
0000
0000
0000
0000
0000
0000
0000
0000
0000
0000
0000
0000
0000
0000
0000
0000
0000
0000
0000
0000
0000
0000
0000
0000
0000
0000
0000
0000
0000
0000
0000
0000
0000
0000
0000
0000
0000
0000
0000
0000
0000
0000
0000
0000
2002
3003
0000
0000
0000
0000
0000
0000
0000
0000
0000
0000
0000
0000
0000
0000
0000
0000
0000
0000
0000
0000
0000
0000
,
2001
0000
0000
0000
0000
0000
0000
0000
0000
0000
0000
0000
0000
0000
0000
0000
0000
0000
0000
0000
0000
0000
0000
0000
0100
0000
0000
0000
0000
0000
0000
0000
0000
0000
0000
0000
3200
0300
0000
0000
0000
0000
0000
0000
0000
0000
0000
0000
0110
0000
0000
0000
0000
0000
0000
0000
0000
0000
0000
0000
0000
0000
0000
0000
0000
0000
0000
0000
0000
0000
0000
0000
0000
0000
0000
0000
0000
0000
0000
0000
0000
0000
0000
0000
0000
0000
0000
0000
0000
0000
0000
0000
0000
0000
0000
0000
0010
0000
0000
0000
0000
0000
0000
0000
0000
0000
0000
0000
0000
0000
0000
0000
0000
0000
0000
0000
0000
0000
0000
0000
0001
0000
0000
0000
0000
0000
0000
0000
0000
0000
0000
0000
0000
0000
0000
0000
0000
0000
0000
0000
0000
0000
0000
0000
0000
0000
0000
0000
0000
0000
0000
0000
0000
0000
0000
0000
0000
0000
0000
0000
0000
0000
0000
0000
0000
0000
0000
0000
0001
0000
0000
0000
0000
0000
0000
0000
0000
0000
0000
0000
0000
0000
0000
0000
0000
0000
0000
0000
0000
0000
0000
0000
,
2000
0000
3002
0000
1003
0002
0000
0103
,
0010
0200
0000
0310
1000
0100
0010
0001
,
0000
1001
0000
0011
0000
1100
0000
1000
,
0010
0000
0101
0000
0001
0100
1000
0100
,
0010
0000
1010
0000
1000
0001
0010
0200
,
0000
0000
1300
0000
0002
0000
0000
0000
1003
0000
0000
0010
0000
0000
0100
0000
,
0001
1000
0100
0010
0000
0001
0100
0001
,
0000
0101
0000
1100
0000
1000
0100
1000
,
0000
1100
0000
0101
0000
0101
0000
1100
,
0000
1100
0000
0001
1000
0001
1000
0001
,
0000
0110
0000
0110
0000
0010
1000
0001
,
0000
0011
0000
1100
0000
1000
0010
0100
,
0002
0000
1003
0100
1000
0010
0100
0010
,
1000
0001
0010
0100
1000
0001
0100
1000
,
0001
0010
2000
0000
0000
0000
0000
0000
,
0000
0000
0000
3002
0000
0013
0000
0010
,
0000
0100
0100
1000
0010
0010
0100
0001
,
0001
0010
0100
1000
0001
0100
0010
0120
,
0000
1030
1000
0100
0001
0001
0100
0010
,
0010
0001
1000
0010
0001
1000
0100
0201
,
0000
0301
0001
0010
0100
0100
1000
0010
,
0010
0100
0001
1000
0001
0010
0100
0000
,
1001
0000
1000
0100
0010
0001
1000
0010
,
0100
0101
0000
0011
0000
1100
0000
1010
,
0000
2000
0000
3020
0000
0230
0000
0301
,
0000
0011
0000
1100
0000
1000
0001
0000
,
0000
1010
0000
0101
0000
0011
0000
1100
,
0000
1000
0100
0002
0000
0103
0000
1001
,
0000
0002
0000
0203
0000
0320
0000
1030
,
0000
1010
0000
0101
0000
0001
1000
0000
,
0000
0011
0000
1100
0000
1010
0000
0101
,
0000
0001
0100
2000
0000
3100
0000
2001
,
0000
0000
0000
0000
0000
0000
0000
0000
0000
0000
0000
0000
0000
0000
0000
0000
0000
0000
0000
0000
0000
0000
0000
0000
3002
0003
0000
0000
0000
0000
0000
0000
0000
0000
0000
0000
0200
0300
0000
0000
0000
0000
0000
0000
0000
0000
0000
0000
0020
0030
0000
0000
0000
0000
0000
0000
0000
0000
0000
0000
2000
3000
0000
0000
0000
0000
0000
0000
0000
0000
0000
0000
0002
0003
0000
0000
0000
0000
0000
0000
0000
0000
0000
0000
0000
0000
0000
0000
0000
0000
0000
0000
0000
0000
0000
0000
2000
3000
0000
0000
0000
0000
0000
0000
0000
0000
0000
0000
0200
0300
0000
0000
0000
0000
0000
0000
0000
0000
0000
0000
0020
0030
0000
0000
0000
0000
0000
0000
0000
0000
0000
0000
0002
0003
0000
0000
0000
0000
0000
0000
0000
0000
0000
0000
2000
3000
0000
0000
0000
0000
0000
0000
0000
0000
0000
0000
0000
0000
0000
0000
0000
0000
0000
0000
0000
0000
0000
0000
0002
0003
0000
0000
0000
0000
0000
0000
0000
0000
0000
0000
0200
0300
0000
0000
0000
0000
0000
0000
0000
0000
0000
0000
,
0020
0030
0000
0000
0000
0000
0000
0000
0000
0000
0000
0000
2000
3000
0000
0000
0000
0000
0000
0000
0000
0000
0000
0000
0002
0003
0000
0000
0000
0000
0000
0000
0000
0000
0000
0000
0000
0000
0000
0000
0000
0000
0000
0000
0000
0000
0000
0000
2000
3000
0000
0000
0000
0000
0000
0000
0000
0000
0000
0000
0200
0300
0000
0000
0000
0000
0000
0000
0000
0000
0000
0000
0020
0030
0000
0000
0000
0000
0000
0000
0000
0000
0000
0000
0002
0003
0000
0000
0000
0000
0000
0000
0000
0000
0000
0000
2000
3000
0000
0000
0000
0000
0000
0000
0000
0000
0000
0000
0000
0000
0000
0000
0000
0000
0000
0000
0000
0000
0000
0000
0100
0000
0000
0000
0000
0000
0000
0000
0000
0000
0000
0000
0000
0000
0000
0000
0000
0000
0000
0000
0000
0000
0000
0000
2002
0000
0000
0000
0000
0000
0000
0000
0000
0000
0000
0000
0000
0000
0000
0000
0000
0000
0000
0000
0000
0000
0000
0000
0000
0000
0000
0000
0000
0000
0000
0000
0000
0000
0000
0000
0000
0000
0000
0000
0000
0000
0000
0000
0000
0000
0000
0000
,
0000
0000
0000
0000
,
0000
0000
0000
0000
,
0000
0000
0000
0000
,
3003
0000
0000
0000
;

//--------------- dance-single - ----------------
#NOTES:
     dance-single:
     :
     Challenge:
     16:
     0.779158,0.879319,0.616189,0.366383,0.65366,655,581,74,44,0,0,0.779158,0.879319,0.616189,0.366383,0.65366,655,581,74,44,0,0:
0000
0000
0000
0000
,
0000
0000
0000
0000
0000
0000
0000
0000
0000
0000
0000
0000
0001
0010
0001
0010
,
0100
0000
2000
0000
0000
0000
3100
0000
0100
0010
0001
0000
1000
0010
1000
0010
,
0100
0000
0002
0000
0000
0000
1003
0000
1000
0001
0100
0000
0010
0000
0100
0001
,
0010
0000
0000
0000
0000
0000
0000
0000
0000
0000
0000
0000
0000
0000
0000
0000
0000
0000
0000
0000
0000
0000
0000
0000
0100
0000
0000
0000
0000
0000
0000
0000
0000
0000
0000
0000
2000
0000
0000
0000
0000
0000
0000
0000
0000
0000
0000
0000
0000
0000
0000
0000
0000
0000
0000
0000
0000
0000
0000
0000
0000
0000
0000
0000
0000
0000
0000
0000
0000
0000
0000
0000
3010
0000
0000
0000
0000
0000
0000
0000
0000
0000
0000
0000
0000
0000
0000
0000
0000
0000
0000
0000
0000
0000
0000
0000
0010
0000
0000
0000
0000
0000
0000
0000
0000
0000
0000
0000
0100
0000
0000
0000
0000
0000
0000
0000
0000
0000
0000
0000
0001
0000
0000
0000
0000
0000
0000
0000
0000
0000
0000
0000
0000
0000
0000
0000
0000
0000
0000
0000
0000
0000
0000
0000
2000
3000
0000
0000
0000
0000
0000
0000
0000
0000
0000
0000
0200
0300
0000
0000
0000
0000
0000
0000
0000
0000
0000
0000
0020
0030
0000
0000
0000
0000
0000
0000
0000
0000
0000
0000
0002
0003
0000
0000
0000
0000
0000
0000
0000
0000
0000
0000
,
2002
3003
0000
0000
0000
0000
0000
0000
0000
0000
0000
0000
0000
0000
0000
0000
0000
0000
0000
0000
0000
0000
0000
0000
0220
0330
0000
0000
0000
0000
0000
0000
0000
0000
0000
0000
0000
0000
0000
0000
0000
0000
0000
0000
0000
0000
0000
0000
0001
0000
0000
0000
0000
0000
0000
0000
0000
0000
0000
0000
0000
0000
0000
0000
0000
0000
0000
0000
0000
0000
0000
0000
1000
0000
0000
0000
0000
0000
0000
0000
0000
0000
0000
0000
0010
0000
0000
0000
0000
0000
0000
0000
0000
0000
0000
0000
0100
0000
0000
0000
0000
0000
0000
0000
0000
0000
0000
0000
0000
0000
0000
0000
0000
0000
0000
0000
0000
0000
0000
0000
0020
0000
0000
0000
0000
0000
0000
0000
0000
0000
0000
0000
0000
0000
0000
0000
0000
0000
0000
0000
0000
0000
0000
0000
0000
0000
0000
0000
0000
0000
0000
0000
0000
0000
0000
0000
0000
0000
0000
0000
0000
0000
0000
0000
0000
0000
0000
0000
1030
0000
0000
0000
0000
0000
0000
0000
0000
0000
0000
0000
0000
0000
0000
0000
0000
0000
0000
0000
0000
0000
0000
0000
,
1000
0001
0010
0100
1000
0000
1000
0010
0100
0000
0102
0000
0000
0000
0013
0000
,
0010
0100
1000
0001
1000
0000
0010
0100
0010
0000
1000
0002
0000
0000
0013
0000
,
1100
0000
0000
0000
0000
0000
0000
0000
0000
0000
0000
0000
0000
0000
0000
0000
0000
0000
0000
0000
0000
0000
0000
0000
0011
0000
0000
0000
0000
0000
0000
0000
0000
0000
0000
0000
0000
0000
0000
0000
0000
0000
0000
0000
0000
0000
0000
0000
0002
0003
0000
0000
0000
0000
0000
0000
0000
0000
0000
0000
0200
0300
0000
0000
0000
0000
0000
0000
0000
0000
0000
0000
0020
0030
0000
0000
0000
0000
0000
0000
0000
0000
0000
0000
2000
3000
0000
0000
0000
0000
0000
0000
0000
0000
0000
0000
2002
3003
0000
0000
0000
0000
0000
0000
0000
0000
0000
0000
0000
0000
0000
0000
0000
0000
0000
0000
0000
0000
0000
0000
2000
3000
0000
0000
0000
0000
0000
0000
0000
0000
0000
0000
0200
0300
0000
0000
0000
0000
0000
0000
0000
0000
0000
0000
0020
0030
0000
0000
0000
0000
0000
0000
0000
0000
0000
0000
0002
0003
0000
0000
0000
0000
0000
0000
0000
0000
0000
0000
2002
3003
0000
0000
0000
0000
0000
0000
0000
0000
0000
0000
0000
0000
0000
0000
0000
0000
0000
0000
0000
0000
0000
0000
,
0002
0003
0000
0000
0000
0000
0000
0000
0000
0000
0000
0000
0200
0300
0000
0000
0000
0000
0000
0000
0000
0000
0000
0000
0020
0030
0000
0000
0000
0000
0000
0000
0000
0000
0000
0000
2000
3000
0000
0000
0000
0000
0000
0000
0000
0000
0000
0000
2002
3003
0000
0000
0000
0000
0000
0000
0000
0000
0000
0000
0000
0000
0000
0000
0000
0000
0000
0000
0000
0000
0000
0000
2000
3000
0000
0000
0000
0000
0000
0000
0000
0000
0000
0000
0200
0300
0000
0000
0000
0000
0000
0000
0000
0000
0000
0000
0020
0030
0000
0000
0000
0000
0000
0000
0000
0000
0000
0000
0002
0003
0000
0000
0000
0000
0000
0000
0000
0000
0000
0000
2002
3003
0000
0000
0000
0000
0000
0000
0000
0000
0000
0000
0000
0000
0000
0000
0000
0000
0000
0000
0000
0000
0000
0000
1001
0000
0000
0000
0000
0000
0000
0000
0000
0000
0000
0000
0000
0000
0000
0000
0000
0000
0000
0000
0000
0000
0000
0000
0001
0000
0000
0000
0000
0000
0000
0000
0000
0000
0000
0000
0100
0000
0000
0000
0000
0000
0000
0000
0000
0000
0000
0000
,
0001
0100
0010
0000
1000
0001
1000
0001
0010
0000
0100
1000
0100
1000
0001
0000
,
0100
0001
0010
0100
1000
0000
0010
0000
0100
0000
0110
0000
0000
0000
1000
0100
,
1000
0100
0010
0000
0001
1000
0001
1000
0010
0000
0100
0001
0100
0001
0010
0000
,
0100
0000
1000
0000
0001
0010
0100
0000
1000
0000
1100
0000
0000
0000
1000
0010
,
0100
0001
0010
0000
0011
0000
0001
1000
0001
0000
0110
0000
0110
0000
1001
0000
,
0001
0010
0100
0000
1000
0000
0001
0000
0101
0000
0000
0000
1010
0000
0000
0000
,
1000
0000
0100
0000
0010
0000
0001
0000
1000
0000
0001
0000
0100
1000
0100
0000
,
0010
0100
0010
0000
1000
0001
1000
0000
0001
0000
0010
0000
0100
0000
1000
0000
,
0001
0010
0100
0000
0001
0000
0100
0010
0001
0000
1000
0000
0110
0000
0000
0000
,
1000
0000
0001
0000
0100
0001
1000
0000
0100
0000
0010
0000
0001
0000
1001
0000
,
1000
0010
0100
0000
1000
0000
0100
0010
1000
0000
0100
0000
0001
0000
0000
0000
,
0001
0100
1000
1001
0000
1001
0000
1000
,
0001
0100
0010
0000
0001
0000
0010
0100
0001
0000
0010
0000
0110
0000
0000
0000
,
0001
1000
0001
1000
0100
0010
0001
1001
,
1000
0100
0010
0000
1000
0000
0010
0100
1000
0000
0010
0000
0110
0000
0000
0000
,
1000
0000
0000
0000
0000
0000
0000
0000
0000
0000
0000
0000
0000
0000
0000
0000
0000
0000
0000
0000
0000
0000
0000
0000
0001
0000
0000
0000
0000
0000
0000
0000
0000
0000
0000
0000
0000
0000
0000
0000
0000
0000
0000
0000
0000
0000
0000
0000
0100
0000
0000
0000
0000
0000
0000
0000
0000
0000
0000
0000
0000
0000
0000
0000
0000
0000
0000
0000
0000
0000
0000
0000
0110
0000
0000
0000
0000
0000
0000
0000
0000
0000
0000
0000
0000
0000
0000
0000
0000
0000
0000
0000
0000
0000
0000
0000
0010
0000
0000
0000
0000
0000
0000
0000
0000
0000
0000
0000
1000
0000
0000
0000
0000
0000
0000
0000
0000
0000
0000
0000
0001
0000
0000
0000
0000
0000
0000
0000
0000
0000
0000
0000
0000
0000
0000
0000
0000
0000
0000
0000
0000
0000
0000
0000
0010
0000
0000
0000
0000
0000
0000
0000
0000
0000
0000
0000
0000
0000
0000
0000
0000
0000
0000
0000
0000
0000
0000
0000
0200
0300
0000
0000
0000
0000
0000
0000
0000
0000
0000
0000
1000
0000
0000
0000
0000
0000
0001
0000
0000
0000
0000
0000
,
1000
0000
0000
0000
0000
0000
0000
0000
0000
0000
0000
0000
0020
0000
0000
0000
0000
0000
0000
0000
0000
0000
0000
0000
0100
0000
0000
0000
0000
0000
0000
0000
0000
0000
0000
0000
0230
0300
0000
0000
0000
0000
0000
0000
0000
0000
0000
0000
1001
0000
0000
0000
0000
0000
0000
0000
0000
0000
0000
0000
0000
0000
0000
0000
0000
0000
0000
0000
0000
0000
0000
0000
0000
0000
0000
0000
0000
0000
0000
0000
0000
0000
0000
0000
0000
0000
0000
0000
0000
0000
0000
0000
0000
0000
0000
0000
0001
0000
0000
0000
0000
0000
0000
0000
0000
0000
0000
0000
0000
0000
0000
0000
0000
0000
0000
0000
0000
0000
0000
0000
0010
0000
0000
0000
0000
0000
0000
0000
0000
0000
0000
0000
0000
0000
0000
0000
0000
0000
0000
0000
0000
0000
0000
0000
0100
0000
0000
0000
0000
0000
0000
0000
0000
0000
0000
0000
1000
0000
0000
0000
0000
0000
0000
0000
0000
0000
0000
0000
0010
0000
0000
0000
0000
0000
0000
0000
0000
0000
0000
0000
0000
0000
0000
0000
0000
0000
0000
0000
0000
0000
0000
0000
,
0200
0000
0000
0000
0302
0000
0000
0000
1003
0000
0001
0000
1000
0001
0100
0000
,
0010
0000
0100
0000
0010
1000
0001
0000
1000
0100
0001
0000
1000
0010
0001
0000
,
0100
0000
0110
0000
0000
0000
1000
0000
0001
0100
0010
0000
0100
0001
1000
0000
,
1100
0000
0000
0000
1001
0000
0000
0000
1000
0010
0100
0000
0010
1000
0001
0000
,
0011
0000
0000
0000
1100
0000
0000
0000
0001
0000
1000
0000
0010
0100
0010
0000
,
0001
0000
1000
0000
0200
0000
0001
0000
0301
0000
0010
0100
0000
0010
0100
0000
,
1000
0100
0010
0001
1000
0000
1001
0000
0000
0001
0100
1000
0100
0001
1000
0000
,
0001
0000
0101
0000
0000
0000
1001
0000
0000
1000
0100
0000
0001
0100
1000
0000
,
0001
0000
1100
0000
0000
0000
0101
0000
0000
0100
0001
0000
1000
0000
1100
0000
,
0000
0100
1000
0000
0010
0000
0110
0000
0100
0001
0010
0000
0100
0000
0110
0000
,
0000
0000
1001
0000
0000
0000
0110
0000
0000
1000
0010
0000
0100
0000
0101
0000
,
0001
0010
0100
1000
0001
0000
1010
0000
0000
1000
0100
0000
0010
0000
0011
0000
,
0200
0000
0000
0000
1300
0000
0010
0100
0001
0010
1000
0000
0001
0100
1000
0001
,
0100
0000
0010
1000
0100
0010
0001
0000
1000
0010
0001
1000
0100
0000
0100
0001
,
1000
0000
0100
0000
0110
0000
0000
0000
0001
0010
0100
0000
0010
0100
1000
0000
,
0001
0100
0010
0000
0100
0010
2000
0000
0000
0000
3001
0010
0100
1000
0001
0010
,
0100
1000
0001
0100
0001
0100
0010
0000
1000
0001
1000
0001
0010
0000
0100
1000
,
0100
1000
0010
0000
0100
0001
0010
0100
1000
0000
0010
0000
0100
0000
1001
0000
,
0000
0000
1000
0100
1000
0100
0010
0000
0001
1000
0001
1000
0010
0000
0100
0001
,
0100
0001
0010
0000
0100
1000
0010
0000
0100
0001
0010
0000
0100
0000
1100
0000
,
0000
0000
1000
0010
0200
0000
0310
0000
0100
0001
0020
0000
0130
0000
0010
0001
,
1000
0001
0100
0000
1010
0000
0110
0000
0101
0000
1001
0000
0110
0000
0000
0000
,
1001
0000
0001
0100
0010
1000
0001
0010
,
0100
0000
1000
0000
0100
0001
0100
0000
0010
0100
0010
0000
0001
1000
0001
1000
,
0010
0100
0001
0000
0001
0010
1000
0000
1000
0010
0100
0000
0100
1000
0001
0000
,
0100
0000
0110
0000
0000
0000
1001
0000
1000
0000
0010
0000
0100
0001
0100
0001
,
0010
0100
1000
0000
1000
0010
0001
0000
0001
0010
0100
0000
0100
0001
1000
0000
,
0100
0000
0000
0110
0000
0000
0110
0000
0000
0011
0000
0000
0000
0000
0000
1100
0000
0000
1000
0100
0010
0001
0000
0000
,
0000
0000
1001
0000
0001
0100
1000
0000
1000
0100
0010
0000
0010
1000
0001
0000
,
0010
0000
0110
0000
0000
0000
1001
0000
0001
0000
1000
0100
1000
0100
1000
0001
,
0100
0010
1000
0000
1000
0100
0001
0000
0001
0100
0010
0000
0010
0001
1000
0000
,
0010
0000
0000
0110
0000
0000
0110
0000
0000
1010
0000
0000
0000
0000
0000
0101
0000
0000
0001
0010
0100
2000
0000
0000
,
0000
0000
0000
0000
0000
0000
0000
0000
0000
0000
0000
0000
0000
0000
0000
0000
0000
0000
0000
0000
0000
0000
0000
0000
3002
0003
0000
0000
0000
0000
0000
0000
0000
0000
0000
0000
0200
0300
0000
0000
0000
0000
0000
0000
0000
0000
0000
0000
0020
0030
0000
0000
0000
0000
0000
0000
0000
0000
0000
0000
2000
3000
0000
0000
0000
0000
0000
0000
0000
0000
0000
0000
2002
3003
0000
0000
0000
0000
0000
0000
0000
0000
0000
0000
0000
0000
0000
0000
0000
0000
0000
0000
0000
0000
0000
0000
2000
3000
0000
0000
0000
0000
0000
0000
0000
0000
0000
0000
0200
0300
0000
0000
0000
0000
0000
0000
0000
0000
0000
0000
0020
0030
0000
0000
0000
0000
0000
0000
0000
0000
0000
0000
0002
0003
0000
0000
0000
0000
0000
0000
0000
0000
0000
0000
2002
3003
0000
0000
0000
0000
0000
0000
0000
0000
0000
0000
0000
0000
0000
0000
0000
0000
0000
0000
0000
0000
0000
0000
0002
0003
0000
0000
0000
0000
0000
0000
0000
0000
0000
0000
0200
0300
0000
0000
0000
0000
0000
0000
0000
0000
0000
0000
,
0020
0030
0000
0000
0000
0000
0000
0000
0000
0000
0000
0000
2000
3000
0000
0000
0000
0000
0000
0000
0000
0000
0000
0000
2002
3003
0000
0000
0000
0000
0000
0000
0000
0000
0000
0000
0000
0000
0000
0000
0000
0000
0000
0000
0000
0000
0000
0000
2000
3000
0000
0000
0000
0000
0000
0000
0000
0000
0000
0000
0200
0300
0000
0000
0000
0000
0000
0000
0000
0000
0000
0000
0020
0030
0000
0000
0000
0000
0000
0000
0000
0000
0000
0000
0002
0003
0000
0000
0000
0000
0000
0000
0000
0000
0000
0000
2002
3003
0000
0000
0000
0000
0000
0000
0000
0000
0000
0000
0000
0000
0000
0000
0000
0000
0000
0000
0000
0000
0000
0000
0110
0000
0000
0000
0000
0000
0000
0000
0000
0000
0000
0000
0000
0000
0000
0000
0000
0000
0000
0000
0000
0000
0000
0000
2002
0000
0000
0000
0000
0000
0000
0000
0000
0000
0000
0000
0000
0000
0000
0000
0000
0000
0000
0000
0000
0000
0000
0000
0000
0000
0000
0000
0000
0000
0000
0000
0000
0000
0000
0000
0000
0000
0000
0000
0000
0000
0000
0000
0000
0000
0000
0000
,
0000
0000
0000
0000
,
0000
0000
0000
0000
,
0000
0000
0000
0000
,
3003
0000
0000
0000
;
