#TITLE:プランA;
#SUBTITLE:;
#ARTIST:DISH;
#TITLETRANSLIT:PLAN A;
#SUBTITLETRANSLIT:;
#ARTISTTRANSLIT:DISH;
#GENRE:ANIME;
#CREDIT:;
#MUSIC:PLAN A.ogg;
#BANNER:PLAN A.png;
#BACKGROUND:PLAN A-bg.png;
#CDTITLE:;
#SAMPLESTART:51.159;
#SAMPLELENGTH:11.636;
#SELECTABLE:YES;
#OFFSET:0.841;
#BPMS:0.000=165.000;
#STOPS:;
#BGCHANGES:2.500=PLAN A.avi=1.000=0=0=0=StretchNoLoop====,
99999.000=-nosongbg-=1.000=0=0=0=StretchNoLoop====
;
#FGCHANGES:;

//--------------- dance-single - ----------------
#NOTES:
     dance-single:
     :
     Hard:
     12:
     0.663708,0.698556,0.67638,0.011088,0.787262,419,358,61,1,0,0,0.663708,0.698556,0.67638,0.011088,0.787262,419,358,61,1,0,0:
0000
0000
0000
0000
,
0101
0000
0100
0010
0000
0100
0001
0000
0000
0011
0000
0000
,
1100
0000
0100
0010
0000
0100
1000
0000
0000
1010
0000
0000
,
0101
0000
0001
0010
0000
0100
1000
0000
0000
1100
0000
0000
,
1001
0000
1000
0010
0000
0100
0001
0000
1000
0100
0000
0000
,
1000
1000
0001
0001
,
0100
0000
0000
0100
0000
0001
1000
0000
0000
1100
0000
0000
,
0001
0001
1000
1000
,
0010
0000
0000
0010
0000
0100
0001
0000
0000
0101
0000
0000
,
1000
0000
0001
0000
1000
0000
0001
0000
0000
1000
0000
0000
,
0010
0000
0100
0000
0010
0000
0100
0000
0001
1000
0000
1000
,
0001
0000
0000
0010
0000
0000
0100
0000
1000
0010
0000
0100
,
0010
0000
1000
0001
0000
0010
0100
0000
1000
0001
0000
0000
,
0110
0000
0000
0000
0000
0000
0000
0000
0000
0000
0000
0000
0000
0000
0000
0000
0000
0000
0000
0000
0000
0000
0000
0000
0000
0000
0000
0000
0000
0000
0000
0000
0000
0000
0000
0000
0000
0000
0000
0000
0000
0000
0000
0000
0000
0000
0000
0000
0001
0000
0000
0000
0000
0000
0000
0000
0000
0000
0000
0000
0000
0000
0000
0000
0000
0000
0000
0000
0000
0000
0000
0000
0000
0000
0000
0000
0000
0010
0000
0000
0000
0000
0000
0000
0000
0000
0000
0000
0000
0000
0000
0000
0000
0000
0000
0000
0000
0000
0000
0000
0000
0000
0000
0000
0000
0000
0000
0000
0000
0000
0000
0000
0000
0000
0000
0000
0000
0000
0000
0000
0000
0000
0000
0000
0000
0000
0000
0000
0100
0000
0000
0000
0000
0000
0000
0000
0000
0000
0000
0000
0000
0000
0000
0000
1000
0000
0000
0000
0000
0000
0000
0000
0000
0000
0000
0000
0000
0000
0000
0000
0000
0000
0000
0000
0000
0000
0000
0000
0000
0000
0000
0000
0000
0000
0000
0000
0000
0000
0000
0000
0000
0000
0000
0000
0000
0000
0000
0000
0000
0000
0000
0000
,
1000
0000
0001
0100
0000
0001
1000
0000
0000
1100
0000
0000
,
1000
0000
1000
0010
0000
0010
0100
0000
0100
0001
0000
0001
,
0000
0000
1000
0100
0000
0100
1000
0000
0000
1100
0000
0000
,
0110
0000
0000
0000
0000
0000
0000
0000
0000
0000
0000
0000
0000
0000
0000
0000
0000
0000
0000
0000
0000
0000
0000
0000
0000
0000
0000
0000
0000
0000
0000
0000
0000
0000
0000
0000
0000
0000
0000
0000
0000
0000
0000
0000
0000
0000
0000
0000
1000
0000
0000
0000
0000
0000
0000
0000
0000
0000
0000
0000
0000
0000
0000
0000
0000
0000
0000
0000
0000
0000
0000
0000
0000
0000
0000
0000
0000
0010
0000
0000
0000
0000
0000
0000
0000
0000
0000
0000
0000
0000
0000
0000
0000
0000
0000
0000
0000
0000
0000
0000
0000
0000
0000
0000
0000
0000
0000
0000
0000
0000
0000
0000
0000
0000
0000
0000
0000
0000
0000
0000
0000
0000
0000
0000
0000
0000
0000
0000
0100
0000
0000
0000
0000
0000
0000
0000
0000
0000
0000
0000
0000
0000
0000
0000
0001
0000
0000
0000
0000
0000
0000
0000
0000
0000
0000
0000
0000
0000
0000
0000
0000
0000
0000
0000
0000
0000
0000
0000
0000
0000
0000
0000
0000
0000
0000
0000
0000
0000
0000
0000
0000
0000
0000
0000
0000
0000
0000
0000
0000
0000
0000
0000
,
0001
0000
1000
0100
0000
1000
0001
0000
0000
0101
0000
0000
,
0001
0000
0001
0100
0000
0100
0010
0000
1000
0000
0000
1000
,
0010
0000
0010
0100
0000
0000
0001
1000
0001
1000
0000
0000
,
1010
0101
1010
0101
,
0011
0000
0000
1100
0000
0000
0011
0000
0000
1100
0000
0100
,
1000
0000
1000
0010
0000
0100
0001
0000
0001
0010
0000
0100
,
1000
0000
1000
0010
0000
0100
0001
0000
0001
0010
0000
0000
,
1100
0011
1100
0011
,
0101
0000
0000
1010
0000
0000
0101
0000
0000
1010
0000
1000
,
0001
0000
0000
0000
0000
0000
0000
0000
0000
0000
0000
0000
0000
0000
0000
0000
0000
0000
0000
0000
0000
0000
0000
0000
0000
0000
0000
0000
0000
0101
0000
0000
0000
0000
0000
0000
0000
0000
0000
0000
0000
0000
0000
0000
0000
0000
0000
0000
0000
0000
0000
0000
0000
0000
0000
0000
0000
0000
0000
0000
0000
0000
0000
0000
0000
0000
0000
0000
0000
0000
0000
0000
0000
0000
0000
0000
0000
1100
0000
0000
0000
0000
0000
0000
0000
0000
0000
0000
0000
0000
0000
0000
0000
0000
0000
0000
0000
0000
0000
0000
0000
0000
0000
0000
0000
0000
0000
0000
0000
0000
0000
0000
0000
0000
0000
0000
0000
0000
0000
0000
0000
0000
0000
0000
0000
0101
0000
0000
0000
0000
0000
0000
0000
0000
0000
0000
0000
0000
0000
0000
0000
0000
0000
0000
0000
0000
0000
0000
0000
0000
0000
0000
0000
0000
0000
0000
0000
0000
0000
0000
0000
0000
0000
0000
0000
0000
0000
0000
0000
0000
0000
0000
0000
1000
0000
0000
0000
0000
0000
0000
0000
0000
0000
0000
0000
0000
0000
0000
0000
0000
0000
0000
,
0001
0000
0100
0010
0000
1000
0001
0000
0010
0100
0000
1000
,
0001
0000
0000
0001
0000
0000
0100
0000
0000
0100
0000
0001
,
1000
0000
0000
1000
0000
0000
0100
0000
0000
0100
0000
1000
,
0010
0110
1000
1001
,
0100
0000
0000
0110
0000
0000
1000
0000
0000
1001
0000
1000
,
0001
0000
0100
0000
0001
0000
1000
0000
0100
0000
1000
0000
,
0002
1000
0100
1000
,
0103
0000
0001
0000
0000
0001
0000
0000
0001
1000
0000
0100
,
0010
0000
0000
0110
0000
0000
0001
0000
1000
0010
0000
0010
,
0100
0000
0001
1000
0000
0100
0000
0000
1000
0001
0000
0100
,
0010
0000
0000
1001
0000
0000
0001
0000
0100
0010
0000
1000
,
0001
0000
0101
0000
0000
1100
0000
0000
0101
0000
0000
1000
,
0010
0000
0000
0010
0000
0100
0001
0000
0001
1000
0000
1000
,
0100
0000
0000
0100
0000
1000
0001
0000
0001
0010
0000
0010
,
0100
1001
0010
1001
,
1000
0100
1000
0001
0100
0001
0010
0000
0000
0110
0000
0100
,
1000
0000
0000
1001
0000
0000
0001
0000
0100
1000
0000
0100
,
0010
0000
0010
1000
0000
1000
0000
0000
0100
0001
0000
0100
,
0010
0000
0000
1001
0000
0001
0100
0000
0000
0100
0000
0001
,
1000
0000
1100
0000
0000
0101
0000
0000
1100
0000
0000
1000
,
0010
0000
0000
0010
0000
0100
0001
0000
0001
1000
0000
1000
,
0100
0000
0000
0010
0000
0100
1000
0000
0001
0100
0000
0000
,
0010
1001
0100
1001
,
0001
0100
0001
1000
0100
1000
0010
0000
0000
0110
0000
0000
,
1001
0000
0010
0100
0000
0010
0100
0000
0010
0100
0000
0000
,
1001
0000
0010
0100
0000
0010
0100
0000
0010
0100
0000
0000
,
1001
0000
1000
0100
0000
0100
0001
0000
1000
0010
0000
0010
,
0001
0000
0000
1000
0000
0010
0100
0000
0000
1001
0000
0000
,
0110
0000
0001
1000
0000
0001
1000
0000
0001
1000
0000
0000
,
0110
0000
1000
0001
0000
1000
0001
0000
1000
0001
0000
0000
,
0110
0000
0010
1000
0000
1000
0100
0000
0010
0001
0000
0001
,
1000
0001
0100
0010
0100
0001
0010
0100
1000
0001
0000
0000
,
0110
0000
0000
0000
;

//--------------- dance-single - ----------------
#NOTES:
     dance-single:
     :
     Challenge:
     16:
     0.81419,0.831615,0.410263,0.066529,1.402657,514,477,37,6,0,0,0.81419,0.831615,0.410263,0.066529,1.402657,514,477,37,6,0,0:
0000
0000
0000
0000
,
0001
0000
1000
0100
0010
0100
1000
0010
0100
0010
1000
0100
,
0010
0000
0001
0100
0010
0100
0001
0010
0100
0010
0001
0100
,
0010
0000
1000
0100
0010
0100
1000
0001
0100
0010
0100
0001
,
1000
0000
0001
0010
0100
1000
0001
0010
0100
0110
0000
0000
,
1000
0000
0001
0100
0000
0010
0000
0000
1000
0100
0000
0010
,
0000
0000
0001
1000
0000
1000
0100
0000
0000
0110
0000
0000
,
0001
0000
0100
0010
0000
1000
0000
0000
0100
0010
0000
0001
,
0000
0000
0100
0010
0000
1000
0001
0000
0010
0100
0010
0100
,
0010
0000
0001
0000
1000
0000
0200
0000
0000
0010
0000
0000
,
1300
0000
0010
0000
0100
0000
0001
0000
1000
0100
0000
1000
,
0010
0000
0000
0100
0000
0000
0001
0000
1000
0100
1000
0001
,
0100
0000
0010
1000
0100
0010
0001
0100
0010
1000
0000
0000
,
1100
0000
0000
0000
0000
0000
0000
0000
0000
0000
0000
0000
0000
0000
0000
0000
0000
0000
0000
0000
0000
0000
0000
0000
0000
0000
0000
0000
0000
0000
0000
0000
0000
0000
0000
0000
0000
0000
0000
0000
0000
0000
0000
0000
0000
0000
0000
0000
1000
0000
0000
0000
0000
0000
0000
0000
0000
0000
0000
0000
0000
0000
0000
0000
0000
0000
0000
0000
0000
0000
0000
0000
0000
0000
0000
0000
0000
0010
0000
0000
0000
0000
0000
0000
0000
0000
0000
0000
0000
0000
0000
0000
0000
0000
0000
0000
0000
0000
0000
0000
0000
0000
0000
0000
0000
0000
0000
0000
0000
0000
0000
0000
0000
0000
0000
0000
0000
0000
0000
0000
0000
0000
0000
0000
0000
0000
0000
0000
0010
0000
0000
0000
0000
0000
0000
0000
0000
0000
0000
0000
0000
0000
0000
0000
0100
0000
0000
0000
0000
0000
0000
0000
0000
0000
0000
0000
0000
0000
0000
0000
0000
0000
0000
0000
0000
0000
0000
0000
0000
0000
0000
0000
0000
0000
0000
0000
0000
0000
0000
0000
0000
0000
0000
0000
0000
0000
0000
0000
0000
0000
0000
0000
,
0100
0000
0000
0000
0001
0000
1000
0000
0000
0000
1000
0000
0001
0000
0000
0000
0010
0100
0010
0000
0000
0000
0001
0000
,
1000
0000
1000
0010
0000
0010
0100
0000
0100
0001
0000
1000
,
0000
0000
1000
0010
0000
0010
0100
0001
1000
0010
0100
0001
,
0101
0000
0000
0000
0000
0000
0000
0000
0000
0000
0000
0000
0000
0000
0000
0000
0000
0000
0000
0000
0000
0000
0000
0000
0000
0000
0000
0000
0000
0000
0000
0000
0000
0000
0000
0000
0000
0000
0000
0000
0000
0000
0000
0000
0000
0000
0000
0000
0001
0000
0000
0000
0000
0000
0000
0000
0000
0000
0000
0000
0000
0000
0000
0000
0000
0000
0000
0000
0000
0000
0000
0000
0000
0000
0000
0000
0000
0010
0000
0000
0000
0000
0000
0000
0000
0000
0000
0000
0000
0000
0000
0000
0000
0000
0000
0000
0000
0000
0000
0000
0000
0000
0000
0000
0000
0000
0000
0000
0000
0000
0000
0000
0000
0000
0000
0000
0000
0000
0000
0000
0000
0000
0000
0000
0000
0000
0000
0000
0010
0000
0000
0000
0000
0000
0000
0000
0000
0000
0000
0000
0000
0000
0000
0000
0100
0000
0000
0000
0000
0000
0000
0000
0000
0000
0000
0000
0000
0000
0000
0000
0000
0000
0000
0000
0000
0000
0000
0000
0000
0000
0000
0000
0000
0000
0000
0000
0000
0000
0000
0000
0000
0000
0000
0000
0000
0000
0000
0000
0000
0000
0000
0000
,
0100
0000
0000
0000
1000
0000
0001
0000
0000
0000
0001
0000
1000
0000
0000
0000
0010
0100
0010
0000
0000
0000
1000
0000
,
0001
0000
0001
0010
0000
0010
0100
0000
1000
0000
0000
1000
,
0010
0000
0010
0100
0000
0100
0001
0010
0100
1000
0010
0100
,
0002
0000
0100
2003
0000
0100
3002
0000
0100
2003
0000
0100
,
3002
0000
0010
2003
0000
0010
3002
0000
0010
2003
0000
0010
,
3100
0000
0100
1001
0000
0100
0010
0000
0100
1001
0000
0100
,
0010
0000
0100
1001
0000
0100
0010
0000
0100
1001
0000
0010
,
0200
0000
0000
1000
0000
0000
0001
0000
0301
0020
0000
0130
,
1000
0000
1000
0001
0000
0100
0000
0000
0010
1000
0000
0001
,
0100
0000
0000
0000
0000
0000
0000
0000
0000
0000
0000
0000
0000
0000
0000
0000
0000
0000
0000
0000
0000
0000
0000
0000
0000
0000
0000
0000
0000
0011
0000
0000
0000
0000
0000
0000
0000
0000
0000
0000
0000
0000
0000
0000
0000
0000
0000
0000
0100
0000
0000
0000
0000
0000
0000
0000
0000
0000
0000
0000
0000
0000
0000
0000
0000
0000
0000
0000
0000
0000
0000
0000
0000
0000
0000
0000
0000
1010
0000
0000
0000
0000
0000
0000
0000
0000
0000
0000
0000
0000
0000
0000
0000
0000
0000
0000
0100
0000
0000
0000
0000
0000
0000
0000
0000
0000
0000
0000
0000
0000
0000
0000
0000
0000
0000
0000
0000
0000
0000
0000
0000
0000
0000
0000
0000
0011
0000
0000
0000
0000
0000
0000
0000
0000
0000
0000
0000
0000
0000
0000
0000
0000
0000
0000
0100
0000
0000
0000
0000
0000
0000
0000
0000
0000
0000
0000
0000
0000
0000
0000
0000
0000
0000
0000
0000
0000
0000
0000
0000
0000
0000
0000
0000
1010
0000
0000
0000
0000
0000
0000
0000
0000
0000
0000
0000
0000
0000
0000
0000
0000
0000
0000
,
0100
0000
0000
0000
0001
1000
0001
0000
0000
0000
0010
0000
0100
0000
0000
0000
0100
0000
1000
0000
0000
0000
1000
0000
,
0001
0000
0000
0001
0000
1000
0010
0000
0100
0001
0000
0001
,
0010
0000
0100
1000
0000
1000
0001
0000
0001
1000
0000
0100
,
1001
0000
0000
1001
0000
0010
0100
0010
0100
0010
0000
0100
,
1001
0000
0000
1001
0000
0100
0010
0100
0010
0100
0000
0001
,
0011
0000
0110
0000
1100
0000
1001
0000
1010
0000
0110
0000
,
0010
1000
0001
1000
0010
0100
0010
1000
0100
0010
0001
1000
,
0010
0000
0100
0010
0000
0100
0010
0000
0100
1001
0000
0001
,
0100
0000
0001
1000
0000
0100
0010
0000
0001
1100
0000
1000
,
0001
0000
0100
0001
0000
0100
0010
0000
1000
0101
0000
0001
,
0010
0000
0100
1000
0000
0001
0100
0000
0010
1000
0000
1000
,
0001
0000
0110
1000
0000
0110
0001
0000
0110
1000
0000
0001
,
0010
0000
0000
0010
0000
0100
1000
0000
1000
0010
0000
0010
,
0100
0000
0000
0100
0000
0100
0001
0000
0001
0010
0000
0100
,
1000
0000
0100
0001
0000
0100
1000
0000
0100
0001
0000
0100
,
1000
0010
0100
0001
0010
0100
1000
0000
0010
1001
0100
0010
,
0100
0000
0001
1000
0000
1000
0100
0000
1000
0011
0000
0001
,
0100
0000
0100
0010
0000
1000
0001
0000
0001
1010
0000
1000
,
0010
0000
0010
0100
0000
0001
1000
0000
0000
0100
0000
1000
,
0001
0000
1001
0010
0000
1001
0100
0000
1001
0010
0000
0100
,
0010
0000
0000
0100
0000
0001
1000
0000
0001
0010
0000
0100
,
1000
0000
0000
0010
0000
0100
0001
0000
0100
0010
0000
0100
,
1000
0000
0100
0010
0000
0100
0001
0000
0010
0100
0000
0010
,
0001
0100
0010
0001
1000
0100
0010
0000
1000
0110
0000
0000
,
1001
0000
0100
0010
0000
0100
0010
0000
1000
0110
0000
0000
,
1001
0010
0100
0010
0000
0100
0010
0000
0100
0010
0000
0100
,
0001
0010
1000
0010
0100
1000
0001
0100
1000
0100
0010
1000
,
0010
0001
1000
0100
0001
0010
1000
0001
0100
0110
0000
0000
,
1001
0000
0100
0010
0000
0100
0010
0000
0001
0110
0000
0000
,
1001
0100
0010
0100
0000
0010
0100
0000
0010
0100
0000
0010
,
1000
0100
0001
0100
0010
1000
0001
0100
1000
0010
0001
0010
,
0100
0001
1000
0100
0010
1000
0001
0100
1000
0010
0000
0000
,
0110
0000
0000
0000
;
