#TITLE:Overdose;
#SUBTITLE:;
#ARTIST:なとり;
#TITLETRANSLIT:Overdose;
#SUBTITLETRANSLIT:;
#ARTISTTRANSLIT:Natori;
#GENRE:POP;
#CREDIT:;
#MUSIC:Overdose.ogg;
#BANNER:Overdose.png;
#BACKGROUND:Overdose-bg.png;
#CDTITLE:;
#SAMPLESTART:50.369;
#SAMPLELENGTH:16.271;
#SELECTABLE:YES;
#OFFSET:2.004;
#BPMS:0.000=118.000
,136.000=59.000
,136.500=118.000
;
#STOPS:;
#LASTBEATHINT:1.909269;
#BGCHANGES:6.250=Overdose.avi=1.000=0=0=0=StretchNoLoop====,
99999.000=-nosongbg-=1.000=0=0=0=StretchNoLoop====
;
#FGCHANGES:;

//--------------- dance-single - ----------------
#NOTES:
     dance-single:
     :
     Hard:
     11:
     0,0,0,0,0:
0000
0000
0000
0000
,
0000
0000
0000
0000
,
0000
0000
0000
0000
,
0000
0000
0000
0000
,
0000
0000
0000
0000
,
0000
0000
0000
0000
,
0110
0000
0001
1000
0001
1000
0110
0110
,
0001
1000
0010
0100
0001
1000
0001
0010
,
0110
0000
1000
1000
0011
1100
1000
0010
,
1001
1001
0001
1000
0010
0100
0010
0100
,
0001
0000
0011
0000
1000
0010
0100
0000
,
0110
0000
1001
0000
0001
0010
0100
1000
,
0000
0001
0100
0010
0100
1000
0100
0001
,
0011
1100
1010
0101
,
0001
0100
1000
0001
0010
1000
0001
1000
,
0100
0010
0001
0000
1000
0010
0100
0001
,
0011
0000
1100
0000
1010
0000
0101
0002
,
0010
0000
0013
0200
2300
0001
3001
0000
,
1010
0000
0101
0000
0001
1000
0100
0000
,
0011
0000
1100
0000
1000
0100
0001
0100
,
1000
0000
0001
0100
1000
0000
1000
0100
,
0002
0023
0230
2300
3020
0230
0302
1003
,
1100
0000
0011
0000
0001
1000
0010
0000
,
0101
0000
1010
0000
1000
0010
0001
0010
,
2000
0000
3001
0010
0100
0001
0100
1000
,
0020
0000
0100
0000
2030
0001
3001
0010
,
0110
0000
0000
1000
0010
0000
0100
0000
0001
0000
0000
0001
0010
0000
0100
0000
,
0000
0000
1000
0000
0010
0000
0100
0000
0001
0000
0000
0001
0010
0000
0100
0000
,
1000
0000
0000
0001
0100
0000
0010
0000
0010
0000
0000
1000
0100
0000
0010
0000
,
0011
0000
0101
0000
2010
0001
3001
0010
,
0100
0000
0000
0100
1000
0000
0001
0000
0100
0000
0000
0100
0010
0000
1000
0000
,
0000
0001
0010
0100
0110
0000
1001
1000
,
0010
0000
0000
0100
0001
0000
0010
0000
1000
0000
0010
0001
1000
0000
0010
0000
,
0000
0200
0302
2003
3200
0010
0310
0001
,
2002
3003
0000
0000
0000
0000
0000
0000
0000
0000
0000
0000
0000
0000
0000
0000
0000
0000
0000
0000
0000
0000
0000
0000
1000
0000
0000
0000
0000
0000
0000
0000
0000
0000
0000
0000
0000
0000
0000
0000
0000
0000
0000
0000
0000
0000
0000
0000
0001
0000
0000
0000
0000
0000
0000
0000
0000
0000
0000
0000
0000
0000
0000
0000
0000
0000
0000
0000
0000
0000
0000
0000
0100
0000
0000
0000
0000
0000
0000
0000
0000
0000
0000
0000
0000
0000
0000
0000
0000
0000
0000
0000
0000
0000
0000
0000
0010
0000
0000
0000
0000
0000
0000
0000
0000
0000
0000
0000
0000
0000
0000
0000
0000
0000
0000
0000
0000
0000
0000
0000
0110
0000
0000
0000
0000
0000
0000
0000
0000
0000
0000
0000
0000
0000
0000
0000
0000
0000
0000
0000
0000
0000
0000
0000
1001
0000
0000
0000
0000
0000
0000
0000
0000
0000
0000
0000
0000
0000
0000
0000
0000
0000
0000
0000
0000
0000
0000
0000
0001
0000
0000
0000
0000
0000
0000
0000
0000
0000
0000
0000
0000
0000
0000
0000
0000
0000
0000
0000
0000
0000
0000
0000
,
0010
0100
1000
0010
0110
1000
1001
0010
,
0011
0100
1100
0010
1010
0100
0101
0001
,
0010
0100
1000
0002
0100
0103
0010
0110
,
1000
0001
0010
0100
1000
1100
0101
0001
,
0100
0010
1000
0001
0011
1000
1010
0010
,
0100
0001
0101
0100
0001
1000
1100
0000
,
2000
3020
0230
0302
1000
1003
0010
0110
,
0000
1001
0000
0001
2000
0010
3010
0200
,
0001
0000
0301
0000
1000
0100
0000
1000
0001
0000
0001
0100
0000
0001
0100
0000
,
0000
0010
0010
1000
0001
1000
0002
0100
,
0103
0010
1000
0001
0010
0001
0010
0100
,
0000
1000
0001
1000
0002
0100
0103
0020
,
1000
1030
0001
2000
3200
0320
0032
1003
,
0000
0010
0100
0000
0001
0000
1000
0000
0001
0000
0010
0000
0100
0000
0000
0000
,
1000
0100
0010
0001
1000
0010
0110
0000
;

//--------------- dance-single - ----------------
#NOTES:
     dance-single:
     :
     Challenge:
     15:
     0.495389,0.417502,0,0,0,353,353,0,0,0,0,0.495389,0.417502,0,0,0,353,353,0,0,0,0:
0000
0000
0000
0000
,
0000
0000
0000
0000
,
0000
0000
0000
0000
,
0000
0000
0000
0000
,
0000
0000
0000
0000
,
0000
0000
0000
0000
,
1001
0010
2100
3010
0102
0013
0110
0110
,
2000
0000
0010
0000
3010
0000
0100
0001
1000
0100
0100
0001
0100
0100
0000
1000
,
0001
0000
0000
0000
0101
0000
1100
0000
1000
0010
0100
0000
0001
1000
0100
0200
,
0010
0000
0310
0000
1000
0000
0001
0010
0100
0000
0011
0000
1100
0000
0011
0000
,
1100
0000
0001
1000
0010
0000
0100
0001
1000
0000
0001
0010
0000
0100
1000
0010
,
0000
0010
1000
0001
0000
0010
0000
0100
1000
0000
1000
0002
0000
0000
0103
0010
,
0000
0100
0110
1010
1000
1001
0011
0010
,
0110
0000
0000
0100
1000
0000
0000
0001
0100
0000
0001
1000
0001
0010
0100
0000
,
0011
0001
1000
0001
1100
1000
0001
1000
,
0101
0000
0001
1000
0020
0000
0000
0000
0230
0000
0302
0000
2003
0000
3200
0000
,
0302
0000
0000
0000
0000
0000
0000
0000
0000
0103
0000
0000
0010
0000
0000
0000
0000
0000
0001
0000
0000
0000
0000
0000
1100
0000
0000
0000
0000
0000
1000
0000
0001
0000
1000
0000
0001
0000
0000
0000
0000
0000
0100
0000
0000
0000
0000
0000
,
0020
0000
0000
1030
0001
0000
0010
0001
2000
0000
0010
0000
3010
0000
0000
0100
,
0001
0000
0000
0001
1000
0000
0010
0100
0000
0001
0100
1000
0100
0010
0000
1000
,
0001
0000
0000
0010
0100
0000
1000
0010
0000
1000
0100
0001
0100
1000
0001
0100
,
0010
0000
0000
0000
1000
0000
0010
0000
0100
0000
0000
0001
1000
0000
0000
0001
,
2000
3002
0023
0230
2300
3200
0320
0032
,
1003
0000
0000
1000
0001
0100
0010
0001
0000
0001
0010
0100
0001
1000
0000
1000
,
0001
0000
0000
0001
0010
0000
0010
1000
0000
1010
0000
0010
0001
1000
0010
0100
,
0002
0000
0000
0000
0000
0000
0013
0000
0000
0100
0000
0000
1000
0000
0000
0001
0100
0001
0100
0000
0000
0020
0000
0000
,
0100
0000
0130
0000
0010
0000
1000
0001
1000
0000
1100
0000
0011
0000
0001
0000
,
1000
0000
0000
0001
0100
0000
0010
0000
1010
0000
0000
1000
0100
0000
0010
0000
,
1001
0000
1000
0010
0100
0000
0001
0010
0100
0000
0000
1000
0001
0000
0100
0000
,
0110
0000
0010
1000
0100
0000
0010
0001
0100
0000
0010
1000
0100
0000
0010
0000
,
1100
1000
0101
0001
2100
0010
3010
0100
,
0101
0000
0000
0001
1000
0000
0100
0000
1100
0000
0000
1000
0001
0000
0100
0000
,
0101
0000
0000
0000
0000
0000
0001
0000
0000
0010
0000
0000
0100
0000
0000
0000
0000
0000
1000
0000
0000
0010
0000
0000
0100
0000
0000
0000
0000
0000
0001
0000
1000
0000
0001
0000
1000
0000
0000
0000
0000
0000
0100
0000
0000
0000
0000
0000
,
1100
0000
1000
0100
0010
0000
0001
0100
0010
1000
0001
0010
0100
0000
0010
0000
,
1100
2000
3020
0230
0302
1000
1003
0100
,
0220
0330
0000
0000
0000
0000
0000
0000
0000
0000
0000
0000
0000
0000
0000
0000
0000
0000
0000
0000
0000
0000
0000
0000
0001
0000
0000
0000
0000
0000
0000
0000
0000
0000
0000
0000
0000
0000
0000
0000
1000
0000
0000
0000
0000
0000
0000
0000
0010
0000
0000
0000
0000
0000
0000
0000
0000
0000
0000
0000
0000
0000
0000
0000
0000
0000
0000
0000
0000
0000
0000
0000
0101
0000
0000
0000
0000
0000
0000
0000
0000
0000
0000
0000
0000
0000
0000
0000
0000
0000
0000
0000
0000
0000
0000
0000
0001
0000
0000
0000
0000
0000
0000
0000
0000
0000
0000
0000
0000
0000
0000
0000
1000
0000
0000
0000
0000
0000
0000
0000
0100
0000
0000
0000
0000
0000
0000
0000
0000
0000
0000
0000
0000
0000
0000
0000
0000
0000
0000
0000
0000
0000
0000
0000
1100
0000
0000
0000
0000
0000
0000
0000
0000
0000
0000
0000
0000
0000
0000
0000
0000
0000
0000
0000
0000
0000
0000
0000
1000
0000
0000
0000
0000
0000
0000
0000
0000
0000
0000
0000
0000
0000
0000
0000
0001
0000
0000
0000
0000
0000
0000
0000
,
0100
0000
1000
0100
0000
0010
0100
0000
0000
0001
0000
1000
0100
0000
0010
0100
0000
0001
0100
0000
0000
1100
0000
1000
,
0010
0000
0000
0101
0000
0001
0010
0000
0000
1100
0000
1000
0001
0100
0001
0100
0000
0000
0110
0000
0010
1000
0000
1000
,
0001
0000
0001
0010
0000
0010
0100
0000
0100
2000
0000
0000
0001
0000
0000
3001
0000
0000
0110
0000
0000
0100
0000
0000
,
1001
0000
0001
0100
0000
0010
0001
0000
0010
0100
0000
0001
0010
0000
0001
1000
0000
1000
0001
0000
0000
1001
0000
1000
,
0100
0000
0010
1000
0000
0010
0100
0000
1000
0010
0000
0100
0010
0000
1000
0001
0000
0001
1000
0000
0000
1001
0000
0010
,
0100
0000
0000
0110
0000
1000
0001
0000
0000
1001
0000
0100
0010
0000
0000
0110
0000
0001
1000
0000
0000
1001
0000
0001
,
0010
0000
0010
0100
0000
0100
1000
0000
1000
0002
0000
0000
1000
0000
0000
1003
0000
0000
0100
0000
0000
1001
0000
0000
,
0010
0102
0013
2100
3010
0110
0110
0002
,
0010
0000
0013
0000
0100
1000
0001
0100
0100
1000
0100
0100
0000
0001
1000
0000
,
0000
0000
1100
0000
0101
0000
0001
0010
0100
0000
1000
0001
0100
0200
0010
0000
,
0310
0000
0001
0000
1000
0010
0100
0000
1010
0000
0101
0000
1010
0000
0101
0000
,
0001
2100
3010
0102
0013
0110
0110
1000
,
1100
0000
0101
0000
0001
0010
0100
1000
0001
1000
0100
0010
0000
0001
1000
0000
,
0000
0000
0010
0100
0000
0000
0001
0000
0000
1000
0000
0001
0010
0000
0100
0010
0000
0001
1000
0000
0000
0010
0000
0000
,
0100
0000
0000
0001
0000
0000
0010
0000
0100
1000
0000
0001
0100
0000
0000
0010
0000
0000
0110
0000
0000
0000
0000
0000
;
