#TITLE:ă‚ȘăƒˆăƒŽă‚±;
#SUBTITLE:;
#ARTIST:Creepy Nuts;
#TITLETRANSLIT:Otonoke;
#SUBTITLETRANSLIT:;
#ARTISTTRANSLIT:Creepy Nuts;
#GENRE:ANIME;
#CREDIT:;
#MUSIC:Otonoke.ogg;
#BANNER:Otonoke.png;
#BACKGROUND:Otonoke-bg.png;
#CDTITLE:;
#SAMPLESTART:0.637;
#SAMPLELENGTH:10.059;
#SELECTABLE:YES;
#OFFSET:0.752;
#BPMS:0.000=173.000
,32.000=172.000
,33.500=170.000
,228.000=172.000
;
#STOPS:;
#BGCHANGES:3.000=Otonoke.avi=1.000=0=0=0=StretchNoLoop====,
99999.000=-nosongbg-=1.000=0=0=0=StretchNoLoop====
;
#FGCHANGES:;

//--------------- dance-single - ----------------
#NOTES:
     dance-single:
     :
     Hard:
     12:
     0,0,0,0,0:
0000
0000
0000
0000
,
0000
0000
0000
0000
,
0000
0000
0000
0000
,
0000
0000
0000
0000
,
0000
0000
0000
0000
,
0001
0000
1000
0100
0000
0001
0100
0000
,
1000
0100
0000
0001
0100
0000
1000
0000
,
0001
0000
0100
1000
0000
0100
0001
0000
,
0010
0000
0000
0100
1000
0001
0100
0001
,
1000
0000
0000
1000
0000
0000
0010
0000
0000
0010
0000
0000
0100
0000
0000
0100
,
0000
0001
0010
0100
1000
0000
1001
0000
,
0001
0000
0000
0001
0000
0000
1000
0000
0000
1000
0000
0000
0001
0000
0000
0001
,
0000
0100
0010
0100
0010
0000
0100
1001
,
0000
0000
1000
0000
0000
0010
0000
0000
1000
0000
0000
0100
0000
0000
0010
0000
,
0001
1000
0010
0100
0001
0000
0001
0110
,
0000
0000
1000
0000
0100
0000
1000
0000
0001
0000
0000
0100
0000
0000
0010
0000
,
1000
0001
0010
0100
1000
0000
1100
0000
,
0001
0000
0000
0100
0000
0000
1000
0000
0000
0100
0000
0000
0001
0000
0000
0100
,
0000
1000
0100
0001
1000
0000
0100
0110
,
0000
1000
0100
0001
0100
0000
1000
0001
,
0100
0000
1000
0000
0100
0000
0001
0000
1000
0000
0000
0100
0000
0000
0010
0000
,
0001
0000
1000
0000
0100
0000
1000
0000
0001
0000
1000
0000
0010
0000
0000
0010
,
0000
0100
0001
1000
0010
0000
0010
1001
,
0000
0000
1000
0000
0010
0000
0100
0000
0010
0000
0000
0010
0000
0000
1000
0000
,
0001
0000
1000
0000
0001
0000
0010
0000
0100
0000
0000
0100
0000
0000
0100
0000
,
1000
0000
1000
0100
0000
0001
0100
0000
,
1000
0100
0000
0001
0100
0000
0010
0000
,
0000
0100
0000
0010
0100
0000
0100
0010
,
0000
0100
1000
0001
0100
0000
0010
0000
,
0100
0000
0001
0100
1000
0000
0100
0000
,
0001
0010
1000
0010
0001
0000
1000
0000
,
0001
0100
0010
1000
0001
0000
0010
0000
,
0100
0000
0000
0100
1000
0001
1000
0010
,
0100
0000
0000
0100
0001
0000
0000
0000
1000
0000
0010
0000
0100
0000
0001
0000
,
0010
0000
0000
0010
0100
0000
1000
0000
0001
0000
1000
0000
0010
0000
1000
0000
,
0001
0000
0000
0001
0010
0000
0100
0000
0000
0000
1000
0000
0001
0000
0000
0000
,
0010
0000
0100
0000
1000
0010
0100
0001
,
1000
0000
0000
1000
0100
0000
0000
0000
0010
0000
0000
0000
0110
0000
0000
0000
,
0100
0000
1000
0001
0100
0010
0100
0001
,
1000
0000
0000
1000
0001
0000
0000
0000
0010
0000
0000
0000
0110
0000
0000
0000
,
0100
0000
1000
0100
0010
0001
1000
0010
,
0100
0000
0000
0100
0001
0000
0010
0000
0100
0000
1000
0000
0001
0000
0100
0000
,
0010
0000
0000
0010
1000
0000
0100
0000
0010
0000
0100
0000
1000
0000
0001
0000
,
1000
0000
0000
0010
0100
0000
0001
0000
0000
1000
0100
0000
0010
0000
0000
0001
,
1000
0000
0010
0000
0100
0001
1000
0100
,
1000
0000
0000
1000
0010
0000
0000
0000
0100
0000
0000
0000
0110
0000
0000
0000
,
0010
1000
0001
1000
0100
0010
0001
0010
,
0100
0000
0000
0100
1000
0000
0000
0000
0001
0000
0000
0000
1001
0000
0000
0000
,
1000
0000
0010
0000
0100
0000
0001
0000
1000
0000
0000
1000
0000
0000
0010
0000
,
0100
0000
0000
0001
0000
0000
1000
0000
0010
0000
0000
0100
0000
0000
0001
0000
,
1000
0000
0000
0100
0000
0000
0010
0000
0100
0000
0000
0000
1000
0000
0000
0000
,
0001
0000
0000
0010
0000
0000
0100
0000
1000
0000
0000
0010
0000
0000
1000
0000
,
0001
0000
0000
0100
0000
0000
0001
0000
0010
0000
0000
0000
0100
0000
0000
0000
,
1000
0000
0000
0100
0000
0000
0001
0000
0100
0000
0000
1000
0000
0000
0010
0000
,
0001
0000
0000
0010
0000
0000
1000
0000
0001
0000
0010
0000
0000
0000
0010
0000
,
0100
0000
1000
0000
1000
0001
0000
0001
,
0100
0000
0100
0000
0010
1000
0001
0000
,
1000
0000
0000
1100
0000
0000
0001
0000
0000
0101
0000
0000
1000
0000
0000
1100
,
0000
0000
0001
0000
0000
0101
0000
0000
1000
0000
0000
0010
0100
0000
0000
0000
,
0001
0000
0000
0011
0000
0000
1000
0000
0000
1010
0000
0000
0001
0000
0000
0011
,
0000
0000
1000
0000
0000
1010
0000
0000
0001
0000
0000
0100
0010
0000
0000
0000
,
1000
0000
0000
0001
0100
0000
0010
0000
0000
1000
0100
0000
0010
0000
0000
0001
,
0100
0000
0010
0000
0000
1000
0100
0000
0010
0000
0000
0001
1000
0000
0000
0000
,
1100
0000
0000
1000
0001
0000
0101
0000
0000
0001
1000
0000
1100
0000
0000
0100
,
0010
0000
0000
0000
;

//--------------- dance-single - ----------------
#NOTES:
     dance-single:
     :
     Challenge:
     16:
     0.797385,0.923254,0.088774,0,0.410582,503,495,8,0,0,0,0.797385,0.923254,0.088774,0,0.410582,503,495,8,0,0,0:
0000
0000
0000
0000
,
0000
0000
0000
0000
,
0000
0000
0000
0000
,
0000
0000
0000
0000
,
0000
0000
0000
0000
,
0001
0000
0000
1000
0100
0000
1000
0000
0000
0001
0100
0000
0001
0000
0000
1000
,
0100
0000
1000
0000
0000
0001
0100
0000
0001
0000
0000
1000
0100
0000
0000
0000
,
1000
0000
0000
0001
0100
0000
0001
0000
0000
1000
0100
0000
1000
0000
0000
0001
,
0100
0000
0000
0000
0000
0000
0001
1000
0001
0000
1000
0100
1000
0000
0010
0100
,
0001
0000
0000
0001
1000
0000
0100
0000
0000
0010
0100
0000
1000
0000
0000
0001
,
1000
0000
0010
0100
0010
0000
0100
0001
1000
0000
0000
0001
0010
0000
0000
0000
,
0100
1000
0000
1000
0010
0000
0100
0001
0000
0001
0010
0000
0100
1000
0000
1000
,
0010
0100
0010
0100
0001
0010
0100
1000
0010
0000
0100
0000
0101
0000
1001
0000
,
0000
0000
0001
0010
0000
0100
1000
0000
0001
0000
1000
0010
0000
0000
0100
0001
,
1000
0000
0001
0000
0010
0000
0100
1000
0001
0000
0000
0100
0010
0000
0110
0000
,
0000
0000
1000
0100
0001
0100
1000
0000
0001
0000
0000
1000
0001
0000
0100
0010
,
0100
0000
0001
0100
1000
0100
0001
0000
1001
0000
0000
0100
0010
0000
0100
0000
,
0110
0000
0000
1000
0010
0000
0101
0000
0000
0001
0010
0000
1100
0000
0000
1000
,
0010
0000
0100
0001
0010
0100
1000
0000
1100
0000
0000
0001
0100
0000
0110
0000
,
0000
0000
0001
0010
1000
0000
0010
0100
1000
0000
0000
1000
0010
0000
0100
0001
,
0010
0000
0110
0000
1100
0000
1001
0000
0101
0000
0000
0001
0100
0000
0010
1000
,
0001
0000
0010
0000
0100
0000
1000
0100
0001
0000
0100
0000
1000
0000
0000
0010
,
0100
0000
0001
0010
1000
0000
0010
0000
0001
0000
0000
0100
0010
0000
1010
0000
,
0000
0000
1000
0100
1000
0001
1000
0100
0010
0000
0001
1000
0000
0000
1000
0001
,
0100
0000
0101
0000
0001
0100
0001
1000
0001
0000
0000
0100
0010
0000
0100
0000
,
0001
0000
0000
0001
0100
0000
1000
0000
0000
1000
0100
0000
0001
0000
0000
0001
,
0100
0000
1000
0000
0000
1000
0100
0000
0001
0000
0000
0001
1000
0000
0000
0000
,
0000
0000
0001
0000
0000
0100
0010
0000
0010
0000
0000
1000
0100
0000
0100
0000
,
0000
0010
0001
0000
0001
1000
0100
0000
0010
0000
0000
0001
1000
0000
0000
0000
,
0000
0000
0000
0000
0010
0100
0010
0000
0010
0000
0000
0100
0010
0000
0000
0000
,
1000
0001
1000
0000
1000
0000
0001
0000
0100
0000
0000
0100
0010
0000
0000
0000
,
1000
0001
1000
0000
0010
0000
0100
0010
0100
0000
0000
0010
0100
0000
0000
0000
,
0010
0000
0000
0000
0000
0000
1000
0100
0010
0000
0100
0000
1000
0000
0001
0000
,
0101
0000
0000
0100
0001
0000
0010
0100
1000
0000
0001
0000
1000
0000
0010
0000
,
0110
0000
0000
0100
0001
0000
1000
0100
0010
0000
0100
0000
1000
0000
0001
0000
,
0011
0000
0000
0010
0100
0000
1100
0000
0000
1000
0001
0000
1001
0000
0000
1000
,
0010
0000
0100
0010
1000
0000
0001
0010
0100
0000
1000
0000
0100
0000
0010
0000
,
0011
0000
0000
0001
1000
0000
0010
0000
0000
0000
0100
0000
0101
0000
0000
0000
,
1000
0000
0001
0010
0100
0000
1000
0100
0010
0000
0001
0000
0100
0000
0010
0000
,
0110
0000
0000
1000
0001
0000
0010
0000
0000
0000
0100
0000
1100
0000
0000
0000
,
1000
0000
0000
0001
0100
0000
0010
1000
0001
0000
0010
0000
1000
0000
0010
0000
,
0110
0000
0000
0100
1000
0000
0001
1000
0010
0000
0001
0000
0010
0000
1000
0000
,
1010
0000
0000
0010
0100
0000
0010
1000
0001
0000
0010
0000
0100
0000
1000
0000
,
1001
0000
0000
0001
0100
0000
0110
0000
0000
0010
1000
0000
1001
0000
0000
0001
,
0010
0000
0100
1000
0010
0000
0100
0001
1000
0000
0100
0000
0001
0000
0100
0000
,
1100
0000
1000
0010
0001
0000
0010
0000
0000
0000
0100
0000
0110
0000
0000
0000
,
0010
0000
1000
0100
0010
0000
0001
0010
0100
0000
1000
0000
0001
0000
0100
0000
,
0101
0000
0001
0010
1000
0000
0010
0000
0000
0000
0100
0000
1001
0000
0000
0000
,
0001
0000
0010
0000
0100
0000
1000
0000
1100
0000
0000
0110
0000
0000
0011
0000
,
0002
0000
0000
0100
0000
0000
1000
0000
0203
0000
0000
0010
0000
0000
0001
0000
,
0320
0000
0000
1000
0000
0000
0100
0000
2030
0000
0000
0000
0001
0000
0000
0000
,
3001
0000
0020
0100
0000
0000
0001
0000
0230
0000
0000
0001
0000
0000
0010
0000
,
2300
0000
0000
0010
0000
0000
0001
0000
3200
0000
0000
0000
1000
0000
0000
0000
,
0320
0000
0000
0001
0000
0000
0100
0000
2030
0000
0000
0010
0000
0000
0001
0000
,
3020
0000
0000
0001
0000
0000
0230
0000
1000
0000
2300
0000
0000
0000
0001
0000
,
3002
0000
0100
0000
0000
2003
0000
0010
,
3020
0000
0100
0000
0130
0010
0110
0000
,
0002
0000
0000
0103
0100
0000
2000
0000
0000
3100
0100
0000
0002
0000
0000
0103
,
0100
0000
2000
0000
0000
3100
0100
0000
0002
0000
0000
0103
0200
0000
0000
0000
,
2300
0000
0000
3010
0010
0000
0002
0000
0000
0013
0010
0000
2000
0000
0000
3010
,
0010
0000
0002
0000
0000
0013
0010
0000
2000
0000
0000
3010
0020
0000
0000
0000
,
0032
0000
0000
0103
0100
0000
2000
0000
0000
3010
0010
0000
0002
0000
0000
0103
,
0100
0000
2000
0000
0000
3010
0010
0000
0002
0000
0000
0103
0200
0000
0000
0000
,
2300
0000
0000
3001
0001
0000
0200
0000
0000
1300
1000
0000
0200
0000
0000
0301
,
0001
0000
0000
0000
;
