#TITLE:乙女のルートはひとつじゃない!;
#SUBTITLE:;
#ARTIST:angela;
#TITLETRANSLIT:Otome no Route wa Hitotsu janai;
#SUBTITLETRANSLIT:;
#ARTISTTRANSLIT:angela;
#GENRE:ANIME;
#CREDIT:;
#MUSIC:Otome no Route wa Hitotsu janai.ogg;
#BANNER:Otome no Route wa Hitotsu janai.png;
#BACKGROUND:Otome no Route wa Hitotsu janai-bg.png;
#CDTITLE:;
#SAMPLESTART:45.284;
#SAMPLELENGTH:9.690;
#SELECTABLE:YES;
#OFFSET:0.348;
#BPMS:0.000=191.948;
#STOPS:;
#DISPLAYBPM:192.000;
#BGCHANGES:1.500=Otome no Route wa Hitotsu janai.avi=1.000=0=0=0=StretchNoLoop====,
99999.000=-nosongbg-=1.000=0=0=0=StretchNoLoop====
;
#FGCHANGES:;

//--------------- dance-single - ----------------
#NOTES:
     dance-single:
     :
     Hard:
     12:
     0.651771,0.720664,0.899475,0.617712,0.081278,421,338,83,57,0,0,0.651771,0.720664,0.899475,0.617712,0.081278,421,338,83,57,0,0:
0000
0000
0000
0000
,
0011
1001
1010
1001
,
0101
1001
1100
1001
,
0110
0000
1001
0000
,
0011
1100
0011
1100
,
0101
0001
0011
0000
1001
0000
0110
0000
,
1010
0101
1010
0101
,
1100
1000
1010
0000
1001
0000
0110
0000
,
1100
0000
0101
0000
1000
0001
0000
1001
,
0000
0010
0100
0010
0110
0000
1000
0100
,
1000
0000
0010
0100
0000
1010
0000
0011
,
0000
0101
0000
1100
0000
0100
0010
0000
,
0001
0100
1000
0010
0001
0100
1000
0010
,
0000
1001
0000
0001
0010
0000
0100
1000
,
0001
0000
0010
0100
0000
1100
0000
0101
,
0000
0011
0000
1010
0000
0000
1100
0000
,
1001
0000
0110
0000
1001
0010
0100
1001
,
0000
0001
0100
0001
0100
0000
0100
0010
,
1000
0000
1000
0001
0000
1001
0000
1100
,
0000
0011
0000
0110
0000
1000
0100
0000
,
0001
0100
1000
0100
0001
0100
1000
0100
,
0000
0011
0000
1000
0100
0000
0010
0001
,
0100
0000
0001
1000
0000
1010
0000
0011
,
0000
0110
0000
1000
0001
0000
0011
0000
,
0010
0001
0100
0001
0010
0001
0100
0010
,
0000
0010
1000
0100
0001
0000
0001
0100
,
1000
0000
0000
0000
0000
0000
0000
0000
0000
0000
0000
0000
0000
0000
0000
0000
0000
0000
0000
0000
0000
0000
0000
0000
0000
0000
0000
0000
0000
0000
0000
0000
0000
0000
0022
0033
0000
0000
0000
0000
0000
0000
0000
0000
0000
0000
0000
0000
0000
0000
2020
3030
0000
0000
0000
0000
0000
0000
0000
0000
0000
0000
0000
0000
,
0000
0000
0000
0000
0000
0000
0000
0000
0000
0000
0000
0000
0000
0000
0000
0000
0000
0000
0000
2200
3300
0000
0000
0000
0000
0000
0000
0000
0000
0000
0000
0000
0000
0000
0000
0202
0303
0000
0000
0000
0000
0000
0000
0000
0000
0000
0000
0000
0000
0000
0000
0022
0033
0000
0000
0000
0000
0000
0000
0000
0000
0000
0000
0000
,
0000
0000
0000
2020
3030
0000
0000
0000
0000
0000
0000
0000
0000
0000
0000
0000
0000
0000
0000
2200
3300
0000
0000
0000
0000
0000
0000
0000
0000
0000
0000
0000
0000
0000
0000
0000
0000
0000
0000
0000
0000
0000
0000
0000
0000
0000
0000
0000
0000
0000
0000
0000
0000
0000
0000
0000
0000
0000
0000
0000
0000
0000
0000
0000
,
0000
0000
0000
0000
0000
0000
0000
0000
0202
0303
0000
0000
0000
0000
0000
0000
0000
0000
0000
0000
0000
0000
0000
0000
0000
0000
0000
0000
0000
0000
0000
0000
0000
0000
0000
0000
0000
0000
0000
0000
0000
0000
0022
0033
0000
0000
0000
0000
0000
0000
0000
0000
0000
0000
0000
0000
0000
0000
2020
3030
0000
0000
0000
0000
,
0000
0000
0000
0000
0000
0000
0000
0000
0000
0000
0000
0000
0000
0000
0000
0000
0000
0000
0000
0000
0000
0000
0000
0000
0000
0000
0000
2200
3300
0000
0000
0000
0000
0000
0000
0000
0000
0000
0000
0000
0000
0000
0000
0202
0303
0000
0000
0000
0000
0000
0000
0000
0000
0000
0000
0000
0000
0000
0000
0220
0330
0000
0000
0000
,
0000
0000
0000
0220
0330
0000
0000
0000
0000
0000
0000
0220
0330
0000
0000
0000
0000
0000
0000
0000
0000
0000
0000
0000
0000
0000
0000
0220
0000
0000
0000
0000
0000
0000
0000
0000
0000
0000
0000
0000
0000
0000
0000
0000
0000
0000
0000
0000
0000
0000
0000
0000
0000
0000
0000
0000
0000
0000
0000
0000
0000
0000
0000
0000
,
0330
0001
0001
0002
,
2000
0000
0000
0000
,
3003
1000
1000
2000
,
0002
0000
0000
0000
,
0000
0000
3003
0000
0001
0010
0100
0010
,
0100
1000
0000
1000
0000
1000
0100
0010
,
0100
0010
0000
0000
1001
0000
0001
1000
,
0000
0011
0000
0001
0010
0000
0110
0000
,
0010
0001
0100
0010
0100
0001
0010
0100
,
0000
0000
1000
0000
1000
0010
0100
0001
,
0000
0000
0001
0010
0100
0000
1000
0001
,
0000
0110
0000
1001
0000
1000
0100
0010
,
0001
1000
0100
0010
0001
0010
0000
0001
,
0010
0100
0000
1100
0000
1100
0000
0100
,
0010
0001
0000
0001
0010
0000
0010
0100
,
0000
1000
0000
0001
0000
0001
1000
0001
,
1000
0000
0010
0000
0100
0000
0000
0001
,
0000
0000
0001
0010
0001
0000
1000
0100
,
0000
0001
0000
0100
1000
0000
0001
1000
,
0001
1000
0001
1000
0010
0100
0010
0100
,
0010
0100
0010
0100
0001
0020
0001
0031
,
1000
0020
1000
1030
0001
0200
0001
0301
,
1000
0200
1000
2300
0001
3002
1000
2003
,
0010
3020
0100
0230
1000
0000
0010
0000
,
0302
1000
1003
0000
0001
0200
0010
0310
,
1000
0200
0010
0310
0001
0020
0100
0130
,
1000
0020
0100
0230
0001
0302
0100
0203
,
1000
2300
0100
3200
0001
0000
0010
0000
,
1000
0000
0001
0300
0001
0010
0000
0100
,
1000
0100
0000
0001
0000
0001
0000
0001
,
0100
1000
0001
0010
1000
0000
0010
0100
,
0000
1000
0000
2002
0000
0000
0000
0000
,
0000
0000
0000
0000
,
0000
0000
0000
3003
,
0011
0000
0110
0000
1100
0000
0000
1001
,
0000
0000
0000
1000
0010
0000
0100
0001
,
0000
0001
0010
0010
1000
0100
0100
0001
,
1000
0100
0100
0001
0000
0011
0000
0010
,
1001
0000
0000
0000
;

//--------------- dance-single - ----------------
#NOTES:
     dance-single:
     :
     Challenge:
     17:
     0.870061,1.062031,0.682734,0.812779,0.541853,562,499,63,75,0,0,0.870061,1.062031,0.682734,0.812779,0.541853,562,499,63,75,0,0:
0000
0000
0000
0000
,
0101
0100
0001
0100
0001
1000
0100
1000
,
1100
1000
0100
1000
0001
0100
0001
1000
,
0010
0100
0000
0000
0000
0000
0000
0000
0001
0010
0100
1000
0001
0010
0100
1000
,
0100
0010
0100
0010
0011
0001
0100
0010
,
1010
1000
0100
0010
0011
0000
0110
0000
,
1100
1000
0001
1000
0101
0001
1000
0001
,
1100
1000
1001
0001
0101
0100
0110
0010
,
1001
0000
0101
0000
1000
0001
0000
1001
,
0000
0000
0001
0000
0010
0000
0100
0000
0010
0001
0010
0100
1000
0000
0100
0000
,
1000
0010
0100
0002
1000
0203
0001
2300
,
0010
3002
0103
0110
0000
0010
1000
0010
,
0001
0010
1000
0000
0001
0010
1000
0000
0001
0100
1000
0000
0001
0100
1000
0000
,
0000
0110
0010
1000
0100
0010
0100
1000
,
0002
0000
1000
1003
0000
0101
0000
1100
,
0000
0110
0000
1001
0000
0001
1000
0000
,
1100
0000
0110
0000
0011
0100
0010
1100
,
0000
0000
1000
0100
1000
0001
0100
0001
0010
0100
1000
0001
0010
0001
0100
0010
,
1000
0010
0100
0001
0020
0100
2030
0010
,
3002
0010
0203
0310
0000
0010
1000
0000
,
0200
0000
0001
0300
0200
0000
1000
0300
0200
0000
0001
0300
0200
0000
1000
0300
,
1100
0000
0011
0000
1100
0001
0010
0100
,
1000
0001
1000
0100
0000
1010
1000
1001
,
0000
0101
0001
1001
0000
1000
0010
0000
,
0110
0001
0010
0001
1001
0100
1000
0101
,
0001
0010
0100
1000
0010
0100
0001
1000
0100
0010
0001
0010
0100
1000
0001
0010
,
0200
0000
0000
0000
0000
0000
0000
0000
0000
2300
0000
0000
0000
0000
0000
0000
0000
3020
0000
0000
0000
0000
0000
0000
0000
0032
0000
0000
0000
0000
0000
0000
,
0000
0000
0000
0203
0000
0000
0000
0000
0000
0000
0000
0000
0000
0000
0000
0000
0000
0000
0000
2300
0000
0000
0000
0000
0000
0000
0000
0000
0000
0000
0000
0000
0000
0000
0000
3020
0000
0000
0000
0000
0000
0000
0000
0000
0000
0000
0000
0000
0000
0000
0000
1000
0000
0000
0000
0000
0000
0000
0000
1000
0000
0000
0000
0000
,
0000
0000
0000
1000
0000
0000
0000
0000
0000
0000
0000
0000
0000
0000
0000
0000
0000
0000
0000
2030
0000
0000
0000
0000
0000
0000
0000
0000
0000
0000
0000
0000
0000
0000
3000
0002
0000
0000
0000
0000
0000
0000
0000
0000
0000
0000
0000
0000
0000
0000
0000
2000
0000
0000
0000
0000
0000
0000
0000
0000
0000
0000
0000
0000
,
0003
0000
0000
0000
0000
0000
0000
0000
3020
0000
0000
0000
0000
0000
0000
0000
0000
0000
0000
0000
0000
0000
0000
0000
0000
2030
0000
0000
0000
0000
0000
0000
0000
0000
0000
0000
0000
0000
0000
0000
0000
0000
3200
0000
0000
0000
0000
0000
0000
0000
0000
0000
0000
0000
0000
0000
0000
0000
0302
0000
0000
0000
0000
0000
,
0000
0000
0000
0000
0000
0000
0000
0000
0000
0000
0000
0023
0000
0000
0000
0000
0000
0000
0000
0000
0000
0000
0000
0000
0000
0000
0000
2030
0000
0000
0000
0000
0000
0000
0000
0000
0000
0000
0000
0000
0000
0000
0000
3200
0000
0000
0000
0000
0000
0000
0000
0000
0000
0000
0000
0000
0000
0000
0000
0010
0000
0000
0000
0000
,
0000
0000
0000
0010
0000
0000
0000
0000
0000
0000
0000
0310
0000
0000
0000
0000
0000
0000
0000
0000
0000
0000
0000
0000
0000
0000
0000
2002
0000
0000
0000
0000
0000
0000
0000
0000
0000
0000
0000
0000
0000
0000
0000
0000
0000
0000
0000
0000
0000
0000
0000
0000
0000
0000
0000
0000
0000
0000
0000
0000
0000
0000
0000
0000
,
0003
0001
0001
3002
,
2000
0000
0000
0000
,
3000
1000
1000
2003
,
0002
0000
0000
0000
0000
0000
3003
0000
1000
0100
0010
0100
1000
0001
0100
0010
,
0100
0001
1000
0100
0010
0000
0000
0000
0001
0000
0010
0100
1000
0000
0010
0000
,
1000
0100
0020
0000
0000
0000
0032
0000
0003
0000
0100
0010
0100
0000
0001
0000
,
0010
0100
0010
0000
0000
0000
0110
0000
0110
0000
0000
0000
0002
0000
2000
0000
,
3003
0000
2002
0000
3000
0000
2003
0000
0002
0000
3003
0000
0220
0330
0000
0000
,
0001
0100
0100
0100
0001
0100
0100
0100
0001
0000
1000
0000
0010
0000
0100
0000
,
0001
0100
0010
0000
1000
0100
0010
0000
1000
0000
0010
0000
0001
0000
0100
0000
,
1000
0100
0010
0000
1000
0100
0010
0000
0011
0000
0000
0000
1001
0000
1001
0000
,
0000
0000
0110
0000
0000
0000
1001
0000
0000
0000
1000
0100
1000
0100
0100
0001
,
0100
0001
0100
0100
1000
0100
0010
0001
1000
0000
1001
0000
0000
0000
0001
0000
,
1000
0100
1000
0000
0000
0000
1100
0000
0000
0000
0011
0000
0000
0000
0001
0000
,
0010
0100
0001
0000
0100
0000
0001
0100
0010
0000
0000
0000
0001
0100
1000
0000
,
0000
0000
0110
0000
0000
0000
1001
0000
0000
0000
0001
0000
1000
0100
0010
0100
,
1000
0010
1000
0001
0100
0010
0100
0001
1000
0000
0100
0000
0001
0000
0100
0000
,
1000
0010
0100
0010
1000
0001
0010
0001
,
1000
0100
1000
0100
0001
0100
0001
1000
,
0010
0001
0100
0010
1000
0100
0010
0100
,
1000
0100
1000
0100
0010
0001
0010
0001
2000
0000
3010
0000
0200
0000
1300
0000
,
0002
0013
0200
0301
0020
1030
0002
0103
,
0020
0000
0001
0030
2000
0000
3010
0000
0200
0000
1300
0000
0002
0000
0013
0000
,
0200
1300
0200
0301
2000
0000
0001
0000
,
0100
0100
0100
0000
3002
0103
0020
0031
,
0020
1030
0200
0301
2000
3010
0002
0103
,
0020
0031
0020
1030
0200
0301
2000
3001
,
0200
1300
0020
1030
0002
0000
1000
0003
,
1000
0100
0010
0000
0001
0010
0100
1000
0001
0000
0001
0000
0000
0000
0001
0000
,
0100
0010
0100
0000
0000
0000
1010
0000
0000
0000
0101
0000
0000
0000
0011
0000
,
0001
1001
0100
0010
1001
0000
0010
1100
,
0000
0101
0000
2002
0000
0000
0000
0000
,
0000
0000
0000
0000
,
0000
0000
0000
3003
,
0012
0000
1000
0000
0103
0000
0010
0101
,
1000
0100
0010
0001
1000
0000
0001
0000
0100
0000
0000
0000
1000
0000
0100
0000
,
0001
0000
0010
0000
0100
0000
1000
0000
0001
0100
0010
0100
0010
1000
0100
0010
,
0100
0010
0001
0100
0010
0100
1000
0000
0000
0000
0110
0000
0000
0000
1001
0000
,
1001
0000
0000
0000
;
