#TITLE:オトメの心得;
#SUBTITLE:;
#ARTIST:GARNiDELiA;
#TITLETRANSLIT:Otome no Kokoroe;
#SUBTITLETRANSLIT:;
#ARTISTTRANSLIT:GARNiDELiA;
#GENRE:ANIME;
#CREDIT:;
#MUSIC:Otome no Kokoroe.ogg;
#BANNER:Otome no Kokoroe.png;
#BACKGROUND:Otome no Kokoroe-bg.png;
#CDTITLE:;
#SAMPLESTART:50.742;
#SAMPLELENGTH:14.887;
#SELECTABLE:YES;
#OFFSET:1.138;
#BPMS:0.000=133.000;
#STOPS:;
#LASTBEATHINT:0.305900;
#BGCHANGES:2.500=Otome no Kokoroe.avi=1.000=0=0=0=StretchNoLoop====,
99999.000=-nosongbg-=1.000=0=0=0=StretchNoLoop====
;
#FGCHANGES:;

//--------------- dance-single - ----------------
#NOTES:
     dance-single:
     :
     Medium:
     10:
     0,0,0,0,0:
0000
0000
0000
0000
,
1100
0000
1000
0100
0000
0001
0100
0001
,
0000
0100
1000
0010
0000
0010
0100
0001
,
0101
0000
0001
0100
0000
1000
0100
1000
,
0000
0100
0001
1001
0000
0000
0000
0000
,
0001
0000
0001
0000
1000
0100
0010
0001
,
1000
0000
1000
0000
0001
0100
0010
1000
,
0010
0000
0010
0000
0100
0001
0010
0100
,
1000
0000
0000
0000
0100
0000
0000
0000
0001
0000
0000
0100
0000
0000
1000
0000
,
1001
0000
0000
0001
0100
0000
1000
0100
,
0010
0000
1000
0000
1001
0000
0001
1000
,
0010
0000
0000
0010
0000
0000
0100
0000
0001
0000
0000
0000
1000
0000
0100
0000
,
0010
1001
0000
1001
,
0011
0000
1100
0000
0100
0010
0001
0100
,
1010
0000
0101
0000
0010
1000
0100
0010
,
0110
0000
0010
0001
0100
0000
0010
1000
,
1100
0000
0000
0000
0101
0000
0000
0000
0001
0000
0000
0010
0000
0000
0100
0000
,
0110
0000
0000
1000
0001
1000
0100
0001
,
0101
0000
1100
0000
1001
0000
0001
0100
,
0100
0000
0000
1000
0000
0000
0100
0000
0001
0000
0000
0000
0100
0000
0000
0000
,
1001
0000
0000
0000
0010
0000
1000
0000
0100
0000
0000
0010
0000
0000
0100
0000
,
1000
0000
0001
0000
0100
0000
0001
0000
0100
0000
0000
0010
0000
0000
0100
0000
,
1001
0000
1000
0000
0100
0000
1000
0000
0100
0000
0000
0010
0000
0000
0100
0000
,
1001
0000
0001
1000
0001
0000
1000
0001
,
2000
0000
3020
0000
0230
0000
0301
0010
,
1000
0000
1000
0010
0001
0000
1000
0010
,
0001
0000
0001
0010
1000
0000
0001
0100
,
0000
0010
1000
0000
1000
0100
0010
0001
,
2002
0000
3003
0010
,
1000
0000
0000
0100
0000
0000
1000
0000
0001
0000
0100
0000
0010
0000
1000
0000
,
0001
0000
0000
0100
0000
0000
0001
0000
0100
0000
0010
0000
1000
0000
0100
0000
,
0001
0000
0000
0100
0000
0000
1000
0000
0001
0000
0100
0000
1000
0000
0100
0000
,
0110
0000
1001
0000
0110
0000
0001
0010
,
1000
0001
0100
1000
0100
1000
0100
0010
,
0011
0000
0101
0000
1001
0000
0100
0002
,
0000
0000
1003
0200
0000
0000
0310
0002
,
0000
1003
0010
0100
0110
0000
0000
0001
,
0100
0000
0000
1000
0000
0000
0001
0000
0010
0000
1000
0000
0001
0000
1000
0000
,
0100
0000
0000
0001
0000
0000
1000
0000
0010
0000
0001
0000
1000
0000
0001
0000
,
0100
0000
0000
0010
0000
0000
0100
0000
0001
0000
0010
0000
0100
0000
1000
0000
,
0000
0000
1000
0000
0010
0000
0100
0000
0101
0000
0000
1010
0000
0000
1001
0000
,
0000
0001
0100
0001
0000
1000
0100
1000
,
0000
0010
1000
0001
0000
0010
0001
0200
,
0000
0310
1000
0200
0000
0310
0001
0100
,
0010
0000
0010
0000
1000
0000
0001
0100
,
0000
1000
0100
0001
0000
1000
0100
0010
,
0001
0000
0001
0100
0000
0010
1000
0001
,
0000
1000
0100
0000
0010
0001
1000
0010
,
0000
0000
1000
0000
0000
0010
0000
0000
0100
0000
0000
0000
0000
0000
0000
0000
,
0000
0000
0101
0000
0000
1100
0000
0000
1001
0000
0000
0000
0000
0000
0000
0000
;

//--------------- dance-single - ----------------
#NOTES:
     dance-single:
     :
     Hard:
     14:
     0.616508,0.466779,0,0,0,389,389,0,0,0,0,0.616508,0.466779,0,0,0,389,389,0,0,0,0:
0000
0000
0000
0000
,
0011
0000
1000
0100
1000
0000
0001
0000
1000
0010
1000
0010
0100
0000
0001
0000
,
1010
0000
0001
0100
0001
0000
1000
0000
0001
0100
0001
0100
0010
0000
1000
0000
,
0011
0000
1000
0010
1000
0000
0001
0000
1000
0100
1000
0100
0010
0000
0100
0000
,
0110
0000
0010
0001
0100
0000
0220
0000
0000
0000
0000
0000
0330
0000
0000
0000
,
0110
0000
0101
0000
1000
0100
0010
0001
,
0011
0000
1100
0000
0001
0100
0010
1000
,
1001
0000
0110
0000
0010
1000
0100
0001
,
0101
0000
0000
0000
1100
0000
0000
0000
1002
0000
0000
0100
0000
0000
0013
0000
,
0110
0000
0000
0010
0101
0000
0000
0000
,
0001
0000
0000
0000
1000
0000
0000
0000
1001
0000
0000
0000
0001
0000
1000
0100
,
1000
0000
0000
0010
0000
0000
0100
0000
0001
0000
0000
0000
1000
0000
0100
0000
,
1100
0000
0000
0000
1001
0000
0000
0000
1000
0100
0010
0001
1000
0100
0010
0001
,
1000
0000
0010
0100
0001
0000
0010
0000
0100
0000
0010
0001
1000
0000
0010
0000
,
0101
0000
0001
0010
0100
0000
1000
0000
0010
0000
1000
0001
0100
0000
0010
0000
,
0110
0000
0100
0001
1000
0000
0100
0000
0001
0000
0100
1000
0010
0000
0100
0000
,
0101
0000
0000
0000
1010
0000
0000
0000
1100
0000
0000
0100
0010
0000
0001
0000
,
1001
0000
0000
0000
0001
0000
1000
0010
0001
0000
1000
0000
0100
0000
0001
0000
,
0011
0000
0000
0000
1100
0000
0000
0000
1001
0000
1000
0100
1000
0000
0001
0100
,
0001
0000
0000
0010
0100
0000
0010
0001
1000
0000
0001
0100
0010
0000
0100
0000
,
0110
0000
0100
0001
0010
0100
1000
0001
0100
0000
0000
0100
0010
1000
0100
0010
,
0001
0000
1000
0100
0010
0000
0010
0000
0002
0000
1000
2003
0000
3010
0100
0000
,
0101
0000
0001
0100
0010
0000
2000
0000
0001
3002
0000
0013
0000
0000
0110
0000
,
1001
0000
1000
0010
0001
0000
1000
0100
0001
0000
1000
0100
0001
0000
0100
0000
,
0110
0000
0000
0000
0011
0000
0000
0000
1100
0000
0000
0001
1000
0000
0010
0100
,
0010
0000
0010
0100
0000
0001
1000
0000
1100
0000
0100
0000
0011
0000
0010
0100
,
0010
0000
0010
0100
0000
1000
0001
0000
1010
0000
0010
0000
0101
0000
0100
0000
,
0000
0001
1000
0000
0110
0000
0001
0000
1001
0000
1000
0000
0110
0000
0100
0000
,
0001
1000
0001
1000
0001
1000
0001
1000
0020
0000
0000
0000
0130
0000
0010
1000
,
0100
0000
0100
0001
0000
1000
0010
0000
0002
0000
1000
0000
1003
0000
0010
0000
,
0100
0000
0100
1000
0000
0001
0010
0000
2000
0000
0001
0000
3001
0000
0100
0001
,
0010
0000
0100
1000
0000
1000
0001
0000
0100
0000
0010
0000
1000
0000
0001
0000
,
0011
0000
0000
0000
1100
0000
0000
0000
1000
0100
0010
0000
0001
0010
0100
1000
,
0001
0000
1000
0020
0000
0000
0130
0000
0001
0000
0010
0000
0100
0000
1000
0000
,
1100
0000
0000
0000
0101
0000
0000
0000
1001
0000
0001
0010
0100
0000
0020
0000
,
0000
0000
0000
0130
1000
0000
0020
0000
0000
0000
0000
0130
0001
0000
1001
0000
,
0000
0000
1000
0100
0010
0000
0001
1000
0010
0100
0001
1000
0100
0010
0001
1000
,
0010
0000
0010
0001
0000
1000
0100
0000
0002
0000
1000
0000
1003
0000
1000
0001
,
0010
0000
0010
1000
0000
0001
0100
0000
2000
0000
0001
0000
3001
0000
0010
0000
,
0011
0000
0001
0100
0000
0100
1000
0000
0001
0000
0010
0000
1000
0000
0002
0000
,
0000
0000
1003
0000
0100
0000
0001
0000
0101
0000
0000
1100
0000
0000
1001
0000
,
0000
0001
0011
1100
0000
1000
1010
0101
,
0000
0000
0100
0000
0010
1000
0001
0000
0010
0000
0110
0000
0100
1000
0020
0000
,
0000
0000
0130
0001
0010
0000
2000
0000
0000
0000
3010
0001
0100
0000
1000
0000
,
0100
0000
0010
1000
0100
0010
0001
0010
0100
0000
0010
0001
1000
0000
1010
0000
,
0000
1000
0010
0110
0000
0100
0001
1000
,
0001
0000
0010
0100
0010
0000
1000
0000
0010
0001
0010
0001
1000
0000
0010
0000
,
0110
0000
0001
1000
0001
0000
0100
0000
0010
1000
0010
1000
0100
0000
0011
0000
,
0000
0000
0000
0000
0000
0000
0110
0000
0000
0000
0000
0000
0000
0000
0000
1100
0000
0000
0000
0000
0000
0000
0000
0000
0101
0000
0000
0000
0000
0000
0000
0000
0000
0000
0001
0000
0000
0000
0000
0000
0000
0000
1001
0000
0000
0000
0000
0000
,
0010
0000
0110
0000
0000
1001
0000
0000
1001
0000
0000
0000
0000
0000
0000
0000
;

//--------------- dance-single - ----------------
#NOTES:
     dance-single:
     :
     Challenge:
     16:
     0,0,0,0,0:
0000
0000
0000
0000
,
0001
0010
0100
1000
0001
1000
0100
0010
0001
0100
0010
1000
0001
1000
0010
0100
,
0001
0010
0100
1000
0001
1000
0100
0010
0001
0100
0010
1000
0001
1000
0010
0100
,
0001
0010
0100
1000
0001
1000
0100
0010
0001
0100
0010
1000
0001
1000
0010
0100
,
0001
0010
0100
1000
0001
0000
0220
0000
0000
0000
0000
0000
0330
0000
0000
0000
,
0110
0010
1000
0001
1000
0100
0010
0001
,
0011
0010
0001
1000
0001
0100
0010
1000
,
1001
0001
1000
0100
0110
0010
0001
1000
,
1010
0000
0000
0000
0101
0000
0000
0000
0011
0000
0000
1010
0000
0000
1100
0000
,
1001
0000
0001
0100
0101
0000
1000
0100
,
1100
0000
0000
0000
0011
0000
0000
0000
1001
0000
0000
0000
0001
0000
0010
0100
,
1000
0000
0001
1000
0000
1000
0010
0000
0110
0000
0000
0000
0100
0000
0001
0000
,
0110
0000
0000
0000
1001
0000
0000
0000
1000
0100
0010
0001
1000
0100
0010
0001
,
0011
0000
0000
0010
0000
0100
0010
0000
0000
0001
0000
0000
1000
0000
0001
0100
0000
0100
0010
0000
0000
0101
0000
0000
,
1010
0000
0000
0010
0000
0100
0010
0000
0000
1000
0000
0000
0001
0000
1000
0100
0000
0100
0010
0000
0000
1100
0000
0000
,
0011
0000
0000
0010
0000
0001
0100
0000
0000
0010
0000
0000
0100
0000
0000
0010
0000
1000
0100
0000
0000
0100
0000
0000
,
0011
0000
0000
0000
0000
0001
1000
0000
0000
0010
0000
0000
0101
0000
0000
0001
0010
0100
1000
0000
0000
0110
0000
0000
,
1001
0000
0000
0001
0000
0100
0001
0000
0000
0010
0000
0000
0100
0000
1000
0001
0000
0000
0101
0000
0000
0010
0000
0000
,
1100
0000
0000
0000
0000
0000
0100
0000
0000
0000
1000
0000
0001
0000
0000
0000
0000
0000
0100
0000
0000
0000
0000
0000
0110
0000
0000
0000
0010
0000
0100
0000
0000
0000
0100
0000
0010
0000
0000
0000
0000
0000
0100
0000
0000
0001
0000
0000
,
0010
0000
0000
0000
0000
0000
0000
0000
0000
0000
0001
0000
0010
0000
0000
0000
0000
0000
0100
0000
0000
1000
0000
0000
0010
0000
0000
0000
0000
0000
0001
0000
0000
0010
0000
0000
0100
0000
0000
0000
0000
0000
0010
0000
0000
0000
0000
0000
,
1010
0000
0000
0000
0000
0000
0010
0000
0000
1000
0000
0000
0100
0000
0000
0010
0000
0000
0001
0000
0000
1000
0000
0000
0010
0000
0000
0000
0000
0000
0000
0000
0000
0000
0100
0000
0010
0000
0000
1000
0000
0000
0100
0000
0000
0010
0000
0000
,
0001
0000
1000
0100
0010
0000
0010
0100
2000
0000
0001
3001
0000
1000
0010
0000
,
0101
0000
0001
0100
0010
0000
0010
0100
0001
1000
0000
0200
0000
0010
0310
0000
,
1001
0000
0001
1000
0010
0000
0100
0001
0010
0000
0100
1000
0001
0100
0010
0000
,
1010
0000
1000
0010
0100
0000
0001
0010
0100
0000
1000
0010
0100
0001
1000
0100
,
0020
0000
0001
0032
0000
1000
1003
0000
1010
0000
0100
0000
0101
0000
0001
0010
,
0200
0000
1000
2300
0000
0001
3001
0000
0110
0000
0001
0000
1001
0000
2000
0000
,
0000
3100
0010
0000
0100
0000
1000
0000
0101
0000
0010
0000
1100
0000
1000
0000
,
0001
1000
0100
1000
0001
1000
0100
1000
0020
0000
0000
0000
0130
0000
0100
0001
,
1000
0000
1000
0100
0000
0100
0001
0000
0201
0000
0010
0000
1300
0000
0100
1000
,
0001
0000
0000
0000
0000
0000
0001
0000
0000
0100
0000
0000
0000
0000
0000
0100
0000
0000
1000
0000
0000
0000
0000
0000
1200
0000
0000
0000
0000
0000
0010
0000
0000
0000
0000
0000
0301
0000
0000
0000
0000
0000
0001
0000
0000
0000
0010
0000
,
1000
0000
0000
0000
0000
0000
0001
0000
0000
0100
0000
0000
0000
0000
0000
0000
0010
0000
0100
0000
0000
0000
0000
0000
1100
0000
0000
0000
0000
0000
0010
0000
0000
0000
0000
0000
1001
0000
0000
0000
0000
0000
0001
0000
0000
0100
0000
0000
,
1000
0000
1000
0100
0001
0000
0001
0100
1000
0100
0001
0100
1000
0100
0001
0010
,
0100
0000
0100
1000
0000
0000
0110
0000
1000
0010
0100
0010
0001
1000
0100
0001
,
0010
0000
0100
1000
0010
0000
0100
0001
0010
0100
1000
0100
0010
0000
0120
0000
,
0000
0000
0000
0000
0000
0130
1000
0000
0000
0210
0000
0000
0000
0000
0000
0000
0000
0310
1000
0000
0000
1001
0000
0000
,
0000
0000
0000
0000
0000
0000
0001
0000
0000
1000
0000
0000
0100
0000
0000
1000
0000
0000
0001
0000
0000
1000
0000
0000
0100
0000
0010
0000
0001
0000
1000
0000
0100
0000
0010
0000
0001
0000
0000
0010
0000
0000
0000
0000
0000
0010
0000
0000
,
0100
0000
0000
0000
0000
0000
1000
0000
0000
0100
0000
0000
0000
0000
0000
0100
0000
0000
0001
0000
0000
0000
0000
0000
0201
0000
0000
0000
0000
0000
0010
0000
0000
0000
0000
0000
1300
0000
0000
0000
0000
0000
0100
0000
0000
0000
1000
0000
,
0001
0000
0000
0000
0000
0000
0001
0000
0000
0100
0000
0000
0000
0000
0000
0100
0000
0000
1000
0000
0000
0000
0000
0000
1200
0000
0000
0000
0000
0000
0010
0000
0000
0000
0000
0000
0301
0000
0000
0000
0000
0000
0100
0000
0000
0000
0001
0000
,
0010
0000
0000
0000
0000
0000
0100
0000
0000
1000
0000
0000
0000
0000
0000
0001
0000
0000
0100
0000
0000
0000
0000
0000
1100
0000
0000
0000
0000
0000
0110
0000
0000
0000
0100
0000
0001
0000
0000
0000
0000
0000
2001
0000
0000
0000
0000
0000
,
0000
0000
0000
0000
0000
0000
3001
0000
0000
0000
0100
0000
0010
0000
0000
0000
1000
0000
0100
0000
0000
0000
0010
0000
2000
0000
0000
0000
0000
0000
0000
0000
0000
3020
0000
0000
0000
0000
0000
0000
0000
0000
0031
0000
0000
0000
0000
0000
,
1001
0000
0000
0010
0000
0100
0010
0000
0000
1001
0000
0000
1200
0000
0000
0000
0000
0310
0001
0000
0000
1001
0000
1000
,
0010
0000
0000
0110
0000
0100
0002
0000
0000
0023
0000
0000
1030
0000
0001
0100
0000
1000
0010
0000
0000
0210
0000
0000
,
0000
0000
0000
0310
0000
1000
0100
0000
0000
0210
0000
0000
0000
0000
0000
0310
0000
0001
0100
0000
0000
0010
0000
0000
,
1000
0000
0000
0100
0010
0001
0010
0100
1000
0100
0010
0001
0010
0000
0000
0100
0000
1000
0001
0000
0000
0101
0000
0000
,
0000
0100
0010
1010
0000
0100
0010
1001
,
0001
0010
0100
1000
0001
1000
0100
0010
0001
0100
0010
1000
0001
1000
0010
0100
,
0001
0010
0100
1000
0001
1000
0100
0010
0001
0100
0010
1000
0001
0000
0110
0000
,
0000
0000
0000
0000
0000
0000
0110
0000
0000
0000
0000
0000
0000
0000
0000
1100
0000
0000
0000
0000
0000
0000
0000
0000
0101
0000
0000
0000
0000
0000
0000
0000
0000
0000
0001
0000
0000
0000
0000
0000
0001
0000
1000
0000
0000
0000
0000
0000
,
0010
0000
0000
0000
0000
0000
0100
0000
0010
0000
0000
0000
0000
0000
0000
0001
0000
1000
0000
0000
0000
0000
0000
0000
1001
0000
0000
0000
0000
0000
0000
0000
0000
0000
0000
0000
0000
0000
0000
0000
0000
0000
0000
0000
0000
0000
0000
0000
;
