#TITLE:オノマトペテン師;
#SUBTITLE:;
#ARTIST:島爺;
#TITLETRANSLIT:Onomatopetenshi;
#SUBTITLETRANSLIT:;
#ARTISTTRANSLIT:SymaG;
#GENRE:POP;
#CREDIT:;
#MUSIC:Onomatopetenshi.ogg;
#BANNER:Onomatopetenshi.png;
#BACKGROUND:Onomatopetenshi-bg.png;
#CDTITLE:;
#SAMPLESTART:78.872;
#SAMPLELENGTH:6.857;
#SELECTABLE:YES;
#OFFSET:0.842;
#BPMS:0.000=120.000
,36.000=140.000
;
#STOPS:;
#BGCHANGES:3.500=Onomatopetenshi.avi=1.000=0=0=0=StretchNoLoop====,
99999.000=-nosongbg-=1.000=0=0=0=StretchNoLoop====
;
#FGCHANGES:;

//--------------- dance-single - ----------------
#NOTES:
     dance-single:
     :
     Medium:
     11:
     0.55246,0.649008,0.5366,0.111021,0.115647,418,360,58,12,0,0,0.55246,0.649008,0.5366,0.111021,0.115647,418,360,58,12,0,0:
0000
0000
0000
0000
,
1010
0100
0100
0011
0100
0100
1001
0000
,
0011
0100
0100
1010
0100
0100
1001
0010
,
0101
0010
0010
1100
0010
0010
1001
0000
,
1100
0010
0010
0101
0010
0010
1001
0010
,
0110
0000
1010
0000
0100
0001
0101
0000
,
1000
0000
0011
0000
0010
0100
1100
0010
,
1001
0000
0101
0000
1000
0100
1100
0000
,
0011
0000
0101
0000
1100
0000
1001
1000
,
0001
0100
0001
1000
0001
0100
0001
1000
,
0100
1000
0001
1000
0100
1000
0001
1000
,
0010
0100
0010
1000
0010
0100
0010
1000
,
0100
0000
0010
0000
0100
0000
1000
0000
0100
0010
0100
0000
1000
0000
0001
0000
,
0100
0010
0100
0001
0100
0010
0100
0001
,
0010
0000
0100
0000
0010
0000
0001
0000
0010
0000
0000
0100
0000
0000
1000
0000
,
1001
0000
0100
0001
1000
0000
0010
1000
,
0100
0000
0100
0000
0010
0100
0010
0000
,
0001
0000
0001
1000
0001
0000
1000
0001
,
1000
0010
0100
0010
0100
0000
0110
0000
,
1000
0000
1000
0000
0001
0100
0002
0000
,
0013
0000
0100
0000
1000
0010
1000
0000
,
0000
0001
0100
0000
0001
0000
1000
0000
0010
0000
0000
0000
0010
0000
0000
0000
,
0100
0010
1000
0000
1001
0000
1001
0000
,
0100
0000
0000
0101
0000
0000
0100
0000
0000
1100
0000
0000
0001
0000
1000
0000
,
0001
0000
0100
0000
1000
0000
0100
0001
0000
0101
0000
0000
0000
0000
0000
0000
,
0001
0100
0001
1000
0100
1000
0001
0100
,
0001
0000
1000
0000
0100
0000
0010
0001
0000
1000
0000
1001
0000
0000
0000
0000
,
1000
1000
0001
0001
0100
0100
0010
0010
,
1000
0000
1000
0000
0001
0000
0001
0000
1000
0100
1000
0000
0001
0000
0001
0000
,
0100
0100
1000
1000
0100
0100
0001
0001
,
0010
0000
0010
0000
1000
0000
1000
0000
0010
0000
0000
0110
0000
0000
0000
0000
,
0001
0010
0100
0000
1000
0100
0010
0001
,
0000
1000
0001
0000
0001
0100
1000
0000
,
0100
0000
0100
0000
0001
1000
0001
0000
,
0000
0001
0010
0100
1000
0000
1001
0000
,
2000
0000
0000
3001
0000
0000
0100
0000
2000
0000
0000
3001
0000
0000
0010
0000
,
1000
0100
1000
0001
0100
0000
0020
0000
,
2030
3002
0023
0230
,
1300
0001
1000
0001
0100
0000
0110
0000
,
1000
0100
0100
0001
0100
0100
1000
0001
,
0100
0000
0010
0000
1000
0000
0001
0100
0000
0110
0000
0000
0000
0000
0000
0000
,
1000
0100
0010
1000
0100
0010
0001
1000
,
0001
0000
0100
0000
0010
0000
1000
0010
0000
0100
0000
0101
0000
0000
0000
0000
,
0001
0000
1000
0000
0100
0000
0000
1000
0000
0001
0000
1000
0000
0000
0010
0000
,
0200
0000
0000
0302
0000
0000
2003
0000
3001
0000
0000
0000
0000
0000
0000
0000
,
0001
0011
0100
1100
,
1000
0010
0100
0000
0100
0001
1000
0000
,
0100
0000
0000
0100
0010
0000
0010
0000
,
1100
0101
1100
1001
,
0001
0010
1000
0000
0001
0100
1000
0000
,
1000
0001
0100
0000
0100
0001
0010
0000
,
0010
0101
1010
1100
,
0011
1010
0101
1001
,
0110
0000
0010
1000
0100
0000
0010
0001
,
0100
0000
0101
0000
1001
0000
0000
0001
,
0100
0000
0000
1000
0100
0000
0000
0001
,
0010
0100
0010
0100
1000
0000
1001
0000
,
0011
1100
1010
0101
,
0001
0000
0100
0001
0000
0000
1000
0000
0100
1000
0000
0000
0001
0000
1000
0000
,
0020
0000
0000
0000
,
0000
0000
0000
0000
0000
1030
0001
1000
,
0001
0000
0000
0000
;

//--------------- dance-single - ----------------
#NOTES:
     dance-single:
     :
     Hard:
     15:
     0.815473,0.818315,0.249796,0.166531,0.948301,617,590,27,18,0,0,0.815473,0.818315,0.249796,0.166531,0.948301,617,590,27,18,0,0:
0000
0000
0000
0000
,
0011
0000
0001
0010
0001
0010
0100
0000
1000
0010
1000
0010
0100
0000
0000
0000
,
0011
0000
0010
0001
0010
0001
1000
0000
0010
1000
0010
1000
0001
0000
1000
0001
,
1000
0000
1000
0100
1000
0100
0010
0000
0001
0100
0001
0100
0010
0000
0000
0000
,
1100
0000
0100
1000
0100
1000
0001
0000
0100
0001
0100
0001
1000
0000
0001
0000
,
1001
0000
0100
0000
0101
0000
0001
1000
0100
1000
0001
0000
0110
0000
0100
0001
,
1000
0001
0100
0000
1001
0000
1000
0100
0010
0000
0011
0000
1100
0000
1000
0001
,
1000
0000
0100
0000
1100
0000
1000
0100
0010
0100
1000
0000
1010
0000
0010
0100
,
0001
0000
0000
0000
0001
0000
0000
0000
0100
0000
0000
0000
1000
0000
0000
0000
1000
0000
0000
0000
0100
0000
0000
0000
0001
0000
0000
0010
0000
0000
0000
0000
0000
0010
0000
0000
0100
0000
0000
0010
0000
0000
0100
0000
0000
1000
0000
0000
,
0001
0100
0001
0000
1000
0001
1000
0000
0001
0100
0001
0000
1000
0001
1000
0000
,
1000
0100
1000
0000
0001
1000
0001
0000
1000
0100
1000
0000
0001
1000
0001
0000
,
0100
0001
0100
0000
0010
0100
0010
0000
0100
0001
0100
0000
0010
0100
0010
0000
,
1000
0000
0000
0100
0000
0000
1000
0000
0000
0000
0000
0000
0100
0000
0000
0010
0000
0000
0100
0000
0000
0000
0000
0000
1000
0000
0100
0000
1000
0000
0100
0000
0000
0000
0000
0000
0010
0000
0000
0100
0000
0000
0010
0000
0000
0000
0000
0000
,
0001
0100
0001
0000
0100
0010
0100
0000
1000
0100
1000
0000
0100
0010
0100
0000
,
0001
0010
0001
0000
0010
0100
0010
0000
1000
0010
0000
0010
0001
1000
0001
1000
,
0010
0000
0010
1000
0100
0000
0100
1000
0001
0000
0001
1000
0010
0000
0010
0100
,
0001
1000
0000
0001
0010
0000
0000
0010
0001
1000
0001
1000
0010
0000
0000
0000
,
1000
0010
0000
0100
0001
0000
1000
0000
0001
0010
0100
1000
0010
0000
0100
0000
,
0001
0100
0010
0100
0010
0100
0001
0100
1000
0000
0000
0000
0110
0000
0000
0000
,
0010
0100
0010
1000
0010
0100
0010
1000
0001
0000
0001
0010
0200
0000
0000
0000
,
1300
0000
0100
0010
0001
0010
0100
0010
0100
1000
0020
0000
0130
0000
0000
0000
,
0000
0100
0001
0010
0200
0000
0310
0000
0100
1000
0010
0100
0010
0000
0100
0010
,
1000
0001
1000
0001
0010
0000
0010
0100
1000
0000
0000
0000
1001
0000
0000
0000
,
0110
0000
0100
0001
0010
0000
0110
0000
0100
1000
0010
0000
0100
0010
0100
0010
,
1000
0000
0001
0000
0100
0000
1000
0100
0000
0001
0100
0000
0000
0000
0000
0000
,
0001
0010
0100
1000
0001
0000
0001
0010
0100
1000
0001
0000
0001
0010
0001
0010
,
0100
0000
0100
0000
0100
0010
0100
1000
0000
0001
0000
1001
0000
0000
0000
0000
,
1000
0100
1000
0000
0001
1000
0001
0000
0100
0001
0100
0000
0001
1000
0001
0000
,
1000
0000
0000
0010
0000
0000
1000
0000
0000
0000
0000
0000
0001
0000
0000
1000
0000
0000
0001
0000
0000
0000
0000
0000
0010
0000
0001
0000
0010
0000
0001
0000
0000
0000
0000
0000
1000
0000
0000
0001
0000
0000
1000
0000
0000
0000
0000
0000
,
0010
0100
0010
0000
1000
0010
1000
0000
0010
0100
0010
0000
0100
0001
0100
0000
,
0010
0100
0010
0000
1000
0001
1000
0000
0100
0000
0000
0110
0000
0000
0010
0000
,
0001
1000
0001
0100
0010
1000
0010
1000
0100
0010
0100
1000
0001
0000
0100
0000
,
0000
0010
1000
0100
1000
0000
0001
0100
0001
1000
0010
0100
0010
0000
0000
0000
,
0010
1000
0000
0001
0010
0000
0100
1000
0001
0100
0010
1000
0001
0000
0000
0000
,
0000
0000
1000
0100
0010
0001
0010
0100
1000
0000
0010
0100
0010
0000
0000
0000
,
2000
0000
0000
3001
0100
0000
0100
0000
2000
0000
0000
3001
0100
0000
0001
1000
,
0001
0000
0000
0010
0000
0000
0001
0000
0000
0010
0000
0000
0100
0000
0000
1000
0000
0000
0001
0000
0000
0010
0000
0000
0100
0000
0000
0000
0000
0000
0000
0000
0000
0000
0000
0000
1000
0000
0000
0000
0001
0000
0000
0000
0001
0000
0000
0000
,
0100
1000
1000
1000
0001
0010
0010
1000
0100
0010
0001
0000
,
0001
0010
0100
1000
0001
0000
0100
0000
0010
0000
0000
0000
0110
0000
0000
0000
,
0001
0100
0100
0100
0001
0000
0001
0100
0100
0100
0001
0000
0001
0100
0001
0100
,
0010
0000
1000
0000
0100
0000
0001
0100
0000
1000
0100
0000
0000
0000
0000
0000
,
1000
0100
0010
0001
1000
0000
1000
0100
0010
0001
1000
0000
1000
0100
1000
0100
,
0010
0000
0010
0000
0010
0001
1000
0010
0000
0100
0000
0110
0000
0000
0000
0000
,
0001
0100
0010
0000
0100
0000
0001
0010
0000
0100
0000
0010
0001
0000
0100
0000
,
0020
0000
0000
2030
0000
0000
3002
0000
1003
0000
0000
0000
0000
0000
0000
0000
,
0001
0000
1000
0100
0010
0000
0100
0000
1000
0000
0001
0100
0010
0000
1000
0000
,
0100
0010
0100
1000
0010
0001
1000
0100
,
0010
0000
0000
0010
1000
0100
0010
0001
,
0011
0000
0000
0000
1100
0000
0000
0000
0011
0000
1000
0001
1000
0000
0000
0000
,
0001
0000
0010
0100
1000
0000
0010
0000
0100
0000
0100
0001
0010
0000
0100
0000
,
1000
0001
0100
1000
0100
0001
0010
1000
,
1010
0000
0002
0000
0020
0003
2000
0030
,
0200
3000
0002
0300
0020
0003
2000
0030
,
3100
0001
0010
0010
0100
1000
0001
0100
,
1010
0000
0101
0000
1001
0000
0001
0010
,
2000
0000
0000
3010
0002
0000
0000
0103
,
0010
1000
0010
0100
0001
0000
1001
0000
,
0001
0001
0001
0100
0010
0100
1000
1000
1000
0100
0010
0100
,
0001
0010
0100
1000
0000
0000
1000
0010
0100
0001
0000
0000
1000
0000
0001
0000
,
0020
0000
0000
0000
,
0000
0000
0000
0000
0000
0100
0001
0100
,
0031
0000
0000
0000
;

//--------------- dance-single - ----------------
#NOTES:
     dance-single:
     :
     Challenge:
     17:
     1.038836,1.12871,1.535786,0.222041,1.022315,786,620,166,24,0,0,1.038836,1.12871,1.535786,0.222041,1.022315,786,620,166,24,0,0:
0000
0000
0000
0000
,
0101
0000
0001
0100
0001
0100
0110
0000
0100
0010
0100
0010
1010
0000
0000
0000
,
1100
0000
1000
0100
1000
0100
0110
0000
0100
0010
0100
0010
0011
0000
0001
1000
,
1001
0000
0001
0010
0001
0010
1100
0000
1000
0010
1000
0010
0101
0000
0000
0000
,
0101
0000
0001
0100
0001
0100
1010
0000
1000
0100
1000
0100
0011
0000
0110
0000
,
1100
0000
1000
0100
0011
0000
0010
0001
0100
0010
1000
0001
0110
0000
0010
1000
,
0100
0010
0100
1000
0101
0000
1000
0001
0100
0001
1010
0000
0101
0000
1000
0100
,
1001
0000
0100
0010
1100
0000
0100
0010
0001
1000
0100
0010
0101
0000
1000
0100
,
0010
0000
0000
0000
0000
0000
0000
0000
0011
0000
0000
0000
0000
0000
0000
0000
0101
0000
0000
0000
0000
0000
0000
0000
0100
0000
0000
0000
0000
0000
0000
0000
1010
0000
0000
0000
0000
0000
0000
0000
1100
0000
0000
0000
0000
0000
0000
0000
0100
0000
0000
0000
0000
0000
0110
0000
0000
0000
0000
0000
0000
0000
0000
0000
0000
0000
0010
0000
0000
0001
0000
0000
0010
0000
0000
0000
0000
0000
0001
0000
0000
0000
0000
0000
0010
0000
0000
0000
0000
0000
0100
0000
0000
0000
0000
0000
,
1000
0010
1000
0000
1000
0100
1000
0000
1000
0010
1000
0000
1000
0100
1000
0000
,
0001
0010
0001
0000
0001
0100
0001
0000
0001
0010
0001
0000
0001
0100
0001
0000
,
0100
0001
0100
0000
0100
0010
0100
0000
0100
1000
0100
0000
0100
0010
0100
0000
,
0010
0000
0000
1000
0000
0000
0010
0000
0000
0000
0000
0000
0010
0000
0000
0100
0000
0000
0010
0000
0000
0000
0000
0000
0010
0000
1000
0000
0100
0000
0010
0000
0000
0000
0000
0000
0010
0000
0000
0001
0000
0000
0010
0000
0000
0000
0000
0000
,
0001
0100
0001
0000
0001
0100
1000
0000
1000
0100
1000
0000
1000
0100
0001
0000
,
1000
0100
1000
0000
1000
0100
0001
0000
0001
0100
0000
1000
0100
1000
0100
1000
,
0101
0000
0001
0100
0010
0000
0010
1000
0100
0000
0010
0001
1000
0000
1000
0010
,
0100
0001
0000
0001
0110
0000
0000
0110
1000
0001
1000
0001
0110
0000
0000
0000
,
1000
0010
0000
0010
0100
0000
1001
0000
0001
0010
0100
0010
0001
0000
0110
0000
,
1000
0100
0010
0100
0010
0001
0100
0010
1100
0000
0000
0000
0101
0000
0000
0000
,
0001
0100
0010
0100
0001
0010
0100
0010
0001
0000
1000
0010
0101
0000
0000
0000
,
1010
0000
0100
0010
0100
0010
1000
0100
0010
0001
0100
0000
1010
0000
0001
1000
,
0000
0100
1000
0010
0002
0000
1003
0000
0100
0001
0010
1000
0002
0000
0103
1000
,
0010
0100
0010
0100
0001
0000
1000
0100
0011
0000
0000
0000
1100
0000
0000
0000
,
1100
0000
0010
0001
0100
0000
1100
0000
0010
0001
0100
0000
1000
0010
1000
0010
,
0101
0000
1010
0000
0101
0000
1000
0110
0000
0001
0110
0000
0000
0000
0000
0000
,
0001
0010
0100
0010
1100
0000
0001
0010
0100
0010
1100
0000
1000
0010
1000
0010
,
0101
0000
0110
0000
1010
0100
0010
0101
0000
0110
0000
1010
0000
0000
0000
0000
,
0100
1000
0010
0000
0010
1000
0100
0000
0100
1000
0010
0000
0010
1000
0100
0000
,
0010
0000
0000
0001
0000
0000
0100
0000
0000
0000
0000
0000
0100
0000
0000
0001
0000
0000
0010
0000
0000
0000
0000
0000
0010
0000
0001
0000
0100
0000
0010
0000
0000
0000
0000
0000
0010
0000
0000
1000
0000
0000
0100
0000
0000
0000
0000
0000
,
0001
0100
1000
0000
1000
0100
0001
0000
1000
0010
0001
0000
0001
0010
1000
0000
,
0001
0100
1000
0000
0001
0010
1000
0000
0110
0000
0000
1000
0001
0000
1000
0001
,
0010
0100
1000
0010
0001
0010
0001
0010
1000
0100
0010
0001
0110
0000
0110
0000
,
0000
0010
0001
0100
2000
0000
3100
0010
0100
0001
0010
1000
0101
0000
0000
0000
,
0010
1100
0000
0101
0010
0000
0110
0001
1000
0010
0100
0001
2010
0000
0001
0000
,
3000
0000
0000
0001
0000
0000
0010
0000
0000
0010
0000
0000
1000
0000
0000
0001
0000
0000
0100
0000
0000
0100
0000
0000
1100
0000
0000
0000
0000
0000
1000
0000
0100
0000
0010
0000
0002
0000
0000
0000
0000
0000
0000
0000
0000
0000
0000
0000
,
2003
0000
0000
3001
0110
0000
1010
0000
0102
0000
0000
0013
2100
0000
3001
0100
,
0010
0000
0000
0100
0000
0000
1000
0000
0000
0001
0000
0000
0010
0000
0000
1000
0000
0000
0001
0000
0000
0010
0000
0000
1100
0000
0000
0000
0000
0000
0000
0000
0000
0000
0000
0000
1001
0000
0000
0000
0110
0000
0000
0000
0110
0000
0000
0000
,
1001
0110
0110
0110
1001
1001
1001
0110
0110
1001
0110
0000
,
0001
0010
0100
1000
0011
0000
0110
0000
1001
0000
0000
0000
0110
0000
0000
0000
,
0001
0100
0100
1000
0101
0000
0001
0100
0100
1000
0101
0000
0001
0100
0001
0100
,
1010
0000
0101
0000
1010
0000
0001
1100
0000
1000
0101
0000
0000
0000
0000
0000
,
1000
0100
0100
0001
1100
0000
1000
0100
0100
0001
1100
0000
1000
0100
1000
0100
,
0011
0000
1100
0000
0001
0100
0010
1100
0000
0101
0000
1001
0000
0000
0000
0000
,
0001
0100
0010
0000
0010
1000
0001
0011
0000
0110
0000
0110
2000
0000
3020
0000
,
0130
0000
0000
0110
0000
0000
1010
0000
1001
0000
0000
0000
0000
0000
0000
0000
,
0011
0000
0100
1000
0010
0000
0011
0000
1100
0000
0010
0001
0100
0000
0101
0000
,
1010
1000
1001
1000
1100
1000
1001
1010
,
0011
0000
0000
0101
0100
0110
0100
1100
,
0101
0000
0000
0000
1100
0000
0000
0000
0101
0001
1000
0000
1001
0000
1000
0100
,
0010
0000
0010
0100
1000
0000
0011
0000
0101
0000
0001
0100
0010
0000
0101
0000
,
1001
0001
0101
0001
0011
0001
0101
0011
,
1010
0000
0012
0103
2010
3100
0012
0103
,
1020
0130
0021
0130
1020
0130
0021
0130
,
1000
0010
0101
0101
0001
0010
1100
1000
,
0101
0000
0000
0000
1100
0000
0000
0000
1001
0010
0100
0000
0001
0000
0011
0000
,
2200
0000
3300
1010
0202
0000
0303
0201
,
0010
0000
1000
0000
0010
0000
0001
0000
0301
0010
1000
0000
0010
0000
0001
0010
,
0011
1001
0101
0010
1000
0100
1010
1001
1100
0010
0001
0100
,
0010
1000
0001
0110
0000
0000
0010
0001
1000
0110
0000
0000
1100
0000
1001
0000
,
0022
0000
0000
0000
,
0000
0000
0000
0000
0033
1100
0011
1100
,
0011
0000
0000
0000
;
