#TITLE:お願い!コンコンお稲荷さま;
#SUBTITLE:;
#ARTIST:ARM×狐夢想 feat. ななひら;
#TITLETRANSLIT:Onegai!Kon kon Oinarisama;
#SUBTITLETRANSLIT:;
#ARTISTTRANSLIT:ARMxKomso feat.Nanahira;
#GENRE:POP;
#CREDIT:;
#MUSIC:Onegai!Kon kon Oinarisama.ogg;
#BANNER:Onegai!Kon kon Oinarisama.png;
#BACKGROUND:Onegai!Kon kon Oinarisama-bg.png;
#CDTITLE:;
#SAMPLESTART:55.568;
#SAMPLELENGTH:11.657;
#SELECTABLE:YES;
#OFFSET:-0.025;
#BPMS:0.000=175.000;
#STOPS:;
#BGCHANGES:0.000=Onegai!Kon kon Oinarisama.avi=1.000=0=0=0=StretchNoLoop====,
99999.000=-nosongbg-=1.000=0=0=0=StretchNoLoop====
;
#FGCHANGES:;

//--------------- dance-single - ----------------
#NOTES:
     dance-single:
     :
     Medium:
     11:
     0,0,0,0,0:
0000
0000
0000
0000
,
0000
0000
0000
0000
,
0000
0000
0000
0000
,
0001
0000
0001
0000
1000
0100
1000
0000
,
0001
0000
1000
0000
0001
0000
0100
0010
,
0000
1000
0000
1000
0100
0000
0010
0001
,
1001
1001
0110
0110
,
0000
0001
0000
0001
0100
0000
0010
0000
,
1000
0001
1000
0000
0010
0000
0100
0001
,
0000
0100
0000
1000
0100
0000
0001
0010
,
0000
0110
0000
1000
0001
0000
1001
0000
,
0001
0000
1000
0010
1000
0000
0011
0000
,
1000
0000
0001
0010
0002
1000
1003
0000
,
0001
0101
1000
1100
,
0001
0000
0100
0010
0100
0000
0001
0000
,
1000
0000
0001
0010
0001
0000
1010
0000
,
0001
0000
1000
0010
2000
0001
3001
0000
,
1000
1100
0001
0101
,
1000
0000
0100
0010
0100
0000
1000
0000
,
0001
0000
1000
0100
1000
0000
0101
0000
,
1000
0000
0001
0100
0002
1000
1003
0000
,
0001
0011
1000
1010
,
0001
0000
0010
0100
0010
0000
0001
0000
,
1000
0000
0001
0100
0001
0000
1100
0000
,
0001
0000
1000
0100
2000
0001
3001
0100
,
0010
1010
0100
0001
,
1000
0100
1000
0100
1000
0000
0010
0000
,
0010
0000
0100
0000
0001
0000
0010
0100
,
2000
0001
3001
0010
,
0110
0000
0100
1000
0001
0000
0100
0010
,
1000
0000
0010
0100
0001
0000
0010
0000
,
0100
0000
0100
0000
1000
0000
0001
0100
,
0001
1000
1000
0100
,
0200
0000
0302
0000
,
0103
1000
2000
3002
,
0203
0300
0110
1001
,
0020
0030
0110
1001
,
1000
1000
0001
0001
,
1010
1100
0101
0011
,
2002
0000
0000
0000
,
0000
3003
1100
0101
,
1001
0000
0001
0100
1000
0000
1000
0100
,
0001
0001
1000
1000
,
0001
0000
0010
0000
0100
1000
0001
1000
,
0100
1000
0001
0100
,
0011
1000
0011
0100
,
1010
0001
2010
3020
,
0230
0000
0310
0000
1000
0000
0001
0100
,
0000
0001
1000
0001
1000
0000
1000
0100
,
0001
0000
0001
0100
1000
0000
0001
0000
,
1100
0101
1001
0001
,
0100
0000
0100
0000
0010
1000
0100
0010
,
0001
1000
0001
1000
,
0010
0000
0010
0100
0001
0000
0010
0000
,
0100
0000
0010
0100
1000
0000
0001
0000
,
0100
0020
2030
3200
,
0302
2003
3020
0230
,
1300
1100
0001
0101
,
1000
1100
0001
0101
,
0220
0000
0000
0330
0100
0010
0100
0000
,
0001
1000
0001
1000
0000
0010
1001
0000
,
1000
0000
1000
0000
0001
0100
0001
0000
,
1000
0000
0001
0000
1000
0000
0100
0010
,
0000
0001
0000
0001
0100
0000
0010
1000
,
1001
1001
0110
0110
,
0000
1000
0000
1000
0100
0000
0010
0000
,
0001
1000
0001
0000
0010
0000
0100
1000
,
0020
0230
2300
3200
,
0301
0000
0001
0100
0101
0000
1100
0000
,
1001
0000
1000
0100
0001
0000
0001
0100
,
1000
1000
0001
0001
,
1000
0000
0010
0000
0100
0001
1000
0001
,
0100
0001
1000
0100
,
1010
0001
1010
0100
,
0011
1000
0012
0023
,
0230
0000
0310
0000
0001
0000
1000
0100
,
0000
1000
0001
1000
0001
0000
0001
0100
,
1000
0000
1000
0100
0001
0000
1000
0000
,
0101
1100
1001
1000
,
0100
0000
0100
0000
0010
0001
0100
0010
,
1000
0001
1000
0001
,
0010
0000
0010
0100
1000
0000
0010
0000
,
0100
0000
0010
0100
0001
0000
1000
0000
,
0100
0020
0032
0203
,
2300
3002
0023
0230
,
0301
0101
1000
1100
,
0001
0101
1000
1100
,
0220
0000
0000
0330
0100
0010
0100
0000
,
1000
0001
1000
0001
0000
0010
1001
0000
,
0001
0000
0001
0000
1000
0010
1000
0000
,
0001
0000
1000
0000
0001
0000
0010
0100
,
0000
1000
0000
1000
0010
0000
0100
0001
,
1001
1001
0110
0110
,
0000
0001
0000
0001
0010
0000
0100
0000
,
1000
0001
1000
0000
0100
0000
0010
0001
,
2000
0000
3010
0100
2000
0000
3100
0002
,
0000
0010
0013
0000
0110
0000
2002
0000
,
3003
0000
0000
0000
;

//--------------- dance-single - ----------------
#NOTES:
     dance-single:
     :
     Hard:
     15:
     0.764664,0.8047,0.403973,0.447256,0.310194,742,686,56,62,0,0,0.764664,0.8047,0.403973,0.447256,0.310194,742,686,56,62,0,0:
0000
0000
0000
0000
,
0000
0000
0000
0000
,
0000
0000
0000
0000
,
0001
0000
1000
0000
0001
0000
0010
0000
0100
0000
1000
0100
1000
0000
0100
0000
,
0010
0000
0001
0000
1000
0000
0001
0000
0100
0000
0010
1000
0010
0000
0100
0000
,
0000
0000
0010
0000
1000
0000
0100
0000
1000
0000
0001
0100
0001
0000
0010
0000
,
0110
0110
1001
1001
,
0000
0000
1000
0000
0001
0000
0100
0000
0010
0000
1000
0001
1000
0000
0010
0000
,
0100
0000
0001
0000
0010
0000
0100
0000
0010
0000
0001
1000
0010
0000
0100
0000
,
0000
0000
0100
0010
0100
0000
0010
0000
1000
0000
0000
0001
0010
0000
0100
0000
,
0000
0000
0100
1000
0010
0000
0100
0000
0002
0000
0000
0000
2003
0000
0000
0000
,
3001
0100
0010
0100
0001
0000
1001
0000
,
1000
0100
0010
0100
2000
0010
3010
0000
,
0100
0001
0010
0000
0100
1000
0010
0000
,
0100
0001
1000
1000
1000
0000
0010
0100
,
0001
0010
0100
0010
0001
0000
1001
0000
,
1000
0010
0100
0010
2000
0001
3001
0010
,
0200
0010
0310
0001
2000
0010
3010
0100
,
0001
0000
0010
0000
1000
0000
0010
0000
0010
0000
0001
0100
0001
0000
1000
0010
,
1000
0100
0001
0100
1000
0000
1001
0000
,
0001
0100
1000
0100
0002
0010
0013
0000
,
0100
1000
0010
0000
0100
0001
0010
0000
,
0100
1000
0001
0001
0001
0000
0010
0100
,
1000
0010
0001
0010
1000
0000
1001
0000
,
0001
0010
1000
0010
0002
1000
1003
0001
,
0100
0000
0000
0010
1000
0000
0100
0000
0001
0000
0100
1000
0010
0000
0100
0000
,
1000
0000
0100
0001
0010
0000
0100
0000
0110
0000
0000
0000
0010
0000
0001
0000
,
0010
0100
1000
0000
0001
0100
0010
1000
,
0002
0000
1000
0000
1003
0100
1000
0100
,
0010
0000
0000
0001
1000
0000
0010
0000
0100
0000
0000
0001
1000
0000
0100
0000
,
0010
0000
0001
1000
0001
0000
0100
0000
0010
0000
0000
0000
0010
0000
1000
0000
,
0010
0100
0001
0000
0001
0010
0100
1000
,
0001
0100
0010
0100
0010
0100
0010
0100
,
0020
0000
2030
0000
,
3002
0000
1003
0100
2000
0000
3002
0000
,
0203
0000
0000
0000
0301
0010
0001
0010
0002
0000
0000
0000
0023
0000
0000
0000
,
0230
0000
0000
0000
1300
0010
1000
0010
2000
0000
0000
0000
3020
0000
0000
0000
,
0130
0001
0010
0000
0100
1000
0010
0001
,
0011
1010
1100
0101
,
2002
0000
0000
0003
,
0100
0100
0100
3100
1100
0000
0101
0000
,
1001
0000
0001
0100
0101
0000
1000
0100
,
1100
0000
0000
1000
0001
0000
0100
0000
1000
0000
0000
0000
1000
0000
0100
0000
,
0001
0000
0000
0000
1000
0000
0100
0000
1000
0001
0000
1000
0001
0000
0100
0000
,
0010
0000
1000
0100
1000
0100
0010
0001
0010
0000
0001
1000
0020
0000
0100
0000
,
0130
0000
0001
1000
0020
0000
0100
0000
0130
0000
0001
1000
0200
0000
0010
0000
,
0310
0000
0001
1000
0200
0000
0010
0000
0320
0000
0000
0000
0032
0000
0000
0000
,
2003
0000
0000
0000
3010
0000
0100
0000
0001
0000
0000
1000
0100
0000
0110
0000
,
0000
1001
1001
1001
1001
0000
0110
0010
,
1001
0000
1000
0100
1100
0000
0001
0100
,
0101
0000
0000
0001
0100
0000
0001
0000
2000
0000
0000
0000
3100
0000
0001
0000
,
0100
0000
0000
1000
0010
0000
0100
0000
0001
1000
0000
0001
1000
0000
0001
0000
,
0100
0000
1000
0100
0010
0000
0100
0001
0010
0000
0001
0010
1000
0000
0010
0000
,
0001
1000
0100
0010
0001
0000
0001
0100
,
0010
1000
0000
1000
0001
0100
0001
1000
,
0200
0320
0032
2003
,
3020
0000
0230
0000
0301
1000
0010
0100
,
0001
0000
1000
0100
1000
0000
0001
0000
1000
0000
0001
0100
0001
0000
1000
0000
,
0001
0000
1000
0100
1000
0000
0001
0000
1000
0000
0001
0100
0001
0000
1000
0000
,
0220
0000
0000
0330
0100
0010
1001
0000
,
0001
0010
0001
0010
0100
1000
0100
1000
0000
0000
0001
0000
1001
0000
0000
0000
,
1000
0000
0001
0000
1000
0000
0010
0000
0100
0000
0001
0100
0001
0000
0100
0000
,
0010
0000
1000
0000
0001
0000
1000
0000
0100
0000
0010
0001
0010
0000
0100
0000
,
0000
0000
0010
0000
0001
0000
0100
0000
0001
0000
1000
0100
1000
0000
0010
0000
,
0110
0110
1001
1001
,
0000
0000
0001
0000
1000
0000
0100
0000
0010
0000
0001
1000
0001
0000
0010
0000
,
0100
0000
1000
0000
0010
0000
0100
0000
0010
0000
1000
0001
0010
0000
0100
0000
,
0002
0203
2300
3020
,
0130
0000
0001
1000
0001
0000
0100
0000
0120
0000
0000
0000
2030
0000
3000
0000
,
1001
0000
1000
0100
1100
0000
0001
0100
,
0101
0000
0000
0001
1000
0000
0100
0000
0001
0000
0000
0000
0001
0000
0100
0000
,
1000
0000
0000
0000
0001
0000
0100
0000
0001
1000
0000
0001
1000
0000
0100
0000
,
0010
0000
0001
0100
0001
0100
0010
1000
0010
0000
1000
0001
0020
0000
0100
0000
,
0130
0000
1000
0001
0020
0000
0100
0000
0130
0000
1000
0001
0200
0000
0010
0000
,
0310
0000
1000
0001
0200
0000
0010
0000
0320
0000
0000
0000
2030
0000
0000
0000
,
3002
0000
0000
0000
0013
0000
0100
0000
1000
0000
0000
0001
0100
0000
0110
0000
,
0000
1001
1001
1001
1001
0000
0110
0010
,
1001
0000
0001
0100
0101
0000
1000
0100
,
1100
0000
0000
1000
0100
0000
1000
0000
0002
0000
0000
0000
0103
0000
1000
0000
,
0100
0000
0000
0001
0010
0000
0100
0000
1000
0001
0000
1000
0001
0000
1000
0000
,
0100
0000
0001
0100
0010
0000
0100
1000
0010
0000
1000
0010
0001
0000
0010
0000
,
1000
0001
0100
0010
1000
0000
1000
0100
,
0010
0001
0000
0001
1000
0100
1000
0001
,
0200
0320
2030
3002
,
0023
0000
0230
0000
1300
0100
0001
0100
,
1000
0000
0010
0001
0010
0000
1000
0000
0001
0000
0010
1000
0010
0000
0001
0000
,
1000
0000
0010
0001
0010
0000
1000
0000
0001
0000
0010
1000
0010
0000
0001
0000
,
2002
0000
0000
3003
1000
0001
0110
0000
,
1000
0010
1000
0010
0100
0001
0100
0001
0000
0000
1000
0000
1001
0000
0000
0000
,
0001
0000
1000
0000
0001
0000
0100
0000
0010
0000
1000
0010
1000
0000
0010
0000
,
0100
0000
0001
0000
1000
0000
0001
0000
0010
0000
0100
1000
0100
0000
0010
0000
,
0000
0000
0100
0000
1000
0000
0010
0000
1000
0000
0001
0010
0001
0000
0100
0000
,
0110
0110
1001
1001
,
0000
0000
1000
0000
0001
0000
0010
0000
0100
0000
1000
0001
1000
0000
0100
0000
,
0010
0000
0001
0000
0100
0000
0010
0000
0100
0000
0001
1000
0100
0000
0010
0000
,
0000
0000
0001
0010
0001
0000
0010
0000
0100
0000
0000
1000
0001
0000
0100
0000
,
0000
0000
0010
0100
0010
0000
1000
0000
0001
0000
0000
0000
2002
0000
0000
0000
,
3003
0000
0000
0000
;

//--------------- dance-single - ----------------
#NOTES:
     dance-single:
     :
     Challenge:
     17:
     1.030544,1.119583,0.743022,0.2092,0.869264,1000,897,103,29,0,0,1.030544,1.119583,0.743022,0.2092,0.869264,1000,897,103,29,0,0:
0000
0000
0000
0000
,
0000
0000
0000
0000
,
0000
0000
0000
0000
,
0001
0000
0001
0000
1000
0000
0010
0000
0100
0000
0001
1000
0100
0000
0010
0000
,
0001
0000
0100
0000
0010
0000
1000
0000
0001
0010
0100
1000
0001
0000
0101
0000
,
0000
0000
1000
0000
1000
0000
0001
0000
1000
0001
0010
0100
0010
0001
1000
0010
,
0110
0000
0000
0000
0110
0000
0000
0000
0001
0100
0001
0100
0010
0000
0100
0010
,
1000
0000
1000
0000
0001
0000
0010
0000
0100
0000
1000
0001
0100
0000
0010
0000
,
1000
0000
0000
0000
0000
0000
0100
0000
0000
0000
0000
0000
0010
0000
0000
0000
0000
0000
0001
0000
0100
0000
0001
0000
0100
0000
0000
0000
0000
0000
0010
0000
1000
0000
0010
0000
1000
0000
0000
0000
0000
0000
0100
0000
0000
1000
0000
0000
,
0010
0000
0100
0010
0100
0000
0210
0000
1000
0000
0000
0301
0010
0000
0110
0000
,
0000
0000
0010
0100
1000
0000
0001
0000
2001
0000
0000
0000
3200
0000
0000
0000
,
1300
0000
0001
0100
0010
0000
0010
0100
0001
0000
0000
0000
1001
0000
0000
0000
,
0001
0000
1000
0100
0010
0000
0010
0100
2000
0000
0010
0000
3010
0000
0000
0000
,
0100
0001
0010
0100
1000
0000
0000
0000
1010
0000
0010
0100
0001
0000
0000
0000
,
0101
0000
0001
0100
0001
0000
0001
0100
0001
0010
0001
1000
0010
0000
0100
0000
,
0001
0000
0010
0100
1000
0000
1000
0100
0010
0000
0000
0000
0110
0000
0000
0000
,
1001
0000
0001
0010
0100
0000
0100
0010
0002
0000
1000
0000
1003
0000
1010
0000
,
0102
0010
0013
1100
2100
0010
3010
0100
,
0001
0000
0100
0000
0010
0000
0010
0000
1000
0000
0001
0010
0100
1000
0001
0010
,
0100
0000
1000
0010
0100
0000
0100
0010
1000
0000
0000
0000
0110
0000
0000
0000
,
0101
0000
0001
0010
0100
0000
0100
0010
0002
0000
1000
0000
1003
0000
0000
0000
,
0001
1000
0100
0010
0001
0000
0000
0000
1000
0001
0100
0010
1000
0000
0000
0000
,
0010
0000
0100
0001
0010
0000
0010
0100
0010
0001
0010
0100
1000
0000
0001
0100
,
0010
0000
0010
0100
0001
0000
0001
1000
0100
0000
0000
0000
0011
0000
0000
0000
,
1100
0000
0100
1000
0001
0000
0001
1000
0200
0000
0010
0000
0310
0000
0011
0000
,
1100
0000
1000
0010
0200
0000
0001
0000
0301
0000
0001
0100
1000
0000
0100
0000
,
0001
0000
0001
0010
1000
0000
1010
0000
0011
0000
0010
0001
0100
0000
0010
0000
,
1000
0001
0100
0000
0100
0001
0010
0100
,
1000
0000
0000
0000
0001
0000
1000
0000
0010
0100
0010
0000
1000
0000
0010
0000
,
0001
0000
0000
0010
0100
0000
0001
0000
0010
0000
0000
0100
1000
0000
0010
0000
,
0001
0000
0010
1000
0100
0000
0010
0000
0001
1000
0001
1000
0001
0000
0100
0000
,
0010
0100
0001
0000
0001
0010
0100
1000
,
0001
1000
1000
1000
0010
0010
0100
0100
,
0120
0000
2030
0000
,
3002
0000
0013
0100
0020
0000
0032
0000
,
2003
0000
0000
0000
3001
0100
0001
0100
0110
0000
0000
0000
1001
0000
0000
0000
,
0002
0000
0000
0000
1003
0100
1000
0100
0110
0000
0000
0000
1001
0000
0000
0000
,
0001
0100
0010
0000
1000
0100
0010
0000
0001
0010
0100
0000
1000
0010
0100
0000
,
0001
0010
0100
1000
0001
0010
0100
1000
0001
1000
0100
0010
0001
1000
0100
0010
,
0002
0000
0000
0000
,
0100
0100
0100
0103
0110
0000
0110
0000
,
1001
0000
0000
1000
0100
0000
0010
0000
0110
0000
0000
0010
0001
0000
0100
0000
,
0110
0000
0010
1000
0001
0000
0100
0000
1000
0000
0000
0000
1000
0000
0100
0000
,
0001
0000
0000
1000
0100
0000
0010
0000
0100
1000
0001
0100
1000
0000
0100
0000
,
0010
0000
1000
0001
0010
0100
1000
0001
0010
0100
1000
0010
0100
0000
0100
0010
,
1000
0000
1000
0100
0010
0000
0010
0000
0110
0000
0010
0001
0100
0000
0100
0000
,
0110
0000
0010
1000
0100
0000
0010
0000
0110
0000
0010
0001
1000
0000
0010
0100
,
0001
0000
1000
0100
0010
0000
0011
0000
1100
0000
1000
0010
0100
0000
0110
0000
,
0000
0000
0101
0000
1100
0000
0101
0000
0001
0100
0000
0010
0100
0000
0001
0000
,
1001
0000
0000
1000
0100
0000
0010
0000
0011
0000
0000
0001
0100
0000
0010
0000
,
1010
0000
0000
1000
0001
0000
0010
0000
0200
0000
0000
0000
0310
0000
0001
0000
,
1000
0100
0010
0001
0100
0010
1000
0010
0100
0001
0010
0100
1000
0010
0100
0001
,
0100
0010
1000
0100
0010
0001
0100
0010
0100
0010
0100
0001
1000
0000
0100
0000
,
1100
0000
1000
0100
0010
0000
0001
0000
1001
0000
0000
0000
1000
0000
0010
0000
,
0101
0000
0001
0100
0010
0000
1000
0000
0001
0000
0010
0100
0010
0000
0001
0000
,
1001
0000
1000
0100
0010
0000
1000
0010
1000
0000
0010
0100
1000
0000
0001
0100
,
0010
0000
0001
0010
0001
0000
0010
0100
0001
0010
0100
1000
0001
0010
0100
1000
,
0001
0000
0001
0100
0001
0000
0101
0000
1100
0000
1000
0100
1000
0000
1100
0000
,
0101
0000
0001
0100
0001
0000
0101
0000
1100
0000
1000
0100
1000
0000
1100
0000
,
2002
0000
0000
3003
1100
0011
1100
0000
,
0001
0010
0100
1000
0001
0010
0100
1000
0000
0000
1010
0000
0101
0000
0000
0000
,
1000
0000
1000
0000
0001
0000
0010
0000
0100
0000
1000
0001
0100
0000
0010
0000
,
1000
0000
0100
0000
0010
0000
0001
0000
1000
0010
0100
0001
1000
0000
1100
0000
,
0000
0000
0001
0000
0001
0000
1000
0000
0001
1000
0010
0100
0010
1000
0001
0010
,
0110
0000
0000
0000
0110
0000
0000
0000
1000
0100
1000
0100
0010
0000
0100
0010
,
0001
0000
0001
0000
1000
0000
0010
0000
0100
0000
0001
1000
0100
0000
0010
0000
,
0001
0000
0000
0000
0100
0000
0000
0000
0010
0000
0000
0000
1000
0000
0100
0000
0010
0000
0001
0000
1000
0000
0100
0000
0010
0000
0001
0000
1000
0000
0010
0100
,
0010
0000
0000
0000
0100
0001
0100
0001
1000
0100
1000
0100
0010
0001
0010
0001
,
1000
0000
0010
0100
0010
0000
1000
0000
1002
0000
0000
0000
2003
0000
0000
0000
,
3001
0000
0000
0001
0100
0000
0010
0000
0110
0000
0000
0010
1000
0000
0100
0000
,
0110
0000
0010
0001
1000
0000
0100
0000
0001
0000
0000
0000
0001
0000
0100
0000
,
1000
0000
0000
0001
0100
0000
0010
0000
0100
0001
1000
0100
0001
0000
0100
0000
,
0010
0000
0001
1000
0010
0100
0001
1000
0010
0100
0001
0010
0100
0000
0100
0010
,
0001
0000
0001
0100
0010
0000
0010
0000
0110
0000
0010
1000
0100
0000
0100
0000
,
0110
0000
0010
0001
0100
0000
0010
0000
0110
0000
0010
1000
0001
0000
0010
0100
,
1000
0000
0001
0100
0010
0000
1010
0000
0101
0000
0001
0010
0100
0000
0110
0000
,
0000
0000
1100
0000
0101
0000
1100
0000
1000
0100
0000
0010
0100
0000
1000
0000
,
1001
0000
0000
0001
0100
0000
0010
0000
1010
0000
0000
1000
0100
0000
0010
0000
,
0011
0000
0000
0001
1000
0000
0010
0000
0200
0000
0000
0000
0310
0000
1000
0000
,
0001
0100
0010
1000
0100
0010
0001
0010
0100
1000
0010
0100
0001
0010
0100
1000
,
0100
0010
0001
0100
0010
1000
0100
0010
0100
0010
0100
1000
0001
0000
0100
0000
,
0101
0000
0001
0100
0010
0000
1000
0000
1001
0000
0000
0000
0001
0000
0010
0000
,
1100
0000
1000
0100
0010
0000
0001
0000
1000
0000
0010
0100
0010
0000
1000
0000
,
1001
0000
0001
0100
1000
0000
0001
1000
0001
0000
1000
0100
0001
0000
1000
0100
,
0001
0000
1000
0001
1000
0000
0001
0100
1000
0010
0100
0001
1000
0010
0100
0001
,
1000
0000
1000
0100
1000
0000
0011
0000
0101
0000
0001
0100
0001
0000
1010
0000
,
1100
0000
1000
0100
1000
0000
0011
0000
0101
0000
0001
0100
0001
0000
1010
0000
,
2200
0000
0000
3300
0101
1010
0101
0000
,
1000
0010
0100
0001
1000
0010
0100
0001
0000
0000
0011
0000
1100
0000
0000
0000
,
0001
0000
0001
0000
1000
0000
0100
0000
0010
0000
0001
1000
0010
0000
0100
0000
,
0001
0000
0010
0000
0100
0000
1000
0000
0001
0100
0010
1000
0001
0000
0011
0000
,
0000
0000
1000
0000
1000
0000
0001
0000
1000
0001
0100
0010
0100
0001
1000
0100
,
0110
0000
0000
0000
0110
0000
0000
0000
0001
0010
0001
0010
0100
0000
0010
0100
,
1000
0000
1000
0000
0001
0000
0100
0000
0010
0000
1000
0001
0010
0000
0100
0000
,
1000
0000
0000
0000
0000
0000
0010
0000
0000
0000
0000
0000
0100
0000
0000
0000
0000
0000
0001
0000
0010
0000
0001
0000
0010
0000
0000
0000
0000
0000
0100
0000
1000
0000
0100
0000
1000
0000
0000
0000
0000
0000
0010
0000
0000
1000
0000
0000
,
0100
0000
0010
0100
0010
0000
0120
0000
1000
0000
0000
0031
0100
0000
0110
0000
,
0000
0000
0010
1000
0001
0000
0010
0000
0100
0000
0010
0000
2002
0000
0000
0000
,
3003
0000
0000
0000
;
