#TITLE:お願いマッスル;
#SUBTITLE:;
#ARTIST:紗倉ひびき 街雄鳴造;
#TITLETRANSLIT:Onegai Muscle;
#SUBTITLETRANSLIT:;
#ARTISTTRANSLIT:Sakura Hibiki;
#GENRE:ANIME;
#CREDIT:;
#MUSIC:Onegai Muscle.ogg;
#BANNER:Onegai Muscle.png;
#BACKGROUND:Onegai Muscle-bg.png;
#CDTITLE:;
#SAMPLESTART:0.377;
#SAMPLELENGTH:15.473;
#SELECTABLE:YES;
#OFFSET:0.533;
#BPMS:0.000=132.000;
#STOPS:;
#BGCHANGES:1.000=Onegai Muscle.avi=1.000=0=0=0=StretchNoLoop====,
99999.000=-nosongbg-=1.000=0=0=0=StretchNoLoop====
;
#FGCHANGES:;

//--------------- dance-single - ----------------
#NOTES:
     dance-single:
     :
     Hard:
     14:
     0.806897,0.865551,0.543744,0.24413,0.749035,509,460,49,22,0,0,0.806897,0.865551,0.543744,0.24413,0.749035,509,460,49,22,0,0:
0000
0000
0000
0000
,
0000
0000
0000
0000
0001
0100
0010
1000
0001
0000
0011
0000
0000
0000
1100
0000
,
0000
1000
0010
0100
0001
0000
1001
0000
,
0110
0000
0000
0000
1000
0100
0010
0001
1000
0000
1010
0000
0000
0000
0101
0000
,
0000
0000
0001
0000
0010
0000
0100
0000
1000
0000
0000
0000
1001
0000
0001
0100
,
0001
0000
0000
0000
1000
0100
1000
0100
0010
0000
0110
0000
0000
0000
0011
0000
,
0000
1000
0010
0100
0001
0010
0100
0010
,
1001
0000
1000
0100
1000
0100
0010
0000
1001
0000
0001
0100
0001
0100
0010
0000
,
1001
0000
0000
0011
0000
0000
1100
0000
0001
0000
0010
0000
0100
0000
1000
0000
,
0001
0000
1000
0200
0000
0000
1000
0000
1300
0000
0001
0200
0000
0000
0001
0000
,
0301
0000
1000
0000
0001
1000
0010
0100
0002
0000
1000
0000
0103
0000
0000
0000
,
1001
0000
0001
0010
0100
0000
1000
0000
1001
0000
1000
0010
0100
0000
0001
0000
,
0001
0010
0000
0010
0100
1000
0010
0000
0010
0100
0001
0010
0100
0000
0010
0000
,
0110
0000
0001
1000
0000
0000
1001
0000
0001
0100
0010
1000
0001
0000
1000
0000
,
0100
1000
0001
0100
0001
0010
0100
0000
0100
0010
0001
1000
0001
0000
0010
0000
,
0001
0100
0001
0000
1000
0100
1000
0000
0001
0100
0001
0000
1000
0100
1000
0000
,
0001
0100
0001
0100
0010
1000
0010
0000
0100
0000
0001
0010
0100
1000
0001
0010
,
0100
1000
0100
1000
0001
0010
0001
0010
0001
0100
0001
0100
0010
1000
0010
0000
,
1000
0001
1000
0001
0010
0100
0010
0100
1000
0010
2000
0000
3002
0000
2003
0000
,
3001
0100
0001
1000
0001
0010
0100
1000
0001
1000
0010
1000
0100
0010
0001
1000
,
0001
1000
0100
0010
0100
0010
0001
0010
0100
1000
0020
0000
0230
0000
0320
0000
,
1030
1000
0010
0100
0001
1000
0010
0100
0001
0001
0010
0100
1000
0001
0010
0100
,
1000
1000
0100
0010
0001
0001
0010
0100
2000
0000
3002
0000
0203
0000
0320
0000
,
1030
0000
1000
0000
0001
0000
0001
0000
1000
0100
1000
0100
0010
0001
0010
0000
,
0011
0000
0011
0000
1100
0000
1100
0000
1001
0000
0001
0100
0010
0100
0010
0100
,
0001
1000
0001
1000
0010
0100
0010
0100
,
0002
0000
0000
1000
0000
0000
1000
0000
2003
0000
0000
0001
0000
0000
3001
0000
,
0010
0100
0010
0100
1000
0001
1000
0001
,
1100
0011
1100
0011
,
1000
0001
1000
0001
0100
0010
0100
0010
,
2000
0000
0000
0001
0000
0000
0001
0000
3002
0000
0000
1000
0000
1003
0010
0100
,
0001
0011
1000
1100
,
0020
0000
0000
0000
0200
0000
0000
0000
0330
0000
0110
0000
1000
0100
0010
0001
,
1000
0000
0010
0000
1000
0010
0100
0001
1000
0000
1100
0000
0000
0000
0011
0000
,
0000
0001
0100
0010
1000
0000
1001
0000
,
0110
0000
0000
0000
0001
0010
0100
1000
0001
0000
0101
0000
0000
0000
1010
0000
,
0000
0000
1000
0000
0100
0000
0010
0000
0001
0000
0000
0000
1001
0000
1000
0010
,
1000
0000
0000
0000
0001
0010
0001
0010
0100
0000
0110
0000
0000
0000
1100
0000
,
0000
0001
0100
0010
1000
0100
0010
0100
,
1001
0000
0001
0010
0001
0010
0100
0000
1001
0000
1000
0010
1000
0010
0100
0000
,
1001
0000
0000
1100
0000
0000
0011
0000
1000
0000
0100
0000
0010
0000
0001
0000
,
1000
0000
0001
0020
0000
0000
0001
0000
0031
0000
1000
0020
0000
0000
1000
0000
,
1030
0010
0100
0001
1000
0001
0010
0000
0002
0000
1000
0000
1003
0000
0000
0000
,
1001
0000
1000
0100
0010
0000
0001
0000
1001
0000
0001
0100
0010
1000
0100
0010
,
0001
0000
0010
0000
0110
0000
0100
0010
0001
0010
0100
1000
0100
0000
0000
0000
,
1001
0000
0100
0001
0000
0001
0000
0000
1001
0000
1000
0100
1000
0000
0001
0000
,
0010
0001
0100
0010
1000
0100
0001
0100
1000
0001
0100
1000
0100
0000
0100
0000
,
0001
0010
0100
0000
1000
0010
0100
0000
0001
0010
0100
0000
1000
0010
0100
0000
,
0001
1000
0001
1000
0010
0100
0010
0100
0001
0010
0100
1000
0001
0000
0000
0000
;

//--------------- dance-single - ----------------
#NOTES:
     dance-single:
     :
     Challenge:
     16:
     0.927376,1.000793,1.309423,0.122065,0.793422,585,467,118,11,0,0,0.927376,1.000793,1.309423,0.122065,0.793422,585,467,118,11,0,0:
0000
0000
0000
0000
,
0000
0000
0000
0000
0001
0010
0100
0010
0011
0000
0011
0000
0000
0000
2001
0000
,
0000
0010
0001
0010
3001
0000
1001
0000
,
1001
0000
0000
0000
1000
0010
0100
0010
1010
0000
1010
0000
0000
0000
1002
0000
,
0000
0000
0010
0000
1000
0000
0010
0000
1003
0000
0000
0000
0110
0000
0001
0010
,
0100
0000
0000
0000
1000
0100
0010
0001
1001
0000
1001
0000
0000
0000
0011
0000
,
0000
0101
0110
1100
0110
0001
1001
0010
,
1001
0000
0100
0010
0100
0010
0100
0000
1001
0000
0010
0100
0010
0100
0010
0000
,
1001
0000
0000
1010
0000
0000
1100
0000
0101
0000
0010
0000
1010
0000
0001
0000
,
0101
0000
0010
1000
0000
0000
1000
0000
1100
0000
0010
0001
0000
0000
1100
0000
,
0011
0000
0011
0000
0001
0100
0010
0100
0002
0000
1000
0000
1003
0000
0000
0000
,
1001
0000
0001
0010
0100
0000
1001
0000
1001
0000
1000
0010
0100
0000
1001
0000
,
0001
1000
0000
1000
0100
0010
0001
0000
0011
0001
0010
0100
1100
0000
0011
0000
,
1010
0000
0010
0100
0000
0000
0101
0000
0001
0010
0100
1000
0001
0000
0001
0000
,
1010
1000
0010
0100
0001
0010
1001
0000
1000
0100
0010
0001
1001
0000
1001
0000
,
0001
0010
0100
0000
1000
0010
0100
0000
0001
0010
0100
0000
1000
0010
0100
0000
,
0001
0010
0001
0010
0100
1000
0100
0000
0110
0000
1000
0010
0100
0010
1000
0001
,
0100
0001
0100
0010
1000
0010
1000
0001
0010
0001
0010
0100
1000
0100
1000
0000
,
0001
0010
0100
1000
0001
0010
0100
1000
0001
0010
0110
0000
0011
0000
1100
0000
,
0001
0010
0100
0010
0001
0100
0010
0100
0001
1000
0010
0100
0001
1000
0001
1000
,
0100
0010
0100
1000
0001
0100
0001
0010
0001
0100
1010
0000
0011
0000
0101
0000
,
1010
1000
0010
1000
0001
0100
0001
0010
0011
0001
0010
0100
1000
0010
0100
0010
,
1010
1000
0100
0010
0001
0100
0010
0100
0110
0000
1001
0000
0110
0000
1001
0000
,
0001
0000
0001
0000
1000
0000
1000
0000
0001
1000
0001
1000
0001
1000
0001
0000
,
1000
0010
1000
0000
0001
0010
0001
0000
1001
0000
0001
0100
0010
0100
0010
0100
,
0001
1000
0001
1000
0001
1000
0001
1000
,
0002
0000
0000
1000
0000
0000
1000
0000
2003
0000
0000
0001
0000
0000
3001
0000
,
0011
1100
0011
1100
1010
0101
1010
0101
,
1001
0110
1001
0110
,
1000
0001
1000
0001
1000
0001
1000
0001
,
2000
0000
0000
0001
0000
0000
0001
0000
3002
0000
0000
1000
0000
1003
0010
0100
,
0010
1001
0100
1001
,
0020
0000
0000
0000
0200
0000
0000
0000
0330
0000
0110
0000
0001
0010
0100
1000
,
0001
0000
0011
0000
1000
0100
0010
0100
1100
0000
1100
0000
0000
0000
1002
0000
,
0000
0100
1000
0100
1003
0000
1001
0000
,
1001
0000
0000
0000
0001
0100
0010
0100
0101
0000
0101
0000
0000
0000
2001
0000
,
0000
0000
0100
0000
0001
0000
0100
0000
3001
0000
0000
0000
0110
0000
1000
0100
,
0010
0000
0000
0000
0001
0010
0100
1000
1001
0000
1001
0000
0000
0000
1100
0000
,
0000
1010
0110
0011
0110
1000
1001
0100
,
1001
0000
0010
0100
0010
0100
0010
0000
1001
0000
0100
0010
0100
0010
0100
0000
,
1001
0000
0000
0101
0000
0000
0011
0000
1010
0000
0100
0000
0101
0000
1000
0000
,
1010
0000
0100
0001
0000
0000
1001
0000
1001
0000
0001
0010
0000
0000
0110
0000
,
1000
0100
0010
0100
1000
0001
0101
0000
0001
0100
0010
1000
1001
0000
1001
0000
,
1001
0000
1000
0100
0000
0000
1001
0000
1001
0000
0001
0100
0000
0001
0010
0100
,
0010
0001
0100
0010
0100
0001
1000
0010
0100
0001
1000
0001
1001
0000
1001
0000
,
0001
0010
0100
1000
0000
1001
0000
0000
1001
0000
1000
0100
0010
0000
0110
0000
,
0011
0001
0010
0100
1100
1000
0100
0010
0001
0011
0000
0110
0110
0000
1001
0000
,
1000
0010
0100
0000
0001
0010
0100
0000
1000
0010
0100
0000
0001
0010
0100
0000
,
1000
0100
1000
0001
0100
0001
1000
0010
1000
0001
0010
0001
1000
0000
0000
0000
;

//--------------- dance-single - ----------------
#NOTES:
     dance-single:
     :
     Edit:
     15:
     1.211137,0.891455,0,0,2.11949,764,764,0,0,0,0,1.211137,0.891455,0,0,2.11949,764,764,0,0,0,0:
0000
0000
0000
0000
,
0001
0100
0010
1000
0010
1000
0100
1000
0100
0010
0001
0100
0010
0100
0010
1000
,
0100
1000
0100
1000
0001
0100
0001
0100
0001
1000
0100
0010
0100
0010
0001
0010
,
0100
1000
0001
1000
0100
1000
0010
0100
0001
0010
0001
1000
0100
1000
0100
0010
,
0100
1000
0010
1000
0001
1000
0100
0010
0001
0010
0100
0010
0001
1000
0100
0010
,
0100
0010
0100
1000
0010
0100
0010
1000
0100
0010
0001
0100
0010
0100
0010
0100
,
0001
0010
0001
0010
0001
0100
0010
0100
0001
1000
0100
1000
0100
1000
0010
0100
,
0001
1000
0001
1000
0100
0010
0001
1000
0010
0100
0010
1000
0100
0010
0001
0100
,
0010
0100
0010
1000
0001
0100
0001
0010
0100
0010
0001
0010
0001
1000
0001
0010
,
0100
0010
0001
1000
0001
0100
0001
1000
0100
0010
0100
1000
0001
1000
0010
0100
,
0001
0100
0001
0100
0010
1000
0010
1000
0010
0100
0001
0010
0001
1000
0010
0100
,
0001
0100
0001
1000
0001
0100
0010
0100
0010
1000
0010
1000
0001
0100
0001
0010
,
0001
1000
0010
1000
0010
1000
0100
0010
0001
0010
0001
0010
0100
1000
0010
0100
,
0001
0100
0001
0100
0010
1000
0010
0100
0001
1000
0001
1000
0001
0010
0100
1000
,
0100
0010
0100
1000
0010
0100
0010
1000
0001
0010
0100
1000
0010
0100
0010
0100
,
0010
1000
0001
1000
0010
0100
0001
0010
0001
0010
0100
0010
0001
1000
0010
1000
,
0100
1000
0100
0010
0100
0010
0001
1000
0010
1000
0001
0010
0100
1000
0100
1000
,
0100
0010
0001
0010
0100
0010
0001
1000
0100
1000
0100
1000
0001
0010
0100
1000
,
0010
0100
0001
0100
0010
1000
0010
1000
0100
1000
0100
0010
0001
1000
0010
0100
,
0001
0010
0001
0010
0100
1000
0100
1000
0010
0100
0001
0010
0001
0010
0001
0100
,
0010
0100
0001
0010
0100
1000
0010
1000
0001
0100
0010
0100
0010
0100
0001
1000
,
0010
0100
0010
0100
0001
0010
0001
1000
0100
1000
0010
1000
0100
0010
0001
0100
,
0010
1000
0100
0010
0001
1000
0010
0100
0001
1000
0100
0010
0100
0010
0001
0100
,
0010
1000
0100
0010
0100
1000
0100
1000
0001
1000
0010
0100
0010
1000
0001
0010
,
0001
1000
0001
1000
0010
1000
0010
0100
0010
0100
0001
0100
0001
1000
0100
0010
,
0100
0010
0100
1000
0010
0100
0001
0010
0001
0100
0001
1000
0010
1000
0010
0100
,
0001
0010
0001
0100
0001
0010
0100
0010
0001
0100
0010
0100
0010
0100
0001
1000
,
0010
1000
0001
0010
0100
0010
0100
0010
0001
1000
0010
1000
0010
0100
0010
1000
,
0100
1000
0100
0010
0001
0010
0001
1000
0100
1000
0100
0010
0001
0010
0001
1000
,
0010
1000
0001
0100
0001
1000
0001
0100
0010
0100
0001
0010
0100
0010
0001
1000
,
0001
0100
0010
1000
0001
0010
0100
1000
0010
0100
0001
0010
0100
1000
0010
0100
,
0001
0010
0100
0010
0001
0010
0001
1000
0010
0100
0001
0010
0100
1000
0001
1000
,
0010
1000
0001
0100
0010
0100
0010
0100
0010
0100
0010
0100
0001
1000
0001
0100
,
0010
0100
0001
1000
0100
0010
0100
0010
0100
1000
0010
1000
0100
0010
0001
0010
,
0100
1000
0100
0010
0001
0100
0001
0100
0010
0100
0001
0010
0001
1000
0010
0100
,
0001
0010
0100
1000
0001
1000
0001
1000
0100
0010
0001
0100
0010
0100
0001
1000
,
0100
0010
0001
0100
0001
0100
0001
1000
0010
1000
0001
1000
0100
0010
0100
1000
,
0010
1000
0100
1000
0010
0100
0010
0100
0001
0010
0100
1000
0100
1000
0010
0100
,
0001
0100
0010
1000
0100
1000
0010
0100
0001
1000
0001
0010
0100
1000
0001
0010
,
0001
0010
0001
0100
0010
0100
0010
0100
0001
1000
0001
0100
0010
0100
0010
1000
,
0001
1000
0010
0100
0010
0100
0001
0010
0100
1000
0001
1000
0010
1000
0001
0010
,
0100
1000
0001
0010
0001
0010
0100
0010
0100
1000
0010
1000
0010
1000
0100
0010
,
0100
0010
0001
0100
0010
1000
0001
0100
0010
1000
0010
0100
0010
1000
0100
0010
,
0001
0010
0001
0010
0100
1000
0010
1000
0001
1000
0010
0100
0010
1000
0100
1000
,
0010
0100
0001
0010
0001
0100
0010
1000
0001
0100
0001
0100
0001
0010
0100
1000
,
0001
0010
0001
0100
0001
1000
0100
0010
0100
1000
0001
0100
0010
0100
0001
0100
,
0001
1000
0100
0010
0100
1000
0010
0100
0001
0010
0001
0010
0001
1000
0100
0010
,
0001
0100
0001
0010
0100
0010
0100
1000
0001
0010
0001
1000
0001
0100
0010
1000
,
0100
1000
0010
0100
0001
0100
0001
0100
0010
1000
0100
0010
0000
0000
0000
0000
;
