#TITLE:One Last Kiss;
#SUBTITLE:;
#ARTIST:宇多田ヒカル;
#TITLETRANSLIT:One Last Kiss;
#SUBTITLETRANSLIT:;
#ARTISTTRANSLIT:Utada Hikaru;
#GENRE:ANIME;
#CREDIT:;
#MUSIC:One Last Kiss.ogg;
#BANNER:One Last Kiss.png;
#BACKGROUND:One Last Kiss-bg.png;
#CDTITLE:;
#SAMPLESTART:57.940;
#SAMPLELENGTH:17.160;
#SELECTABLE:YES;
#OFFSET:-2.173;
#BPMS:0.000=111.891
,46.000=55.946
,47.000=111.891
,53.000=55.946
,54.000=111.891
,60.000=55.946
,61.000=111.891
,165.000=55.946
,181.000=111.891
;
#STOPS:;
#DISPLAYBPM:112.000;
#BGCHANGES:;
#FGCHANGES:;

//--------------- dance-single - ----------------
#NOTES:
     dance-single:
     :
     Hard:
     11:
     0,0,0,0,0:
0000
0000
0000
0000
0000
0000
0000
0000
1000
0000
0000
1000
0000
0000
0001
0000
,
0000
0001
0000
0000
1000
0000
0100
0000
0010
0000
0000
0010
0000
0000
0001
0000
,
0000
0001
0000
0000
0100
0000
0001
0000
0010
0000
0000
0010
0000
0000
0100
0000
,
0000
0100
0000
0000
1000
0000
0010
0000
0100
0000
0000
0100
0000
0000
0001
0000
,
0001
0000
0010
0000
0100
1000
0000
0001
1000
0000
0000
0010
0000
0000
0100
0000
,
0000
0001
0000
0000
1000
0000
0100
0000
0010
0000
0000
0001
0000
0000
1000
0000
,
0000
0010
0000
0000
0100
0000
0001
0000
1000
0000
0000
0001
0000
0000
0100
0000
,
0000
0001
0000
0000
1000
0000
0100
0000
0010
0000
0000
0001
0000
0000
1000
0000
,
0000
0001
0000
0000
1000
0000
2002
0000
0000
0000
0000
0000
0000
0000
0000
0000
,
0000
0000
0000
3003
,
0001
0000
0100
0000
0001
0000
0100
0000
0001
0020
0000
0000
0130
0000
1000
0000
,
1001
0000
0000
0000
0001
0000
0000
0000
0100
0000
0000
0000
0001
0000
0000
0000
1000
0020
0000
0000
0130
0000
0000
0000
0001
0000
0000
0000
1000
0000
0000
0000
,
0010
0000
0100
0000
0001
2000
0000
0000
3100
0000
0010
0000
0011
0000
0001
0000
,
1000
0000
0000
0000
0010
0000
0000
0000
1000
0002
0000
0000
1003
0000
0000
0000
0001
0000
0000
0000
0100
0000
0000
0000
1000
0000
0000
0000
0100
0000
0000
0000
,
0001
0020
0000
0000
0130
0000
1000
0000
0010
0000
1000
0000
0100
0000
0010
0000
,
0100
2000
0000
0000
3100
0000
0000
0000
0010
0000
0000
0000
0010
0000
0000
0000
0001
0000
0000
0000
0001
0000
0000
0000
1000
0000
0020
0000
0000
0000
0000
0000
,
0000
0000
0100
0230
0000
0302
0000
0000
,
0000
0000
0003
0000
1001
0000
0000
1000
0000
0000
0100
0000
1000
0000
0001
0000
,
1000
0000
0010
0000
0110
0000
0000
0100
0000
0000
0001
0000
1000
0000
0001
0000
,
0010
0000
0100
0000
1100
0000
0000
1000
0000
0000
0001
0000
0010
0000
0001
0000
,
0010
0100
1000
0010
0001
0010
1000
0100
,
0010
1001
0010
1100
,
0001
0100
0101
0000
0010
0000
1001
2000
,
0000
3010
0110
0000
0100
0000
1001
0000
,
1000
0001
0010
0100
0010
0001
1000
0010
,
1001
0000
0000
0000
0101
0000
0000
1100
0000
0000
0101
0000
0000
1100
0000
0000
,
0010
0000
0100
0000
1100
0000
0000
0101
0000
0000
1100
0000
0000
0101
0000
0000
,
0100
0000
0001
0000
0011
0000
0000
1010
0000
0000
0011
0000
0000
1010
0000
0000
,
0010
1000
0100
0001
0100
1000
0010
0001
,
0010
0000
0000
0000
1010
0000
0000
1100
0000
0000
1010
0000
0000
1100
0000
0000
,
0100
0000
0010
0000
0011
0000
0000
1100
0000
0000
0010
0000
1001
0000
0000
0000
,
1001
0000
0000
0000
0101
0000
0000
1010
0000
0000
0101
0000
0000
1010
0000
0000
,
0001
0010
0100
1000
0001
0010
0100
1000
,
0001
0000
0000
0000
1010
0000
0000
1100
0000
0000
0101
0000
0001
0000
0010
0000
,
0100
0000
1000
0000
1010
0000
0000
0011
0000
0000
0101
0000
0100
0000
0001
0000
,
1000
0010
0001
0010
1000
0100
0001
0100
,
1000
0010
0200
0000
0302
0000
0023
0000
,
0230
0000
2300
0000
3002
0000
1003
0010
,
0001
0010
2000
0000
3002
0000
1003
0001
,
0010
1000
0020
0000
0032
0000
1003
0010
,
0100
0000
0001
0000
0010
0000
1000
0000
0010
0000
0001
0000
1001
0000
0000
0110
,
0000
0000
1001
0000
0200
0000
0000
0000
0000
0000
0301
0001
0020
0000
0230
0000
,
1300
0010
1000
0002
0000
0000
0000
0000
0000
0000
1003
0100
0010
0001
1000
0001
,
0010
0000
0100
0000
2000
0000
0000
0000
0010
0000
0000
0010
0000
0000
0001
0000
0000
0001
0000
0000
3001
0000
0010
0000
0200
0000
0000
0000
2300
0000
0000
0000
,
3001
0000
0100
0000
0002
0000
0000
0000
2003
0000
0000
0000
0000
0000
0000
0000
0000
0000
0000
0000
0000
0000
0000
0000
0010
0000
0000
0010
0000
0000
0001
0000
,
0000
0001
0000
0000
3100
0000
0010
0000
0001
0000
0000
0000
0010
0000
0000
0000
0100
0000
0000
0000
1000
0000
0000
0000
0001
0000
0000
0000
0100
0000
0000
0000
,
0010
0000
1000
0000
1010
0000
0000
0011
0000
0000
0101
0000
0000
1100
0000
0000
,
1000
0100
0001
0100
1000
0001
0100
1000
,
0100
0010
1000
0010
0001
0010
1000
0001
,
0010
1000
0010
0001
0010
0100
1000
0010
,
0100
0000
0001
0000
1001
0000
0000
0110
0000
0000
1001
0000
1001
0000
0000
0000
,
1001
0001
0100
1000
0001
0010
1000
0100
,
0001
1000
0010
0001
0100
1000
0001
0010
,
1000
0100
0002
0000
0000
0000
0000
0000
,
0000
0000
0000
0000
,
0003
0000
0000
0000
;

//--------------- dance-single - ----------------
#NOTES:
     dance-single:
     :
     Challenge:
     15:
     0,0,0,0,0:
0000
0000
0000
0000
0000
0000
0000
0000
2000
0000
0000
0001
0000
0000
0001
0000
,
0000
0010
0000
0000
3010
0000
0100
0000
0002
0000
0000
1000
0000
0000
1000
0000
,
0000
0010
0000
0000
0013
0000
0100
0000
2000
0000
0000
0010
0000
0000
0010
0000
,
0000
0100
0000
0000
3100
0000
0010
0000
0002
0000
0000
1000
0000
0000
0103
0000
,
0100
0000
0010
0100
0010
1000
0000
0100
0010
0000
0010
0001
0000
0001
1000
0000
,
1000
0010
0000
0010
0100
0000
0010
0000
1001
0000
1000
0010
0000
0010
0100
0000
,
0100
0001
0000
0001
1000
0000
0001
0000
1001
0000
1000
0100
0000
0010
0100
0000
,
0001
0100
0000
1000
0001
0000
0100
0000
0110
0000
0001
0100
0000
0010
0100
0000
,
1000
0100
0000
0001
1000
0000
2002
0000
0000
0000
0000
0000
0000
0000
0000
0000
,
0000
0000
0000
3003
,
0001
0010
0001
0010
0100
1000
0000
0010
1000
0020
0000
0000
0130
0000
0001
0000
,
1001
0000
0000
0000
1000
0000
0100
0000
1000
0000
0100
0000
0010
0000
0001
0000
1000
0020
0000
0000
0230
0000
0000
0000
0301
0000
1000
0000
0100
0000
1000
0000
,
0100
0010
0001
1000
0010
0200
0000
0000
0301
0000
1000
0000
1100
0000
0100
0010
,
0100
0000
0010
0000
0000
0000
0100
0000
1000
0002
0000
0000
2003
0000
0000
0000
3001
0000
0100
0000
0010
0000
0100
0000
0001
0000
1000
0000
0010
0000
0100
0000
,
0010
2000
0000
0000
3001
0000
0010
0100
0010
0001
1000
0001
1000
0001
0100
0000
,
0010
2000
0000
0000
3200
0000
0000
0000
0310
0000
0001
0000
0010
0000
0001
0000
1000
0000
0001
0000
1000
0000
0010
0000
1000
0000
0010
0000
0200
0000
0000
0000
,
0000
0000
0001
0302
0000
0023
0000
0000
,
0000
0000
0030
0000
0110
0000
0000
0100
1000
0000
0001
0000
1000
0010
1000
0010
,
0100
0000
0001
0000
1001
0000
0000
0001
0010
0000
0100
0000
1000
0001
1000
0001
,
0100
0000
0010
0000
0110
0000
0000
0100
0001
0000
1000
0000
0001
1000
0001
0100
,
0010
0000
0100
0001
0010
0000
0100
1000
0010
0000
0100
0001
1000
0000
0100
1000
,
0001
0000
1000
0000
1001
0000
0000
0001
0000
0000
0001
0000
1010
0000
0000
1000
,
0000
0000
1000
0000
0011
0000
0000
0010
0000
0000
0010
0000
1100
0000
0000
0100
,
0000
0000
0100
0000
1001
0000
0000
0010
0001
0000
0100
0000
0110
0000
0000
0010
,
1000
0100
0010
0000
0110
0000
0010
0001
0010
0000
0100
1000
0100
0000
0010
0000
,
1001
0000
0000
0000
0101
0000
0001
0100
0000
0001
1000
0000
0001
0100
0000
0001
,
0010
0000
0110
0000
1100
0000
1000
0100
0000
1000
0001
0000
1000
0010
0000
0100
,
0001
0100
0001
0100
0010
0000
1000
0001
0000
0001
0010
0000
0100
1000
0000
1000
,
0010
0000
0010
1000
0100
0000
0100
1000
0010
0000
0100
0001
0010
0000
0010
0001
,
0100
0010
1000
0010
0001
0000
0010
1000
0000
1000
0001
0000
0001
0010
0000
0010
,
0100
0000
1001
0000
0001
0000
1000
0010
0000
0010
0100
0000
0101
0000
0000
0000
,
1010
0000
0010
0100
0010
0000
1000
0100
0000
0010
0001
0000
1000
0100
0000
0010
,
0001
0000
0001
0100
1000
0000
1000
0100
0001
0000
0010
0000
0110
0000
0100
1000
,
0100
0010
0100
0010
0001
0000
0001
1000
0000
0010
0100
0000
0110
0000
0001
0100
,
0010
0100
0010
1000
0001
0000
1000
0010
0000
0100
0001
0000
1001
0000
1000
0010
,
0100
0001
0100
0001
1000
0000
0001
0000
0011
0000
0100
0000
1100
0000
1000
0000
,
0101
0000
0001
0010
0002
0000
0103
0010
0200
0000
0310
1000
0020
0000
1030
0001
,
2000
0000
3001
0010
0200
0000
1300
0010
0200
0000
0310
1000
0002
0000
0013
0100
,
1000
0001
0010
0100
2000
0000
3001
0100
0020
0000
0031
0010
2000
0000
3001
0010
,
0100
0010
1000
0010
0002
0000
0103
0010
2000
0000
3001
0100
0020
0000
0031
0010
,
1000
0001
0100
1000
0002
0000
0013
1000
0200
0000
0310
0001
1001
0000
0000
0110
,
0000
0000
1001
0000
0200
0000
0000
0000
0000
0000
0301
0001
0020
0000
0230
0000
,
1300
0010
1000
0002
0010
0000
1000
0000
0100
0000
1003
0010
0100
0001
1000
0001
,
0100
0000
0010
0000
1000
0000
0000
0000
1010
0000
0000
0101
0000
0000
1010
0000
0000
0101
0000
0000
0001
0000
0010
0000
0200
0000
0000
0000
2300
0000
0000
0000
,
3001
0000
0100
0000
0002
0000
0000
0000
0023
0000
0000
0000
1000
0000
0000
0000
0100
0000
0000
0000
0031
0000
0000
0000
0011
0000
0000
1100
0000
0000
0011
0000
,
0000
2100
0000
0000
0001
0000
3001
0000
1000
0000
0100
0000
0010
0000
0100
0000
1000
0000
0001
0000
0010
0000
0100
0000
0010
0000
0001
0000
1000
0000
0010
0000
,
0100
0010
1000
0001
0010
0000
0100
1000
0000
0001
0100
0000
0010
1000
0000
0001
,
1000
0100
0010
0100
0001
0100
1000
0001
0100
0010
0100
0001
0100
1000
0100
0001
,
1000
0001
0010
0100
0010
0001
0100
0010
0001
0010
0100
0001
0010
0100
0010
0001
,
1000
0010
0100
1000
0100
0010
1000
0100
0010
0100
1000
0010
0100
1000
0100
0010
,
1000
0100
0010
0001
1000
0000
0010
0100
0000
0001
1000
0000
1010
0000
0000
0000
,
0001
0100
1000
0100
0001
0010
0100
0001
0100
1000
0010
0100
1000
0100
0001
0010
,
0100
0001
0100
1000
0010
0001
1000
0100
0001
0010
1000
0001
0100
1000
0010
0001
,
1000
0100
0001
0010
2000
0000
0000
0000
0000
0000
0000
0000
0000
0000
0000
0000
,
0000
0000
0000
0000
,
3000
0000
0000
0000
;
