#TITLE:One In A Billion;
#SUBTITLE:;
#ARTIST:wake up may'n;
#TITLETRANSLIT:One In A Billion;
#SUBTITLETRANSLIT:;
#ARTISTTRANSLIT:wake up may'n;
#GENRE:ANIME;
#CREDIT:;
#BANNER:One In A Billion.png;
#BACKGROUND:One In A Billion-bg.png;
#LYRICSPATH:;
#CDTITLE:;
#MUSIC:One In A Billion.ogg;
#OFFSET:-0.220000;
#SAMPLESTART:57.569000;
#SAMPLELENGTH:10.267000;
#SELECTABLE:YES;
#BPMS:0.000000=76.000000
,32.000000=187.000000
;
#STOPS:
;
#BGCHANGES:0.000=One In A Billion.avi=1.000=0=0=0=====,
99999=-nosongbg-=1.000=0=0=0 // don't automatically add -songbackground-
;
#KEYSOUNDS:;
#ATTACKS:;

//---------------dance-single - ----------------
#NOTES:
     dance-single:
     :
     Hard:
     11:
     0.582837,0.660807,0.824653,0.358073,0.043403,376.000000,300.000000,76.000000,33.000000,0.000000,0.000000,0.582837,0.660807,0.824653,0.358073,0.043403,376.000000,300.000000,76.000000,33.000000,0.000000,0.000000:
0000
0000
0000
0000
0000
0001
1000
0001
,
0100
0101
0000
1001
0000
1000
0001
1000
,
0100
1100
0000
1001
0000
0001
0100
0001
,
0010
0000
0011
0000
0000
0000
1100
0000
0100
0000
1000
0000
0010
0000
1000
0100
,
0000
0010
0001
1000
0000
0000
1001
0000
0001
0000
1000
0000
0110
0000
0000
0201
,
0000
0000
0010
0000
1300
0000
0000
0000
0100
0000
0001
0000
0010
0000
0100
1000
,
0000
1010
0000
0000
0000
0100
0001
0000
0010
0000
0100
0000
0010
0000
0001
0200
,
0000
0010
0000
0010
0301
0010
0100
1000
,
0020
0100
0130
1001
,
2000
0000
3100
0020
0000
0031
2000
0000
,
3020
0230
0302
2003
,
3200
0000
0310
0002
0000
0103
2000
0000
,
3200
0001
0302
0010
,
0023
0100
1000
2030
,
3020
0032
0203
2300
,
3200
0000
0301
2000
0000
3001
0200
0000
,
0320
0000
1000
0000
0130
0001
0100
0001
,
0101
0000
0010
1000
0100
0000
0010
0001
,
1000
0000
0010
0100
0000
0100
0001
1000
,
0100
0000
0010
0001
0000
0001
1000
0001
,
1000
1100
0001
0101
,
1001
0000
0001
0100
0010
0000
0110
0000
,
1001
0000
1000
0100
0001
0100
1100
0000
,
1000
1010
0001
0011
,
0001
0010
0100
1000
0001
0010
0100
1000
,
0001
0100
0010
0100
0001
1000
0001
0100
,
1000
0100
0001
2000
0000
0000
0100
0000
,
3001
0100
0010
0100
0001
1000
0001
0010
,
1000
0010
0001
2000
0000
3001
0100
0001
,
0100
0101
1000
1100
,
0001
0011
1000
1010
,
0110
0000
1001
0000
0110
0000
1001
0100
,
0000
0010
0000
0100
0000
0020
0000
0030
,
1010
1100
1010
1100
,
0110
0000
0010
0001
0000
1000
0001
1000
,
0101
0011
0101
0011
,
1001
0000
0010
1000
0000
0001
0100
0001
,
1010
1100
0101
0011
,
1001
0000
0100
0001
0000
1000
0010
1000
,
0020
0100
2030
0001
,
3001
0010
0100
1000
0000
1100
0000
0100
,
0011
1100
1010
0101
,
0110
0000
0100
0001
0000
1000
0100
0001
,
1100
0011
0101
1010
,
0110
0000
0010
0100
0000
0001
0100
1000
,
0101
1010
1100
0011
,
0101
0000
0010
1000
0000
0100
0001
0000
,
0011
0000
1100
0000
0011
0000
0100
1000
,
0000
0001
0100
0001
0000
0010
0100
1000
,
0002
0100
0000
0100
,
0000
0000
0103
0000
0001
0100
0100
0100
,
0110
0000
1010
0000
0110
0000
0100
0001
,
0000
0010
0100
0000
0010
0001
1000
0000
,
0101
1001
1100
1001
,
0011
0110
1010
0110
,
0011
0000
1010
0000
1100
0000
1000
0001
,
0000
0001
0100
0010
0000
1000
0001
0020
,
0000
0200
0000
0000
0000
0000
0000
0000
,
0330
0000
0000
0000
;

//---------------dance-single - ----------------
#NOTES:
     dance-single:
     :
     Challenge:
     16:
     0.847904,0.912543,1.161024,0.347222,0.238715,547.000000,440.000000,107.000000,32.000000,0.000000,0.000000,0.847904,0.912543,1.161024,0.347222,0.238715,547.000000,440.000000,107.000000,32.000000,0.000000,0.000000:
// measure 0
0000
0000
0000
0000
0000
0002
0010
1000
,  // measure 1
0103
0000
0100
0010
0000
0010
1000
0000
0001
0000
2000
0000
0010
0000
0001
0000
,  // measure 2
3100
0000
0100
0010
0000
0010
0001
0000
1000
0000
0020
0000
0100
0000
0001
0000
,  // measure 3
1030
0000
1000
0100
0000
0100
0010
0000
0100
0000
1000
0000
0001
0000
0100
0010
,  // measure 4
0000
0010
1000
0100
0000
0000
1001
0000
0001
0100
0001
0100
0010
0000
1000
0001
,  // measure 5
0000
0010
0100
0010
0001
0000
1000
0010
0100
0000
0010
0000
1000
0000
0100
0010
,  // measure 6
0000
0010
0000
0000
0000
0010
0001
0000
1000
0000
0010
0000
0100
0000
1000
0100
,  // measure 7
0001
0000
0100
0000
0010
0000
0100
0000
0001
0000
0010
0000
0100
0000
1000
0100
,  // measure 8
0020
0000
0100
0000
0100
0130
1001
0000
,  // measure 9
2000
0010
3100
0002
0010
0103
2000
0010
,  // measure 10
3002
0010
2003
0100
3020
0001
0230
0010
,  // measure 11
2300
0001
3010
0200
0000
1300
0020
0100
,  // measure 12
0032
0100
1003
0100
0002
0010
1003
0010
,  // measure 13
0200
0000
1000
0000
0301
0000
0002
0100
,  // measure 14
2003
0010
3200
0001
0320
0100
2030
0001
,  // measure 15
3200
0010
1300
0002
0100
1003
0200
0010
,  // measure 16
2300
0100
3010
0001
0020
0100
1030
0001
,  // measure 17
0110
0000
0110
0000
1000
0001
1000
0001
,  // measure 18
1100
0000
0011
0001
0000
1000
0010
0100
,  // measure 19
0101
0000
1010
0010
0000
0100
0001
1000
,  // measure 20
1100
0000
0110
0100
0000
1000
1100
0010
,  // measure 21
1001
0000
0001
0100
0010
1000
0101
0000
,  // measure 22
0001
0010
0110
1000
0100
0010
1100
0000
,  // measure 23
1000
0010
0101
0000
0001
0010
1100
0000
,  // measure 24
0011
0010
0110
0100
1100
0001
0011
0010
,  // measure 25
0110
1000
1000
1000
0100
0010
0010
0010
,  // measure 26
0001
0100
0001
0100
0110
0000
1010
0000
,  // measure 27
0101
0001
0001
0010
0100
1000
1000
1000
,  // measure 28
0100
0010
0100
0001
0000
0001
0100
1000
,  // measure 29
1010
0000
1001
0000
0101
0001
1001
0000
,  // measure 30
1100
1000
1001
0000
0101
0100
0110
0000
,  // measure 31
1100
0010
1001
0010
0101
0010
1001
1100
,  // measure 32
0000
0101
0000
0011
0000
1010
0200
0000
,  // measure 33
0301
0000
0010
0100
0010
0000
0001
0000
1000
0000
0010
0100
0010
0000
1000
0000
,  // measure 34
0100
0000
0001
0100
0010
0000
0100
1000
0001
0000
0110
0000
1010
0000
0110
0000
,  // measure 35
1010
0000
0000
0000
0001
0000
1000
0100
1000
0000
0001
0000
1000
0000
0001
0100
,  // measure 36
0001
0000
1000
0000
0010
0000
1000
0100
1000
0000
0011
0000
1100
0000
0011
0000
,  // measure 37
1100
0000
0000
0000
1000
0000
0001
0100
0010
0000
0010
1000
0100
0000
1000
0000
,  // measure 38
0100
0000
0010
0001
0100
0000
0100
0001
1000
0000
0100
0000
0010
0000
0100
0000
,  // measure 39
2100
0010
0001
3100
0102
0010
1000
0103
,  // measure 40
0101
0000
1100
0000
0101
0000
1100
0000
0000
0000
0110
0000
0100
0000
0010
0100
,  // measure 41
0001
0000
0101
0000
0100
0001
1000
0000
1100
0000
0100
1000
0010
0000
0110
0000
,  // measure 42
0100
0001
1000
0000
1100
0000
0100
0010
0001
0000
0011
0000
0110
0000
0011
0000
,  // measure 43
1001
0000
0000
0000
1000
0100
0010
0000
0110
0000
0100
1000
0001
0000
0101
0000
,  // measure 44
0100
0001
0010
0000
0110
0000
0100
1000
0010
0000
1010
0000
0101
0000
1010
0000
,  // measure 45
0101
0000
0000
0000
1010
0000
0100
0001
0010
0000
1100
0000
0010
1000
0001
0000
,  // measure 46
1010
0000
0100
0001
1000
0000
0110
0000
0001
0100
0010
0000
1001
0000
0010
0000
,  // measure 47
1100
0010
0101
1000
0011
1000
0101
1001
,  // measure 48
0000
1100
0110
1001
0000
0100
0010
1000
,  // measure 49
0001
0010
0100
1000
0100
0000
0010
0001
,  // measure 50
0000
0100
0010
0100
0001
0110
0110
0110
,  // measure 51
1001
0100
0011
1000
0110
0001
1010
0100
,  // measure 52
0001
0100
1001
0010
0100
1000
1010
0000
,  // measure 53
0100
0001
0101
0000
0011
0100
1001
0110
,  // measure 54
0101
0000
1100
0010
0101
0010
1001
0100
,  // measure 55
0011
0000
1001
0010
1001
0100
0101
1100
,  // measure 56
0000
1000
0100
0110
0000
0001
1000
0020
,  // measure 57
0000
0200
0000
0000
0000
0000
0000
0000
,  // measure 58
0330
0000
0000
0000
;
