#TITLE:お邪魔します;
#SUBTITLE:;
#ARTIST:まみれた;
#TITLETRANSLIT:Ojamashimasu;
#SUBTITLETRANSLIT:;
#ARTISTTRANSLIT:Mamireta;
#GENRE:POP;
#CREDIT:;
#BANNER:Ojamashimasu.png;
#BACKGROUND:Ojamashimasu-bg.png;
#LYRICSPATH:;
#CDTITLE:;
#MUSIC:Ojamashimasu.ogg;
#OFFSET:5.197000;
#SAMPLESTART:8.719000;
#SAMPLELENGTH:13.913000;
#LASTBEATHINT:9.653100;
#SELECTABLE:YES;
#DISPLAYBPM:69.000000:138.000000;
#BPMS:0.000000=138.000000
,28.000000=69.000000
,30.000000=138.000000
,96.500000=69.000000
,98.500000=138.000000
,283.500000=276.000000
;
#STOPS:58.000000=0.217000,
58.500000=0.217000,
59.000000=0.217000,
265.000000=0.217000,
307.000000=0.435000
;
#BGCHANGES:14.750=Ojamashimasu.avi=1.000=0=0=0=====,
99999=-nosongbg-=1.000=0=0=0 // don't automatically add -songbackground-
;
#KEYSOUNDS:;
#ATTACKS:;

//---------------dance-single - ----------------
#NOTES:
     dance-single:
     :
     Hard:
     15:
     0.751630,0.865184,0.370415,0.083154,0.808866,696.000000,647.000000,49.000000,11.000000,0.000000,0.000000,0.751630,0.865184,0.370415,0.083154,0.808866,696.000000,647.000000,49.000000,11.000000,0.000000,0.000000:
0000
0000
0000
0000
,
0000
0000
0000
0000
,
0000
0000
0000
0000
,
0000
0000
0000
0000
,
0001
0000
0001
0000
0001
0000
1000
0100
1000
0000
1100
0000
0011
0000
0000
0000
,
1000
0000
1000
0000
1000
0000
0001
0100
0001
0000
0101
0000
1010
0000
0000
0000
,
0001
0000
0001
0000
0001
0000
1000
0001
1000
0000
0110
0000
1001
0000
0000
0000
,
0002
0003
0000
0000
0000
0000
0000
0000
0000
0000
0000
0000
0010
0000
0000
0000
0000
0000
0000
0000
0000
0000
0000
0000
0100
0000
0000
0000
0000
0000
0000
0000
0000
0000
0000
0000
1000
0000
0000
0000
0000
0000
0000
0000
0000
0000
0000
0000
0001
0000
0000
0000
0000
0000
0000
0000
0000
0000
0000
0000
0000
0000
0000
0000
0000
0000
0000
0000
0000
0000
0000
0000
2000
0000
0000
0000
0000
0000
0000
0000
0000
0000
0000
0000
0000
0000
0000
0000
0000
0000
0000
0000
0000
0000
0000
0000
3001
0000
0000
0000
0000
0000
0000
0000
0000
0000
0000
0000
0000
0000
0000
0000
0000
0000
0000
0000
0000
0000
0000
0000
0001
0000
0000
0000
0000
0000
0000
0000
0000
0000
0000
0000
0100
0000
0000
0000
0000
0000
0000
0000
0000
0000
0000
0000
0001
0000
0000
0000
0000
0000
0000
0000
0000
0000
0000
0000
0000
0000
0000
0000
0000
0000
0000
0000
0000
0000
0000
0000
0010
0000
0000
0000
0000
0000
0000
0000
0000
0000
0000
0000
0000
0000
0000
0000
0000
0000
0000
0000
0000
0000
0000
0000
,
0100
0000
1000
0000
0100
0000
1000
0000
0001
0000
1000
0100
1000
0000
0010
0000
,
0100
0000
0001
0000
0100
0000
0001
0000
1000
0000
0001
0100
0001
0000
1000
0000
,
0010
0100
0010
0100
1000
0100
0001
0010
,
1000
0000
0000
0000
1001
0000
0000
0000
0001
0000
1000
0100
0010
0000
0100
0000
,
1000
0000
0001
0000
1000
0000
0001
0000
0100
0000
0001
0100
0010
0000
0100
0000
,
0001
0000
1000
0000
0001
0000
1000
0000
0100
0000
0010
0100
0010
0000
0100
0000
,
1000
0000
0000
0000
0000
0000
0000
0000
0000
0000
0000
0000
0000
0000
0000
0000
0000
0000
0000
0000
0000
0000
0000
0000
0001
0000
0000
0000
0000
0000
0000
0000
0000
0000
0000
0000
0000
0000
0000
0000
0000
0000
0000
0000
0000
0000
0000
0000
1000
0000
0000
0000
0000
0000
0000
0000
0000
0000
0000
0000
0000
0000
0000
0000
0000
0000
0000
0000
0000
0000
0000
0000
0001
0000
0000
0000
0000
0000
0000
0000
0000
0000
0000
0000
0000
0000
0000
0000
0000
0000
0000
0000
0000
0000
0000
0000
0200
0300
0000
0000
0000
0000
0000
0000
0000
0000
0000
0000
0000
0000
0000
0000
0000
0000
0000
0000
0000
0000
0000
0000
0200
0000
0300
0000
0000
0000
0000
0000
0000
0000
0000
0000
0000
0000
0000
0000
0000
0000
0000
0000
0000
0000
0000
0000
0200
0300
0000
0000
0000
0000
0000
0000
0000
0000
0000
0000
0000
0000
0000
0000
0000
0000
0000
0000
0000
0000
0000
0000
2002
0000
0000
0000
0000
0000
0000
0000
0000
0000
0000
0000
0000
0000
0000
0000
0000
0000
0000
0000
0000
0000
0000
0000
,
3003
0000
0100
0000
0001
0010
0100
0000
1000
0000
0100
0000
0010
0000
0100
0000
,
1000
0000
0001
0000
0100
0000
0010
0000
0100
0000
0001
0000
1000
0001
1000
0001
,
1000
0001
1000
0000
0100
0000
0010
0000
0010
0000
0001
0000
0100
0000
0010
0000
,
0010
1000
0100
0001
0001
0100
1000
0001
,
0100
0000
0000
0000
0000
0000
0010
0000
0010
1000
0100
0000
0001
0000
0100
0000
,
0100
1000
0010
0000
0010
0100
0001
0000
1000
0000
0001
0100
0001
0000
0010
0000
,
0010
0000
0100
1000
0001
1000
0010
0000
,
0100
0001
1000
0000
0001
0000
0010
0000
1000
0000
0001
0000
0100
0000
1000
0000
,
0010
0000
0010
0001
0010
0100
0010
0100
0000
0100
0001
0010
0001
0010
0100
1000
,
0100
0000
0000
0000
0000
0000
0000
0000
0000
0000
0000
0000
1000
0000
0000
0000
0000
0000
0000
0000
0000
0000
0000
0000
0002
0003
0000
0000
0000
0000
0000
0000
0000
0000
0000
0000
0100
0000
0000
0000
0000
0000
0000
0000
0000
0000
0000
0000
1000
0000
0000
0000
0000
0000
0000
0000
0000
0000
0000
0000
0100
0000
0000
0000
0000
0000
0000
0000
0000
0000
0000
0000
0001
0000
0000
0000
0000
0000
0000
0000
0000
0000
0000
0000
0000
0000
0000
0000
0000
0000
0000
0000
0000
0000
0000
0000
0110
0000
0000
0000
0000
0000
0000
0000
0000
0000
0000
0000
0000
0000
0000
0000
0000
0000
0000
0000
0000
0000
0000
0000
1001
0000
0000
0000
0000
0000
0000
0000
0000
0000
0000
0000
0000
0000
0000
0000
0000
0000
0000
0000
0000
0000
0000
0000
0000
0000
0000
0000
0000
0000
0000
0000
0000
0000
0000
0000
0000
0000
0000
0000
0000
0000
0000
0000
0000
0000
0000
0000
0001
0000
0000
0000
0000
0000
0000
0000
0000
0000
0000
0000
0000
0000
0000
0000
0000
0000
0000
0000
0000
0000
0000
0000
,
1000
0100
1000
0000
0100
0000
0001
0000
0100
0000
1000
0000
0000
0000
1000
0000
,
0001
0100
0001
0000
1000
0100
1000
0000
0001
0000
0100
0010
0100
0010
1000
0010
,
1000
0010
0100
0010
0100
0010
0001
0010
0001
0010
0100
0000
0001
0000
0010
0000
,
0100
1000
0000
0110
0000
1001
0000
0001
,
1000
0100
1000
0001
0100
0001
1000
0000
0001
0000
1001
0000
0000
0000
1000
0000
,
0001
0100
0001
1000
0100
1000
0001
0000
1000
0000
0001
0100
0001
0100
1000
0001
,
0010
1000
0001
0100
0001
0100
1000
0001
0010
0000
1000
0000
0100
0000
0010
0000
,
0001
1000
0000
0110
0000
1001
0000
0010
,
1000
0100
0010
0100
1000
0100
0010
0000
0100
0000
1001
0000
0000
0000
0010
0000
,
0001
0100
0010
0100
0001
0100
0010
0000
0100
0000
0001
0000
1000
0000
0100
0000
,
0001
0000
0100
1000
0100
1000
0001
0100
1000
0000
0100
0000
0001
0000
0010
0000
,
1000
0001
0000
0110
0000
1001
0000
1000
,
0100
0001
0100
0010
0100
0001
0100
0000
1000
0000
1001
0000
0000
0000
0001
0000
,
0100
0010
0100
1000
0100
0010
0100
0000
1000
0000
0100
0000
0001
0000
0010
0000
,
0100
0000
1000
0100
0010
0100
1000
0001
0010
0100
1000
0000
0010
0000
0100
0000
,
0001
1000
0000
1001
0000
1000
1000
1000
,
0001
0010
0001
0000
0011
0000
1100
0000
0000
0000
0001
0000
0001
0000
0001
0000
,
1000
0010
1000
0000
1010
0000
0101
0000
0000
0000
1000
0000
1000
0000
1000
0000
,
0010
0100
0010
0000
0110
0000
1001
0000
0000
0001
0100
1000
0100
0001
0100
1000
,
0100
0000
0000
0001
0000
0000
0000
0000
0000
0000
0000
0000
0000
0000
0000
0000
0001
0000
0000
0000
0100
0000
0000
0000
0001
0000
0000
0000
1000
0000
0000
0000
0000
0000
0000
0000
1000
0000
0000
0000
0100
0000
0000
0000
0010
0000
0000
0000
,
0100
1000
0000
0001
0100
0001
1000
0100
0000
0100
1000
0001
,
0010
0100
1000
0010
0001
1000
0100
0001
0000
0001
0010
0100
,
1000
0000
0010
0000
0000
0000
0000
0100
0000
0001
0000
1000
0000
0100
0000
0010
0000
0100
0000
1000
0000
0001
0000
1000
,
0000
0010
0000
0100
0000
0000
0000
0100
0000
0001
0000
1000
0000
0010
0000
0001
0000
0000
0000
0001
0000
0010
0000
1000
,
0000
0100
0000
0010
0000
0000
0000
0010
0000
0100
0000
1000
0000
0001
0000
0010
0000
0000
0000
0010
0000
0100
0000
1000
,
0000
0100
0000
0010
0000
0000
0000
0010
0000
0001
0000
0100
0000
0010
0000
1000
0000
0000
0000
1000
0000
0010
0000
0001
,
0000
0010
0000
0100
0000
0000
0000
0100
0000
0001
0000
0010
0000
1000
0000
0010
0000
0100
0000
1000
0000
0001
0000
0100
,
0000
0010
0000
1000
0000
0100
0000
1000
0000
0001
0000
0100
0000
0001
0000
1001
0000
0000
0000
0001
0000
0010
0000
0001
,
0000
1000
0000
0010
0000
0100
0000
0001
0000
1000
0000
0010
0000
1000
0000
0001
0000
0010
0000
0100
0000
1000
0000
0001
,
0000
0100
0000
0001
0000
1000
0000
0010
0000
0100
0000
0001
0000
0010
0000
1000
0000
0010
0000
0001
0000
1000
0000
0100
,
0000
0010
0000
0001
0000
1000
0000
0010
0000
0100
0000
0001
0000
0100
0000
1000
0000
0100
0000
0010
0000
1000
0000
0010
,
0000
0001
0000
1000
0000
0100
0000
0001
0000
0010
0000
0100
0000
1000
0000
1001
0000
0000
0000
1000
0000
0100
0000
1000
,
0000
0100
0000
0011
0000
0000
0000
0001
0000
0100
0000
0001
0000
0100
0000
1010
0000
0000
0000
0100
0000
0001
0000
0010
,
0000
0100
0000
0110
0000
0000
0000
0010
0000
0001
0000
0100
0000
1000
0000
0001
0000
0010
0000
0001
0000
1000
0000
0100
,
0000
0001
0000
0010
0000
1000
0000
0010
0000
0001
0000
0010
0000
0001
0000
1000
0000
0010
0000
0001
0000
1000
0000
0100
,
0000
0001
0000
0010
0000
0010
0000
0010
0000
0100
0000
0100
0000
0100
0000
1000
0000
0000
0100
0000
0000
0011
0000
0000
,
0001
0100
1010
1000
0010
0101
0001
0010
,
1100
0001
0100
1010
0100
0001
1100
0010
,
1000
0000
0011
0000
0100
0000
0010
0100
0010
0100
0001
0000
0001
0010
0001
0010
,
0100
0000
0100
1000
0100
1000
0010
0000
0010
0100
0010
0100
0001
0000
0001
0010
,
0001
0010
0100
0000
0100
1000
0100
1000
0001
0000
0001
0100
0001
0100
1000
0000
,
1000
0000
0000
0000
0000
0000
0000
0000
0000
0000
0000
0000
0100
0000
0000
0000
0000
0000
0000
0000
0000
0000
0000
0000
1000
0000
0000
0000
0000
0000
0000
0000
0000
0000
0000
0000
0100
0000
0000
0000
0000
0000
0000
0000
0000
0000
0000
0000
0002
0003
0000
0000
0000
0000
0000
0000
0000
0000
0000
0000
0000
0000
0000
0000
0000
0000
0000
0000
0000
0000
0000
0000
1000
0000
0000
0000
0000
0000
0000
0000
0000
0000
0000
0000
0000
0000
0000
0000
0000
0000
0000
0000
0000
0000
0000
0000
0000
0000
0000
0000
0000
0000
0000
0000
0000
0000
0000
0000
0000
0000
0000
0000
0000
0000
0000
0000
0000
0000
0000
0000
0001
0000
0000
0000
0000
0000
0000
0000
0000
0000
0000
0000
0000
0000
0000
0000
0000
0000
0000
0000
0000
0000
0000
0000
0001
0000
0000
0000
0000
0000
0000
0000
0000
0000
0000
0000
0000
0000
0000
0000
0000
0000
0000
0000
0000
0000
0000
0000
0001
0000
0000
0000
0000
0000
0000
0000
0000
0000
0000
0000
0000
0000
0000
0000
0000
0000
0000
0000
0000
0000
0000
0000
,
0001
1000
0001
0000
1001
0000
1001
0000
0000
0000
1000
0000
1000
0000
1000
0000
,
1000
0001
1000
0000
1001
0000
1001
0000
0000
0000
0010
0000
0010
0000
0010
0000
,
0010
0100
0010
0000
0110
0000
0110
0000
0000
0000
0001
0000
0010
0000
0100
0000
,
1000
0001
0011
0011
1100
0110
0000
2002
,
0000
0000
0000
0000
,
0000
0000
0000
0000
,
0000
0000
0000
0000
,
0000
0000
0000
0000
,
0000
0000
0000
0000
,
0000
0000
0000
0000
,
0000
0000
0000
0000
,
0000
0000
0000
0000
,
0000
0000
0000
0000
,
0000
0000
0000
0000
,
0000
0000
0000
3003
;

//---------------dance-single - ----------------
#NOTES:
     dance-single:
     :
     Challenge:
     17:
     0.937377,1.112379,0.937377,0.241904,1.141484,868.000000,744.000000,124.000000,32.000000,1.000000,0.000000,0.937377,1.112379,0.937377,0.241904,1.141484,868.000000,744.000000,124.000000,32.000000,1.000000,0.000000:
// measure 0
0000
0000
0000
0000
,  // measure 1
0000
0000
0000
0000
,  // measure 2
0000
0000
0000
0000
,  // measure 3
0000
0000
0000
0000
,  // measure 4
0001
0000
0001
0000
0001
0000
1000
0010
0101
0000
1010
0000
0101
0000
0000
0000
,  // measure 5
1000
0000
1000
0000
1000
0000
0001
0010
1100
0000
0011
0000
1100
0000
0000
0000
,  // measure 6
0100
0000
0100
0000
0100
0000
0010
0100
1001
0000
0110
0000
1001
0000
0000
0000
,  // measure 7
0002
0003
0000
0000
0000
0000
0000
0000
0000
0000
0000
0000
0010
0000
0000
0000
0000
0000
0000
0000
0000
0000
0000
0000
0100
0000
0000
0000
0000
0000
0000
0000
0000
0000
0000
0000
1000
0000
0000
0000
0000
0000
0000
0000
0000
0000
0000
0000
0001
0000
0000
0000
0000
0000
0000
0000
0000
0000
0000
0000
0000
0000
0000
0000
0000
0000
0000
0000
0000
0000
0000
0000
2000
0000
0000
0000
0000
0000
0000
0000
0000
0000
0000
0000
0000
0000
0000
0000
0000
0000
0000
0000
0000
0000
0000
0000
3100
0000
0000
0000
0000
0000
0000
0000
0000
0000
0000
0000
0000
0000
0000
0000
0000
0000
0000
0000
0000
0000
0000
0000
1000
0000
0000
0000
0000
0000
0000
0000
0000
0000
0000
0000
0100
0000
0000
0000
0000
0000
0000
0000
0000
0000
0000
0000
0100
0000
0000
0000
0000
0000
0000
0000
0000
0000
0000
0000
0000
0000
0000
0000
0000
0000
0000
0000
0000
0000
0000
0000
0001
0000
0000
0000
0000
0000
0000
0000
0000
0000
0000
0000
0000
0000
0000
0000
0000
0000
0000
0000
0000
0000
0000
0000
,  // measure 8
0101
0000
1100
0000
0101
0000
1100
0000
1000
0000
0001
0100
0100
0000
1000
0000
,  // measure 9
1100
0000
0101
0000
1100
0000
0101
0000
0001
0000
1000
0100
0100
0000
0001
0000
,  // measure 10
1001
0110
1001
0110
0001
0100
0010
1000
,  // measure 11
0001
0000
0000
0000
0000
0000
1000
0000
0100
0000
1000
0000
0001
0000
0000
0000
0000
0000
0000
0000
0000
0000
0000
0000
1000
0000
0000
0000
0000
0000
1000
0000
0000
0100
0000
0000
0001
0000
0000
0000
0000
0000
0100
0000
0000
0000
0000
0000
,  // measure 12
1010
0000
1100
0000
1010
0000
1100
0000
0001
0000
0001
0100
1000
0000
0100
0000
,  // measure 13
0011
0000
0101
0000
0011
0000
0101
0000
0001
0000
1000
0100
0001
0000
1000
0000
,  // measure 14
0011
0000
0000
0000
0000
0000
0000
0000
0000
0000
0000
0000
0000
0000
0000
0000
0000
0000
0000
0000
0000
0000
0000
0000
0101
0000
0000
0000
0000
0000
0000
0000
0000
0000
0000
0000
0000
0000
0000
0000
0000
0000
0000
0000
0000
0000
0000
0000
1100
0000
0000
0000
0000
0000
0000
0000
0000
0000
0000
0000
0000
0000
0000
0000
0000
0000
0000
0000
0000
0000
0000
0000
1010
0000
0000
0000
0000
0000
0000
0000
0000
0000
0000
0000
0000
0000
0000
0000
0000
0000
0000
0000
0000
0000
0000
0000
0220
0330
0000
0000
0000
0000
0000
0000
0000
0000
0000
0000
0000
0000
0000
0000
0000
0000
0000
0000
0000
0000
0000
0000
2002
3003
0000
0000
0000
0000
0000
0000
0000
0000
0000
0000
0000
0000
0000
0000
0000
0000
0000
0000
0000
0000
0000
0000
0220
0330
0000
0000
0000
0000
0000
0000
0000
0000
0000
0000
0000
0000
0000
0000
0000
0000
0000
0000
0000
0000
0000
0000
2002
0000
0000
0000
0000
0000
0000
0000
0000
0000
0000
0000
0000
0000
0000
0000
0000
0000
0000
0000
0000
0000
0000
0000
,  // measure 15
3003
0000
0100
0000
0001
0010
1000
0000
0001
0000
0100
0000
0010
0000
0100
0000
,  // measure 16
1000
0000
0001
0000
0100
0000
1000
0000
0100
0000
0001
0000
0010
0100
0010
1000
,  // measure 17
0010
0001
0010
0000
0100
1000
0010
0000
0010
1000
0100
0000
0100
1000
0010
0100
,  // measure 18
0001
0010
0100
0000
0010
0001
0100
0000
0100
0001
0010
0000
0010
0001
0100
0010
,  // measure 19
1000
0100
0010
0000
0100
1000
0001
0000
0001
1000
0100
0000
0100
1000
0001
0100
,  // measure 20
0001
1000
0100
0000
0010
0001
1000
0000
1000
0001
0010
0000
0010
0001
1000
0100
,  // measure 21
1000
0001
0010
0000
0100
1000
0010
0000
0010
1000
0001
0000
0001
0100
0010
0001
,  // measure 22
0010
1000
0100
0000
0010
0001
0100
0000
0100
0001
1000
0000
1000
0100
0010
1000
,  // measure 23
0010
0001
0010
0100
1000
0010
0100
1000
0100
1000
0100
0001
0010
1000
0001
0100
,  // measure 24
1000
0000
0000
0000
0000
0000
0000
0000
0000
0000
0000
0000
0010
0000
0000
0000
0000
0000
0000
0000
0000
0000
0000
0000
0220
0330
0000
0000
0000
0000
0000
0000
0000
0000
0000
0000
0100
0000
0000
0000
0000
0000
0000
0000
0000
0000
0000
0000
0001
0000
0000
0000
0000
0000
0000
0000
0000
0000
0000
0000
1000
0000
0000
0000
0000
0000
0000
0000
0000
0000
0000
0000
0001
0000
0000
0000
0000
0000
0000
0000
0000
0000
0000
0000
0010
0000
0000
0000
0100
0000
0000
0000
0010
0000
0000
0000
0100
0000
0000
0000
0000
0000
0000
0000
0000
0000
0000
0000
0000
0000
0000
0000
0000
0000
0000
0000
0000
0000
0000
0000
0210
0000
0000
0000
0000
0000
0000
0000
0000
0000
0000
0000
0000
0000
0000
0000
0000
0000
0000
0000
0000
0000
0000
0000
0000
0000
0000
0000
0000
0000
0000
0000
0000
0000
0000
0000
0000
0000
0000
0000
0000
0000
0000
0000
0000
0000
0000
0000
0310
0000
0000
0000
0000
0000
0000
0000
0000
0000
0000
0000
0000
0000
0000
0000
0000
0000
0000
0000
0000
0000
0000
0000
,  // measure 25
0001
0100
0100
0000
1000
0100
0100
0000
0001
0000
2001
0000
0000
0000
3010
0000
,  // measure 26
0100
0000
0001
0000
1000
0000
0001
0000
0000
0000
0000
0000
0010
0000
0000
0100
0000
0000
0010
0000
0000
0000
0000
0000
1000
0000
0000
0000
0000
0000
0010
0000
0000
0001
0000
0000
0100
0000
0000
0100
0000
0000
1000
0000
0000
0100
0000
0000
,  // measure 27
1000
0001
1000
0010
0010
0001
0010
0001
1000
0001
0100
0000
0010
0000
0100
0000
,  // measure 28
0001
0000
0000
1000
0000
0000
0001
0010
0100
1000
0000
0000
0000
0000
0000
1002
0000
0000
0000
0000
0000
1003
0000
0000
,  // measure 29
0010
0100
0100
0010
0100
0100
0010
1000
0001
0000
2001
0000
0000
0000
3001
0000
,  // measure 30
0010
0100
0100
0010
0100
0100
0010
0001
1000
0000
0001
0100
0100
1000
0010
0010
,  // measure 31
0001
0100
0100
1000
0010
0010
0001
0100
1000
0000
0100
0000
0001
0000
0010
0000
,  // measure 32
1000
0000
0000
0001
0000
0000
0100
1000
0010
0100
0000
0000
0000
0000
0000
0210
0000
0000
0000
0000
0000
0310
0000
0000
,  // measure 33
1000
0010
0001
1000
0100
0100
0010
0000
0100
0000
0210
0000
0000
0000
0310
0000
,  // measure 34
0001
0010
1000
0001
0100
0100
0010
0000
0100
0000
1010
0000
0101
0000
1010
0000
,  // measure 35
0101
0000
0001
0010
0100
1000
0100
0100
0200
0000
0010
0000
0001
0000
0010
0000
,  // measure 36
1000
0000
0000
0310
0000
0000
0010
0001
0100
0020
0000
0000
0030
0000
0000
0210
0000
0000
0000
0000
0000
2300
0000
0000
,  // measure 37
3100
0001
0010
1000
0001
0100
0200
0000
0310
0000
0120
0000
0000
0000
0230
0000
,  // measure 38
0310
1000
0100
0001
1000
0010
0020
0000
0130
0000
1010
0000
1100
0000
0011
0000
,  // measure 39
0101
0000
0001
1000
0001
1000
0100
0100
0100
0200
0001
0000
0010
0000
1000
0000
,  // measure 40
0010
0000
0000
0301
0000
0000
0001
1000
0001
1000
0000
0000
0000
0000
0000
1000
0000
0000
1000
0000
0000
1000
0000
0000
,  // measure 41
0001
0010
1100
0000
0011
0000
1100
0000
0000
0000
0001
0000
0001
0000
0001
0000
,  // measure 42
1000
0010
0101
0000
1010
0000
0101
0000
0000
0000
0100
0000
0100
0000
0100
0000
,  // measure 43
0001
0000
0000
1000
0000
0000
0110
0000
0000
0000
0000
0000
1001
0000
0000
0000
0000
0000
0110
0000
0000
0000
0000
0000
0000
0000
0000
0000
0001
0000
1000
0000
0100
0000
1000
0000
0001
0000
1000
0000
0100
0000
0010
0000
0001
0000
1000
0000
,  // measure 44
0100
1000
0001
0000
0000
0000
0000
0000
0100
0000
0100
0000
0100
0000
1000
0000
0010
0000
0100
0001
0100
0000
0010
0000
,  // measure 45
1000
0000
0100
0000
0010
0000
0001
1000
0001
0000
0100
0000
0010
0000
0100
0000
0010
0000
1000
0100
1000
0000
0001
0000
,  // measure 46
0010
0000
0110
0000
0000
0000
0010
0100
1000
0000
0010
0000
0100
0000
0001
0000
1000
0000
0100
0000
0010
0000
0001
0000
,  // measure 47
0100
0000
0110
0000
0000
0000
0000
0100
0010
0100
0000
0001
0000
1100
0000
0010
0000
0010
0000
0100
0010
0100
0000
0010
,  // measure 48
0000
0110
0000
0110
0000
0000
0000
0001
1000
0010
0000
0100
0000
0101
0000
1010
0000
0001
0000
0010
0100
0010
0000
1000
,  // measure 49
0000
0010
0000
0011
0000
0000
0000
0001
0010
0100
0000
1000
0000
0001
0000
1000
0000
0010
0000
0100
0001
0100
0000
0001
,  // measure 50
0000
0100
0000
1010
0000
0000
0000
0010
0100
0001
0000
1000
0000
0010
0000
0100
0000
0010
0000
1000
0001
1000
0000
0100
,  // measure 51
0000
0010
0000
1100
0000
0000
0000
0010
0001
0010
0000
0100
0000
1000
0000
0010
0000
0001
0000
0010
1000
0100
0000
0100
,  // measure 52
0000
0010
0000
0011
0000
1100
0000
1100
0000
1010
0000
0101
0000
0101
0000
1001
0000
1000
0000
0001
1000
0001
0000
0010
,  // measure 53
0000
0100
0000
0100
0000
0010
0000
1000
0100
1000
0000
0010
0000
0100
0000
0100
0000
0010
0000
0001
1000
0001
0000
0100
,  // measure 54
0000
0010
0000
0010
0000
0100
0000
1000
0010
1000
0000
0100
0000
0010
0000
0010
0000
0100
0000
0010
1000
0001
0000
0010
,  // measure 55
0000
0100
0000
0100
0000
1000
0000
0100
0001
0010
0000
0100
0000
0100
0000
0010
0000
1000
0000
0001
0010
0100
0000
0001
,  // measure 56
0000
0100
0000
0100
0000
1000
0000
0001
0010
0100
0000
1000
0000
0100
0000
0100
0000
0001
0000
1000
0010
0001
0000
1000
,  // measure 57
0000
0100
0000
0100
0000
1000
0000
0001
0010
1000
0000
0001
0000
0100
0000
0100
0000
1000
0000
0100
0001
1000
0000
0001
,  // measure 58
0000
0100
0000
0100
0000
1000
0000
0001
0010
0100
0000
1000
0000
0100
0000
0100
0000
1000
0000
0001
0010
0100
0000
1000
,  // measure 59
0000
0100
0000
0100
0000
0010
0000
0100
0010
1000
0000
0001
0000
0100
0000
0100
0000
1000
0000
0001
1000
0100
0000
0110
,  // measure 60
0000
0110
0000
0010
0000
0101
0000
0101
0000
1010
0000
1100
0000
1100
0000
0011
0000
0000
0101
0000
0000
1100
0000
0000
,  // measure 61
1000
1100
1010
0010
1010
0011
0001
0011
,  // measure 62
0101
0100
0101
0011
0010
0011
1010
1000
,  // measure 63
1010
0000
1100
0000
0100
0000
0001
0100
0001
0100
1100
0000
0100
1000
0100
1000
,  // measure 64
1010
0000
1000
0010
1000
0010
0011
0000
0010
0001
0010
0001
0101
0000
0001
0100
,  // measure 65
0001
0100
1100
0000
1000
0100
1000
0100
0101
0000
0100
0001
0100
0001
0011
0000
,  // measure 66
0001
0000
0000
0000
0000
0000
0000
0000
0000
0000
0000
0000
0010
0000
0000
0000
0000
0000
0000
0000
0000
0000
0000
0000
0001
0000
0000
0000
0000
0000
0000
0000
0000
0000
0000
0000
0010
0000
0000
0000
0000
0000
0000
0000
0000
0000
0000
0000
2002
3003
0000
0000
0000
0000
0000
0000
0000
0000
0000
0000
0000
0000
0000
0000
0000
0000
0000
0000
0000
0000
0000
0000
0010
0000
0000
0000
0000
0000
0000
0000
0000
0000
0000
0000
0000
0000
0000
0000
0000
0000
0000
0000
0000
0000
0000
0000
0000
0000
0000
0000
0000
0000
0000
0000
0000
0000
0000
0000
0000
0000
0000
0000
0000
0000
0000
0000
0000
0000
0000
0000
1000
0000
0000
0000
0000
0000
0000
0000
0000
0000
0000
0000
0000
0000
0000
0000
0000
0000
0000
0000
0000
0000
0000
0000
1000
0000
0000
0000
0000
0000
0000
0000
0000
0000
0000
0000
0000
0000
0000
0000
0000
0000
0000
0000
0000
0000
0000
0000
1000
0000
0000
0000
0000
0000
0000
0000
0000
0000
0000
0000
0000
0000
0000
0000
0000
0000
0000
0000
0000
0000
0000
0000
,  // measure 67
1000
0100
1100
0000
1010
0000
1100
0000
0000
0000
0001
0000
0001
0000
0001
0000
,  // measure 68
0001
0100
0101
0000
0011
0000
0101
0000
0000
0000
0010
0000
0010
0000
0010
0000
,  // measure 69
0010
0100
0110
0000
1001
0000
0110
0000
0000
0000
0001
0000
0010
0000
0100
0000
,  // measure 70
1000
0001
0011
0011
1100
0110
0000
2002
,  // measure 71
0000
0000
0000
0000
,  // measure 72
0000
0000
0000
0000
,  // measure 73
0000
0000
0000
0000
,  // measure 74
0000
0000
0000
0000
,  // measure 75
0000
0000
0000
0000
,  // measure 76
0000
0000
0000
0000
0000
0000
0000
0000
0000
0000
0000
0000
0000
0000
0000
0000
0000
0000
0000
0000
0000
0000
0000
0000
3000
M000
2000
0000
0000
0000
0000
0000
,  // measure 77
0000
0000
0000
0000
,  // measure 78
0000
0000
0000
0000
,  // measure 79
0000
0000
0000
0000
,  // measure 80
0000
0000
0000
0000
,  // measure 81
0000
0000
0000
3003
;
