#TITLE:にゃん酷なにゃんこのテーゼ;
#SUBTITLE:;
#ARTIST:高橋洋子;
#TITLETRANSLIT:Nyankoku na Nyanko no Thesis;
#SUBTITLETRANSLIT:;
#ARTISTTRANSLIT:Takahashi Yoko;
#GENRE:ANIME;
#CREDIT:;
#MUSIC:Nyankoku na Nyanko no Thesis.ogg;
#BANNER:Nyankoku na Nyanko no Thesis.png;
#BACKGROUND:Nyankoku na Nyanko no Thesis-bg.png;
#CDTITLE:;
#SAMPLESTART:66.899;
#SAMPLELENGTH:14.956;
#SELECTABLE:YES;
#OFFSET:2.126;
#BPMS:0.000=81.000
,20.000=128.380
;
#STOPS:;
#LASTBEATHINT:1.531469;
#BGCHANGES:3.000=Nyankoku na Nyanko no Thesis.avi=1.000=0=0=0=StretchNoLoop====,
99999.000=-nosongbg-=1.000=0=0=0=StretchNoLoop====
;
#FGCHANGES:;

//--------------- dance-single - ----------------
#NOTES:
     dance-single:
     :
     Hard:
     13:
     0,0,0,0,0:
0000
0000
0000
0000
,
1002
0000
0023
0000
,
0230
0000
0320
0000
,
0032
0000
2003
0000
,
3200
0000
0320
0000
,
0000
0000
0000
0000
0000
0000
0000
0000
0031
1000
0001
1000
0100
0000
0010
0001
,
0100
0000
0010
0000
1010
0000
1000
0000
1002
0000
0000
0100
0000
0000
0023
0000
,
0100
0000
0130
0000
1000
0000
0001
0000
1000
0010
0000
0110
0000
0000
0100
0000
,
0002
0000
0010
0000
0023
0000
0100
0000
0230
0000
0000
0001
0000
0000
1300
0000
,
1010
0000
1010
0000
0100
0000
0001
0000
0110
0000
0000
1001
0000
0000
0100
0001
,
1000
0100
1000
0100
0001
0100
0001
0100
,
0010
0001
0010
0001
0100
1000
0100
1000
,
0101
0000
0000
1010
0000
0000
0100
0000
0001
0000
0000
0011
0000
0000
0100
0000
,
1000
0000
0000
1010
0000
0000
0100
0000
0001
0000
1000
0000
0001
0000
0010
0100
,
0020
0000
0000
1000
0000
0000
0001
0000
0031
0000
0100
0000
0010
0000
0100
0001
,
2000
0000
0000
0001
0000
0000
0010
0000
3010
0000
0100
0000
0001
0000
1000
0000
,
0002
0000
0000
0203
0000
0000
2300
0000
3200
0000
0000
0000
0302
0000
0000
0000
,
0023
0000
0000
0100
0230
0000
1300
0001
,
1000
0010
1000
0010
0100
0001
0100
0001
,
0010
0001
0010
0001
1000
0100
1000
0100
,
0110
0000
0000
0101
0000
0000
0010
0000
1000
0000
0000
1100
0000
0000
0010
0000
,
0001
0000
0000
1001
0000
0000
0001
0000
0100
0000
0010
0000
0100
0000
0001
0010
,
0002
0000
0000
1000
0000
0000
0100
0000
0103
0000
0010
0000
1000
0000
0100
0010
,
0200
0000
0000
0001
0000
0000
1000
0000
1300
0000
0001
0000
0100
0000
0010
0000
,
1010
0000
0000
0110
0000
0000
1000
0000
0001
0000
0000
0011
0000
0000
1000
0000
,
1100
0000
0100
0000
0110
0000
0010
0000
0011
0000
0001
0000
1001
0000
1000
0010
,
0100
0000
0001
0010
0000
0001
1000
0000
0010
0000
1000
0010
0000
1000
0001
0000
,
0010
0000
0001
0010
0000
0010
0100
0000
1000
0000
1000
0010
0000
0010
0100
0000
,
1001
0000
1000
0100
0000
0001
0100
0000
0110
0000
1000
0010
0000
0001
0010
0000
,
0110
0100
1100
0100
0101
0001
1001
1000
,
1100
0100
0001
0100
1010
0010
0001
0010
,
1010
0010
1000
0100
0110
0010
0001
0100
,
1001
0000
0000
0101
0000
0000
1100
0000
1010
0000
0000
1100
0000
0000
0011
0000
,
0101
0000
0001
0100
0001
0000
1000
0100
1000
0000
0001
0010
0000
0100
1000
0000
,
1010
0000
0100
0001
0010
0000
0100
1000
0001
0000
0100
0001
0000
1000
0001
0000
,
0010
0000
0010
0000
0100
0000
0010
0000
0100
1000
0000
1000
0001
0000
0100
1000
,
0100
0000
0001
0000
0010
0000
0010
0000
0100
0000
1000
0010
0000
0100
0001
0000
,
1000
0000
1000
0000
0001
0000
1000
0000
0010
0100
0000
0100
0001
1000
0001
0100
,
0010
0000
1000
0000
1001
0000
1000
0000
0100
0000
0001
0100
0000
0100
1000
0000
,
0010
0000
0010
0000
0100
0000
0010
0000
0100
0001
0000
1000
0001
1000
0001
0010
,
0100
0000
1000
0000
1100
0000
1000
0000
0001
0000
0100
0001
0000
1000
0001
0000
,
1010
0000
1010
0000
0100
0000
0001
0000
1001
0000
0000
1001
0000
0000
1000
0010
,
1000
0000
0010
0000
0100
0000
0001
0000
1010
0000
1000
0010
0000
1000
0100
0000
,
0110
0000
0010
0000
0001
0000
0100
0000
1000
0100
0000
0100
0001
0010
0100
1000
,
1001
0000
0001
0000
1010
0000
0100
0000
0100
0001
0010
1000
0010
0100
1000
0010
,
0110
0000
0110
0000
1010
0000
0101
0000
0110
0000
0000
1001
0000
0000
0000
0000
;

//--------------- dance-single - ----------------
#NOTES:
     dance-single:
     :
     Challenge:
     16:
     0.883292,0.882774,1.384744,0.085876,0.805084,576,447,129,8,0,0,0.883292,0.882774,1.384744,0.085876,0.805084,576,447,129,8,0,0:
0000
0000
0000
0000
,
1001
0000
0011
0000
,
1100
0000
0110
0000
,
0011
0000
1100
0000
,
0110
0000
1001
0000
,
0000
0000
0000
0000
0000
0000
0000
0000
0001
0100
0001
0100
0010
0000
1000
0001
,
0110
0000
1000
0000
1100
0000
0100
0010
0011
0000
0001
0100
0000
0001
1000
0000
,
1100
0000
1100
0000
0011
0000
1100
0000
0011
1000
0000
1010
0100
0000
0100
0001
,
0101
0000
0010
0000
0110
0000
1000
0100
1000
0001
0100
0001
0010
0000
1100
0000
,
0011
0000
0011
0000
1100
0000
0011
0000
0110
1000
0100
1000
0010
0100
0010
0100
,
0001
0000
0100
0000
1000
0000
0100
0001
0010
0000
0100
1000
0001
0000
0010
0000
,
0110
0000
0100
1000
0000
0100
0010
0000
0010
0001
0010
0100
1000
0000
1000
0010
,
0100
0000
0001
0010
0000
0001
1000
0000
1100
0000
1000
0010
0000
1000
0001
0000
,
0011
0000
0000
0000
0000
0000
0001
0000
0000
0010
0000
0000
0000
0000
0000
1000
0000
0000
0010
0000
0000
0000
0000
0000
0110
0000
0000
0000
0000
0000
0100
0000
0000
1000
0000
0000
0010
0000
0000
0000
0000
0000
0100
0000
0001
0000
0100
0000
,
0010
0000
0010
1000
0000
1000
0001
0000
0001
0010
0001
0010
0100
0000
0010
0001
,
1000
0000
1000
0010
0000
0001
0010
0000
0110
0000
0010
1000
0100
0000
0010
0000
,
0011
0000
0001
0100
0000
0100
1000
0000
1000
0100
0010
1000
0100
0000
0010
0000
,
1100
0000
0000
0000
0000
0000
0001
0000
0000
0010
0000
0000
0100
0000
0000
0000
0000
0000
1000
0000
0000
0000
0000
0000
1200
0000
0000
0000
0000
0000
0010
0000
0000
0000
0000
0000
1300
0000
0000
0000
0000
0000
1000
0000
0100
0000
0010
0000
,
0011
0000
0001
0000
0100
0000
0010
0000
0100
1000
0100
0001
0010
0000
0100
0000
,
0010
0000
0001
1100
0000
0110
0001
0000
0011
0000
0010
0001
1010
0000
0010
0000
,
0110
0000
0100
0001
0000
0001
0010
0000
0110
0000
0100
1000
0000
1000
0010
0000
,
0110
0000
0000
0000
0000
0000
0100
0000
0000
0001
0000
0000
0000
0000
0000
0001
0000
0000
1000
0000
0000
0000
0000
0000
2001
0000
0000
0000
0000
0000
0100
0000
0000
0000
0000
0000
3100
0000
0000
0000
0000
0000
0100
0000
1000
0000
0001
0000
,
0200
0000
0000
0000
0000
0000
0001
0000
0000
0001
0000
0000
0000
0000
0000
1000
0000
0000
1300
0000
0000
0000
0000
0000
0100
0000
0000
0001
0000
0000
0010
0000
0000
0100
0000
0000
1000
0000
0000
0000
0000
0000
0010
0000
0100
0000
0001
0000
,
0020
0000
1000
1000
0000
0001
0031
0000
0010
0001
0100
0010
0001
0000
0011
0000
,
1010
0000
1000
0110
0000
0001
0110
0000
1010
0000
0110
0001
0000
0110
1000
0000
,
0011
0000
0000
0000
0000
0000
0100
0000
0000
0000
0000
0000
1010
0000
0000
0000
0000
0000
0001
0000
0000
0000
0000
0000
0110
0000
0000
0000
0000
0000
1000
0000
0000
0000
0000
0000
1001
0000
0000
0001
0000
0000
0010
0000
0100
0000
0010
0000
,
0001
0000
1000
0100
0000
1000
0001
0000
0011
0000
0001
0100
0000
0001
1000
0000
,
1010
0000
0010
1000
0000
0010
0100
0000
0100
0001
1000
0100
0010
0000
0110
0000
,
1001
0000
1000
0010
0002
0000
2003
0000
3002
0000
1003
0100
0001
0000
0010
0000
,
0110
0000
0010
0000
0011
0000
0001
0100
0110
0000
0010
0000
1010
0000
1000
0100
,
0110
0000
0010
0000
0011
0000
0001
0100
1000
0001
0010
0000
1010
0000
0010
1000
,
0100
0000
0001
0000
0101
0000
0001
0100
1000
0000
1000
0010
0000
0010
0100
0001
,
0011
0000
0001
0110
0000
0010
1100
0000
1010
0000
0110
0001
0000
0101
1000
0010
,
1001
0000
0000
0000
0000
0000
0001
0000
0010
0000
0001
0000
0200
0000
0000
0000
0000
0000
0310
0000
1000
0000
0100
0000
0010
0000
0000
0000
0000
0000
0010
0000
0000
0001
0000
0000
0000
0000
0000
0001
0000
0000
1000
0000
0000
0000
0000
0000
,
1010
0000
0000
0000
0000
0000
0100
0000
0000
0001
0000
0000
0101
0000
0000
0000
0000
0000
0001
0000
0010
0000
0100
0000
1000
0000
0000
0000
0000
0000
1010
0000
0000
0100
0000
0000
0000
0000
0000
0110
0000
0000
0001
0000
0000
0000
0000
0000
,
0011
0000
0011
0000
1010
0000
0101
0000
0110
1000
0000
1000
0100
0001
0100
0010
,
0110
0000
1000
0000
1100
0000
0001
0000
0101
0100
0001
0010
1010
0000
1000
0000
,
1010
0000
0000
0000
0000
0000
1010
0000
0000
0000
0000
0000
0101
0000
0000
0000
0000
0000
0011
0000
0000
0000
0000
0000
0110
0000
0000
1000
0000
0000
0000
0000
0000
1000
0000
0000
0100
0000
0000
0010
0000
0000
0001
0000
1000
0000
0100
0000
,
0011
0000
0000
0000
0000
0000
0010
0000
0000
0000
0000
0000
1001
0000
0000
0000
0000
0000
0100
0000
0000
0000
0000
0000
1010
0000
0000
0000
0000
0000
0100
0000
0000
0001
0000
0000
0000
0000
0000
0001
0000
0000
0100
0000
0010
0000
1000
0000
,
1010
0000
0000
0000
0000
0000
1010
0000
0000
0000
0000
0000
0011
0000
0000
0000
0000
0000
1010
0000
0000
0000
0000
0000
0011
0000
0000
0100
0000
0000
0000
0000
0000
0010
0000
0000
0100
0000
0000
1000
0000
0000
0010
0000
0100
0000
0001
0000
,
1001
0000
0010
0000
0110
0000
1000
0000
1010
0000
0010
1001
0000
0100
1001
0000
,
0011
0000
0011
0000
1100
0000
0011
0000
1001
0100
0001
0010
0100
1000
1010
0110
,
0101
0000
0010
0000
1010
0000
0100
0001
0011
0000
0110
1000
0000
1010
0100
0000
,
0101
0000
0101
0000
1010
0000
0101
0000
0110
1000
0000
1000
0100
0010
1000
0010
,
0011
0000
0000
0000
0000
0000
0001
0000
0000
0000
0000
0000
1010
0000
0000
0000
0000
0000
1000
0000
0000
0000
0000
0000
0011
0000
0000
0001
0000
0000
0010
0000
0000
1000
0000
0000
0010
0000
0000
0000
0000
0000
0010
0000
0001
0000
0100
0000
,
1010
0000
1010
0000
0011
0000
0101
0000
0110
0000
0000
1001
0000
0000
0000
0000
;
