#TITLE:ノンブレス・オブリージュ;
#SUBTITLE:;
#ARTIST:ピノキオピー feat. 初音ミク;
#TITLETRANSLIT:Non-breath oblige;
#SUBTITLETRANSLIT:;
#ARTISTTRANSLIT:PinocchioP;
#GENRE:POP;
#CREDIT:;
#MUSIC:Non-breath oblige.ogg;
#BANNER:Non-breath oblige.png;
#BACKGROUND:Non-breath oblige-bg.png;
#CDTITLE:;
#SAMPLESTART:61.649;
#SAMPLELENGTH:12.973;
#SELECTABLE:YES;
#OFFSET:-0.027;
#BPMS:0.000=148.000;
#STOPS:;
#BGCHANGES:2.000=Non-breath oblige.avi=1.000=0=0=0=StretchNoLoop====,
99999.000=-nosongbg-=1.000=0=0=0=StretchNoLoop====
;
#FGCHANGES:;

//--------------- dance-single - ----------------
#NOTES:
     dance-single:
     :
     Easy:
     7:
     0,0,0,0,0:
0000
0000
0000
0000
,
0000
0000
0000
0000
,
0000
0000
0000
0000
,
0000
0000
0000
0000
,
0000
0000
0000
0000
,
0000
0000
0000
0000
,
1001
0001
0100
0010
,
1010
0000
1000
0000
0001
0100
0001
0000
,
1001
1000
0100
0010
,
0110
0000
0100
0000
1000
0001
1000
0000
,
0101
0001
0100
0010
,
1010
1000
0100
0010
,
0011
0001
1000
1000
,
1001
0001
0100
0010
,
0100
0000
0000
0001
0000
0000
0100
0000
,
0000
0010
0000
0000
0100
0000
0001
0000
,
1000
0000
0000
0100
0000
0000
1000
0000
,
0000
0001
0000
0000
0100
0000
0010
0000
,
0110
0100
0001
1000
,
1001
0001
0010
0100
,
1100
1000
0010
0100
,
0101
0001
0100
0001
,
1001
1000
0010
1000
,
1001
0001
0100
0001
,
1001
1000
0010
1000
,
1001
0001
0010
0100
,
1000
0010
0001
0010
,
1000
0100
0001
0100
,
1000
1000
0001
0001
,
0100
0110
0000
0100
,
1001
0010
0001
0100
,
0010
0000
1000
0001
0010
0000
0100
0000
,
1001
0010
0001
0100
,
0010
0000
1000
0001
0010
0000
0100
0000
,
1001
0001
1000
1000
,
0010
0010
0100
0100
,
0001
1000
0001
0000
,
0100
0010
1001
0000
,
0001
0000
0000
0100
0000
0000
0010
0000
,
0000
1000
0000
0000
0002
0000
0000
0000
,
0000
0000
1003
0000
,
1001
0000
0010
0001
,
1000
0000
0010
0010
,
1000
0001
1001
0000
,
1000
1000
0001
0001
,
1000
0001
0100
0010
,
0100
0000
0000
0001
0000
0000
1000
0000
,
0000
0100
0000
0000
2000
0000
0000
0000
,
0000
0000
3001
0000
,
0110
0000
1000
0100
,
0001
0001
1000
0010
,
0001
0001
1000
0000
,
0001
0100
0001
1000
,
0010
0000
1001
0000
,
0001
0100
0101
0000
,
1000
0100
0110
0000
,
0010
0000
1001
0000
,
0001
0100
0010
1000
,
0001
0000
1001
0000
,
0010
0100
0110
0000
,
1000
0000
1001
0000
,
0001
0010
0100
1000
,
0001
0000
1001
0000
,
0001
0010
1000
0010
,
0001
0000
1001
0000
,
1000
0010
0001
0010
,
1000
0000
1001
0000
,
0100
0001
0010
0100
,
1000
0000
0110
0000
,
2002
0000
0000
3003
,
1000
0001
0100
0000
,
0010
1000
0001
0000
,
0001
0010
0100
0000
,
1001
0000
0001
0100
,
1000
0000
1000
0100
,
0001
0000
1000
0000
,
0001
0010
0100
1000
,
0001
0000
1000
0001
,
1000
0000
0000
0000
;

//--------------- dance-single - ----------------
#NOTES:
     dance-single:
     :
     Medium:
     12:
     0,0,0,0,0:
0000
0000
0000
0000
,
0000
0000
0000
0000
,
0000
0000
0000
0000
,
0000
0000
0000
0000
,
0000
0000
0000
0000
,
0000
0000
0000
0000
,
1001
0000
1000
0000
0001
0010
0001
1000
,
0100
0000
0010
0000
0001
0100
0010
1000
,
0001
0000
0001
0000
1000
0001
0100
0001
,
1000
1000
0100
1001
,
1000
0100
0010
0000
0100
0010
0001
0000
,
1001
0000
1000
0010
1000
0000
0100
0000
,
1001
0000
0001
0100
0010
0000
1000
0000
,
0001
0010
0100
0010
0001
1000
0100
0010
,
0001
0000
1000
0010
0000
0100
0001
0000
,
1000
0001
0000
0010
0100
1000
0001
0000
,
1000
0010
0000
0100
0001
0000
0010
0100
,
0000
1000
0001
0100
0001
1000
0010
0000
,
0100
0001
0010
0000
0100
1000
0010
0000
,
0100
0000
0010
0000
1000
0001
1000
0000
,
0001
0010
0100
0000
0010
0100
1000
0000
,
0001
0100
0010
1000
0001
0100
0010
0000
,
1010
0000
0101
0000
0001
0010
0100
0000
,
1100
0000
0011
0000
0001
0100
0010
0000
,
1010
0000
0101
0000
0001
0010
0100
0000
,
1100
0000
0011
0000
0001
0100
1000
0001
,
0010
0000
0010
1000
0100
0000
0100
0000
,
0010
0000
0010
0001
1000
0000
1000
0000
,
0001
0000
0001
0100
0010
0000
0010
1000
,
0100
0010
0011
0000
0010
0000
0100
1000
,
0001
0000
1001
0000
0001
0100
0010
0000
,
0010
0100
0001
0010
0100
0000
0100
1000
,
0001
0000
1001
0000
0001
0100
0010
0000
,
0010
0100
0001
0010
0100
0000
1000
0000
,
0011
0001
1100
1000
,
0110
1001
1100
0101
,
1001
0000
0010
1000
0100
0000
0100
0010
,
0001
1000
0010
0100
0101
0000
0000
0000
,
0001
0000
0000
0101
0000
0000
1000
0000
0000
1100
0000
0000
0010
0000
0000
0011
,
0000
0000
1000
0000
0000
1100
0000
0000
0002
0000
0000
0000
0000
0000
0000
0000
,
0000
0000
0000
0000
1003
0000
0000
0100
,
0010
0000
0100
0000
0000
0000
0000
0000
0010
0000
0000
0001
0000
0000
1000
0000
,
2000
0000
0000
3001
0010
0100
1000
0001
,
0100
0000
0000
0110
0000
0000
0020
0000
0000
0000
0000
0000
0000
0000
0130
0000
,
0101
1100
0101
1100
,
1000
0100
0010
0000
0001
0000
1000
0000
,
0001
0100
0000
0100
0010
0000
0010
1000
,
0000
1000
0001
0000
0001
0020
0000
0000
,
0000
0000
0000
0130
2000
0000
0000
3010
,
0100
0000
0020
0000
0000
0000
0000
0000
1030
0000
0000
0100
0000
0000
1000
0000
,
0001
0000
0000
0001
0000
0000
0001
0000
0100
0000
0000
0100
0000
0000
0100
0000
,
0010
0000
0000
0010
0000
0000
0010
0000
1000
0000
0000
0000
0000
0000
1000
0000
,
0001
0000
0000
0100
0000
0000
0001
0000
1000
0000
0000
0100
0000
0000
1000
0000
,
0001
0000
0000
0000
0000
0000
1000
0000
1000
0000
0000
0010
0000
0000
0100
0000
,
0001
0010
0100
1000
0010
0100
0001
0010
,
0100
1000
0010
0100
0001
0010
0100
1000
,
0010
0100
0001
0010
0100
1000
0010
0100
,
0001
0010
0100
1000
0010
0100
0001
0010
,
0100
1000
0010
0100
0001
0010
0100
1000
,
0010
0100
0001
0010
0100
1000
0010
0100
,
0001
0010
0100
1000
0010
0100
0001
0010
,
0100
1000
0010
0100
0001
0010
0100
0000
,
1000
0100
0010
0001
0010
0100
1000
0100
,
0010
0001
0010
0100
1000
0100
0001
0100
,
1000
0010
0100
0001
0100
0010
1000
0010
,
0100
0001
0100
0010
1000
0010
0001
0010
,
1000
0100
0001
0100
1000
0100
0001
0100
,
1000
0010
0001
0010
1000
0010
0001
0010
,
1000
0100
0001
1000
0010
0001
1000
0010
,
0200
0000
0000
0000
,
0310
0000
0000
1010
0000
0000
0100
0000
0000
0101
0000
0000
0010
0000
0000
0011
,
0000
0000
0100
0000
0000
1100
0000
0000
2001
0000
0000
0000
0000
0000
0000
0000
,
0000
0000
0000
0000
3002
0000
0000
0013
,
0100
0000
0020
0000
0000
0000
0000
0000
0031
0000
0000
0010
0000
0000
0100
0000
,
1000
0000
0000
0001
0000
0000
1000
0000
0010
0000
0000
0100
0000
0000
0010
0000
,
0001
0000
0000
0010
0000
0000
1000
0000
0100
0000
0000
0000
0000
0000
0010
0000
,
0001
0000
0000
1000
0000
0000
0001
0000
0100
0000
0000
0010
0000
0000
2000
0000
,
0000
0000
0000
0000
0000
0000
3001
0000
1000
0000
0000
0001
0000
0000
0200
0000
,
0000
0000
0000
0000
,
0000
0000
0320
0030
;

//--------------- dance-single - ----------------
#NOTES:
     dance-single:
     :
     Hard:
     15:
     0,0,0,0,0:
0000
0000
0000
0000
,
0000
0000
0000
0000
,
0000
0000
0000
0000
,
0000
0000
0000
0000
,
0000
0000
0000
0000
,
0000
0000
0000
0000
,
0001
0000
0010
0000
0100
0000
0010
0000
0001
0000
1000
0100
1000
0000
0010
0000
,
0100
0000
0010
0000
1000
0000
0010
0000
0100
0000
0001
0010
0001
0000
0010
0000
,
0100
0000
1000
0000
0001
0000
0100
0000
0010
0000
0100
0001
1000
0000
0001
0000
,
0010
0000
0010
0000
0100
0000
0100
0000
1000
0000
0001
0100
0001
0000
1000
0100
,
1000
0000
0010
0000
0100
0000
0001
0000
0100
0000
1000
0100
0010
0000
0100
0001
,
1000
0000
0001
0000
0010
0000
0100
0000
1000
0000
0001
0010
0100
0000
0001
0100
,
0010
0000
0001
0000
1000
0000
0010
0000
0100
0000
0010
0100
1000
0000
0100
0001
,
0010
0000
0010
0000
0100
0000
0100
0000
1000
0001
0010
0100
1000
0000
0001
0000
,
0010
0100
1000
0001
0010
0100
0001
0010
,
0100
1000
0010
0100
1000
0010
0100
1000
,
0100
0001
1000
0100
0001
0100
0010
0001
,
1000
0010
0001
1000
0001
0100
1000
0010
,
1000
0000
0001
0000
0100
0010
0000
1000
0100
0000
0010
0001
1000
0000
0010
0000
,
0100
0000
0001
0000
1000
0000
0001
0000
0010
0100
0000
0010
0100
0000
0010
0001
,
1000
0010
0100
1000
0100
0001
0010
1000
,
0001
0000
0100
0000
1000
0000
0001
0010
0001
0000
0010
0000
0100
1000
0100
0000
,
1001
0000
0001
0000
0010
0000
0100
1000
0100
0000
0010
0000
0001
0010
0001
0000
,
1001
0000
1000
0000
0001
0000
1000
0010
1000
0000
0010
0000
0100
0001
0100
0000
,
1001
0000
1000
0000
0010
0000
0100
0001
0100
0000
0010
0000
1000
0010
1000
0000
,
1001
0000
0001
0000
1000
0000
0001
0010
0100
0000
0100
0000
1000
0000
1000
0000
,
0001
0000
0100
0000
0010
1000
0000
1000
0010
0000
1000
0000
0100
0000
0010
0000
,
0010
0000
0001
0000
1000
0001
0000
0001
0100
0000
0001
0000
0100
0000
0010
0000
,
1000
0000
1000
0000
0001
0010
0000
0010
0100
0000
0010
0000
0001
0000
1000
0000
,
0010
0000
0100
0000
0001
1000
0000
0000
0010
0000
0000
0000
0110
0000
2001
0000
,
0010
0010
0010
0010
0010
0010
0010
0010
,
0010
0010
0010
0010
3010
0000
0110
1002
,
0010
0010
0010
0010
0010
0010
0010
0010
,
0010
0010
0010
0010
0013
0000
1000
0010
,
1010
0000
1000
0000
0001
0000
0010
0000
0011
0000
0001
0000
1000
0100
0010
0000
,
0010
0001
1000
0000
1000
0010
0100
0000
1000
0000
0100
0000
0001
0000
0010
0000
,
0100
0000
1000
0000
0001
0100
0000
0100
0010
0000
0000
0000
0100
0000
0001
0000
,
1000
0000
0001
0000
0010
0100
0000
1000
0001
0000
0000
0000
0000
0000
0000
0000
,
0101
0000
0001
0010
0000
0000
1100
0000
1000
0010
0000
0000
0101
0000
0001
0010
,
0000
0000
1100
0000
1000
0010
0000
0100
0001
2000
0000
0000
0000
0000
0000
0000
,
0001
0000
0000
0010
3020
0000
0000
0130
,
0001
0000
1000
0000
0000
0000
0001
0000
0010
0000
0000
0100
0000
0000
1000
0000
,
0001
0000
0000
0001
0100
0001
0010
0100
,
1100
0000
0000
0110
0000
0000
1001
0000
0000
0000
0001
0000
0100
0000
0001
0000
,
1100
0000
0101
0000
1100
0000
0101
0010
,
1000
0000
0100
0000
0001
0000
0000
0000
0001
0000
0000
0100
1000
0000
0001
0000
,
1010
0000
1000
0100
0000
0000
0011
0000
0001
0100
0000
0000
1010
0000
1000
0100
,
0000
0000
0011
0000
0001
0100
0000
0010
1000
0002
0000
0000
0000
0000
0000
0000
,
1000
0000
0000
0010
0023
0000
0000
0130
,
1000
0000
0001
0000
0000
0000
0000
0000
0101
0000
0000
0001
0000
0000
1000
0000
,
1010
0000
0000
0010
0000
0000
1000
0000
1100
0000
0000
0100
0000
0000
0010
0000
,
0011
0000
0000
0001
0000
0000
1000
0000
1001
0000
0001
0000
0100
0000
0010
0000
,
1010
0101
0011
1100
,
0100
0000
0010
0000
0001
0000
1000
0000
0010
0000
0100
0000
0001
1000
0100
0010
,
0001
0000
1000
0100
0010
0000
0001
0000
1000
0010
0100
0000
0001
0000
1000
0100
,
0010
0000
0001
0000
0100
0010
1000
0000
0001
0000
0010
0100
1000
0000
0001
0000
,
0100
0010
1000
0000
0001
0000
0010
0100
1000
0000
0001
0000
0100
0010
1000
0000
,
0001
0000
0010
0100
1000
0000
0001
0000
0100
0010
1000
0000
0001
0000
0010
0100
,
1000
0000
0001
0000
0100
0010
1000
0000
0001
0000
0010
0100
1000
0000
0001
0000
,
0100
0010
1000
0000
0001
0000
0010
0100
1000
0000
0001
0000
0100
0010
1000
0000
,
0001
0000
0010
0100
1000
0000
0001
0000
0100
0010
1000
0000
0001
0000
0010
0100
,
1000
0000
0001
0000
0100
0010
1000
0000
0001
0000
0010
0100
1000
0000
0000
0000
,
0001
0000
0100
0001
0010
0000
0100
0000
0010
0001
0100
0000
0010
0000
0100
0001
,
0010
0000
0100
0000
0010
0001
0100
0000
1000
0000
0100
0001
1000
0000
1000
0000
,
0100
1000
0010
0000
0100
0000
0010
1000
0100
0000
0010
0000
0100
1000
0010
0000
,
0100
0000
0010
1000
0100
0000
0001
0000
0100
1000
0001
0000
0001
0000
0010
0100
,
1000
0000
0010
0000
0100
1000
0001
0000
0010
0000
0100
0001
1000
0000
1000
0000
,
0010
0100
0001
0000
0010
0000
0100
0001
1000
0000
0010
0000
0100
1000
0001
0000
,
0001
0000
1000
0010
0001
0000
0010
0000
1000
0100
0001
0000
1000
0000
0010
0001
,
0200
0000
0000
0000
,
0310
0000
1000
0100
0000
0000
0110
0000
0001
1000
0000
0000
1010
0000
0100
0001
,
0000
0000
0011
0000
0100
1000
0000
0010
0100
0002
0000
0000
0000
0000
0000
0000
,
0000
0000
0000
0000
0023
0000
0000
0130
,
1000
0000
0001
0000
0000
0000
0000
0000
0001
0000
0000
1000
0000
0000
0100
0000
,
0010
0000
0000
0001
0000
0000
1000
0000
0010
0000
0000
0100
0000
0000
0001
0000
,
1000
0000
0000
0001
0000
0000
0010
0000
0200
0000
0000
0000
0000
0000
0310
0000
,
0001
0000
0000
0001
0000
0000
0100
0000
0010
0000
0000
0010
0000
0000
2000
0000
,
0000
0000
0000
0000
0000
0000
3010
0000
0001
0000
0000
0010
0000
0000
2000
0000
,
0000
0000
0000
0000
,
0000
0000
3002
0003
;

//--------------- dance-single - ----------------
#NOTES:
     dance-single:
     :
     Challenge:
     17:
     0.849874,1.001061,0.106506,0.114114,1.144939,782,768,14,15,0,0,0.849874,1.001061,0.106506,0.114114,1.144939,782,768,14,15,0,0:
0000
0000
0000
0000
,
0000
0000
0000
0000
,
0000
0000
0000
0000
,
0000
0000
0000
0000
,
0000
0000
0000
0000
,
0000
0000
0000
0000
,
0001
0100
0010
0100
0000
0001
0010
0100
1000
0100
1000
0000
0001
0000
0100
0010
,
0100
0001
1000
0100
0000
0010
0001
1000
0001
0100
0010
0100
0001
1000
0100
0010
,
0001
0010
0100
1000
0001
0100
0001
0100
0010
0000
0100
0001
1000
0100
0010
0100
,
0010
0001
1000
0001
1000
0100
0010
0001
0010
0000
0100
0000
1000
0001
0100
0001
,
0100
0000
0010
1000
0001
0100
0010
1000
0001
1000
0001
0010
0100
1000
0001
0100
,
0010
1000
0000
0001
0010
0100
1000
0001
1000
0000
0010
0000
0100
0001
1000
0001
,
1000
0010
0000
0100
0001
0100
0010
0100
0001
0000
0010
0100
1000
0100
0010
0100
,
1000
0100
0010
0001
1000
0100
1000
0001
0100
0001
1000
0000
0001
0000
0100
0000
,
1000
0000
0100
0000
0001
0000
0010
0000
1000
0000
0001
0000
0100
0000
1000
0001
,
0010
0000
0100
0000
1000
0000
0010
0000
0100
0001
0100
0001
1000
0000
0010
0000
,
0001
1000
0100
1000
0001
0010
0100
0001
,
1000
0000
0100
0000
0001
0000
0100
0000
1000
0010
1000
0010
0100
0000
0001
0000
,
1000
0100
1000
0010
1000
0001
0000
1000
0100
1000
0001
0100
0010
0000
0100
0000
,
0001
0100
0000
0010
0000
0100
0001
1000
0100
0010
0001
1000
0100
0000
0010
0000
,
0001
0000
1000
0100
0010
0000
0001
0010
0100
0010
0100
0010
0001
0000
1000
0000
,
0001
0000
0100
0000
0010
1000
0001
1000
0100
0000
0010
0000
0001
0000
0010
0000
,
0110
0000
1000
0000
0001
0100
0010
0100
0001
0100
1000
0100
0001
0000
0100
0000
,
1001
0000
0100
0000
0001
0010
0100
0010
0001
0010
1000
0000
0010
0000
0001
0000
,
1001
0000
1000
0000
0001
0100
0010
0100
0001
0100
1000
0100
0001
0000
0100
0000
,
1001
0000
0100
0000
0001
0010
0100
1000
0001
0010
0100
0000
1000
0000
0001
0000
,
0101
0000
0100
0000
0010
0100
1000
0100
0010
0100
1000
0000
0100
0000
0001
0000
,
0110
0000
0100
0000
1000
0001
0010
0000
0100
0000
1000
0000
0100
0000
0010
0000
,
0110
0000
1000
0000
0001
0010
0100
0010
0001
0000
0100
0000
0010
0000
1000
0000
,
0110
0000
0100
0000
0001
2000
0000
0000
3001
0000
0000
0000
0110
0000
1001
0000
,
0001
0100
0001
0100
0010
1000
0001
1000
0001
0010
0001
0010
0100
1000
0100
0010
,
0001
1000
0001
0100
0010
0000
0100
0001
1000
0000
0000
0000
0110
0000
1001
0000
,
0001
0100
0001
0100
0010
1000
0001
1000
0001
0010
0001
0010
0100
1000
0100
0010
,
0001
1000
0001
0100
0010
0000
0100
0001
1000
0000
0000
0000
1000
0100
0010
0100
,
0010
0001
1000
0000
0001
0100
0010
0100
0010
1000
0001
0000
0001
0010
0100
0000
,
0100
1000
0001
0000
0001
0100
0010
0000
0010
1000
0100
0010
0100
1000
0001
0100
,
0001
0000
1000
0000
0010
0100
0010
0100
0001
0000
0000
0000
0001
0010
0100
0010
,
0100
1000
0100
0010
0001
0100
0000
0010
1010
0000
0000
0000
0000
0000
0000
0000
,
0001
0000
1000
0010
0000
0010
0100
0000
0100
0001
0000
0001
0010
0000
0010
1000
,
0000
1000
0001
0000
0001
0100
0000
0100
2000
0000
0000
0000
0000
0000
0000
0000
,
0000
0000
0000
0000
3002
0000
0000
0103
,
0010
0000
0100
0000
0000
0000
0000
0000
0010
0000
0000
1000
0000
0000
0001
0000
,
2000
0000
0000
3001
0010
0001
0010
0100
,
1000
0000
0001
0100
0000
0001
2000
0000
0000
0000
0000
0000
0000
0000
3010
0000
,
0100
1000
0100
0001
0100
1000
0001
0010
,
1000
0000
0100
0000
0010
0000
0000
0000
0001
0000
0000
1000
0010
0000
0100
0000
,
0101
0000
0001
0010
0100
1000
0001
0000
1000
0010
0100
0001
1000
0000
0001
0010
,
0100
1000
0001
0000
1000
0010
0100
0001
1000
0100
0020
0000
0000
0000
0000
0000
,
0000
0000
0000
0130
2000
0000
0000
3010
,
0100
0000
0020
0000
0000
0000
0000
0000
1030
0000
0000
0100
0000
0000
0010
0000
,
0001
0000
0000
0100
0000
0000
0001
0000
1000
0000
0000
0100
0000
0000
1000
0000
,
0001
0000
0000
0100
0000
0000
0010
0000
1000
0000
0000
0000
0000
0000
1000
0000
,
0100
0000
0000
0001
0000
0000
0100
0000
1000
0000
0000
0010
0000
0000
0001
0000
,
0010
0000
0000
0000
0000
0000
0010
0000
1000
0000
0000
0001
0000
0000
0100
0000
,
0001
0010
0100
1000
0010
0100
0001
0010
0100
1000
0010
0100
0001
0010
0100
1000
,
0010
0100
0001
0010
0100
1000
0010
0100
0001
0010
0100
1000
0010
0100
0001
0010
,
0100
1000
0010
0100
0001
0010
0100
1000
0010
0100
0001
0010
0100
1000
0010
0100
,
0001
0010
0100
1000
0010
0100
0001
0010
0100
1000
0010
0100
0001
0010
0100
1000
,
0010
0100
0001
0010
0100
1000
0010
0100
0001
0010
0100
1000
0010
0100
0001
0010
,
0100
1000
0010
0100
0001
0010
0100
1000
0010
0100
0001
0010
0100
1000
0010
0100
,
0001
0010
0100
1000
0010
0100
0001
0010
0100
1000
0010
0100
0001
0010
0100
1000
,
0010
0100
0001
0010
0100
1000
0010
0100
0001
0010
0100
1000
0010
0000
0000
0000
,
0001
0100
0001
1000
0100
1000
0001
0100
0001
1000
0100
1000
0001
0010
0001
0100
,
0010
0100
0001
0010
0001
0100
0010
0100
0001
0010
0001
0100
1000
0100
0001
0010
,
0001
1000
0010
1000
0001
0010
0001
1000
0010
1000
0001
0010
0001
1000
0010
1000
,
0100
0010
0100
1000
0010
1000
0100
0010
0100
1000
0010
1000
0100
0001
0100
1000
,
0010
1000
0001
0100
0001
1000
0010
1000
0001
0100
0001
1000
0010
1000
0001
0010
,
0001
1000
0100
1000
0001
0010
0001
1000
0100
1000
0001
0010
0001
1000
0100
1000
,
0001
0100
1000
0001
0010
1000
0001
0010
1000
0001
0100
1000
0001
0100
1000
0001
,
0020
0000
0000
0000
,
1030
0000
1000
0100
0000
0100
0010
0000
0001
0100
0000
0100
0010
0000
1000
0100
,
0000
0100
0010
0000
0001
0100
0000
0100
0010
2000
0000
0000
0000
0000
0000
0000
,
0000
0000
0000
0000
3002
0000
0000
0013
,
0100
0000
0020
0000
0000
0000
0000
0000
0031
0000
0000
0001
0000
0000
0001
0000
,
1000
0000
0000
1000
0000
0000
1000
0000
0010
0000
0000
0010
0000
0000
0010
0000
,
0100
0000
0000
0100
0000
0000
0100
0000
0001
0000
0000
0000
0000
0000
1000
0000
,
0001
0000
0000
0100
0000
0000
0001
0000
1000
0000
0000
0100
0000
0000
2000
0000
,
0000
0000
0000
0000
0000
0000
3001
0000
0100
0000
0000
0010
0000
0000
2000
0000
,
0000
0000
0000
0000
,
0000
0000
3002
0003
;
