#TITLE:New Stranger;
#SUBTITLE:;
#ARTIST:sora tob sakana;
#TITLETRANSLIT:New Stranger;
#SUBTITLETRANSLIT:;
#ARTISTTRANSLIT:sora tob sakana;
#GENRE:ANIME;
#CREDIT:;
#MUSIC:New Stranger.ogg;
#BANNER:New Stranger.png;
#BACKGROUND:New Stranger-bg.png;
#CDTITLE:;
#SAMPLESTART:55.736;
#SAMPLELENGTH:9.961;
#SELECTABLE:YES;
#OFFSET:0.631;
#BPMS:0.000=190.000;
#STOPS:;
#BGCHANGES:2.500=New Stranger.avi=1.000=0=0=0=StretchNoLoop====,
99999.000=-nosongbg-=1.000=0=0=0=StretchNoLoop====
;
#FGCHANGES:;

//--------------- dance-single - ----------------
#NOTES:
     dance-single:
     :
     Hard:
     16:
     0.906178,0.937975,1.091202,0.020396,0.428322,622,515,107,2,0,0,0.906178,0.937975,1.091202,0.020396,0.428322,622,515,107,2,0,0:
0000
0000
0000
0000
,
1001
0000
0000
0000
0001
0010
0100
0000
0001
0000
0100
0010
0001
0000
1001
0000
,
0000
0000
1100
0000
1000
0000
0100
0010
0001
0000
0101
0000
0000
0110
0000
0000
,
1010
0000
0000
0000
1000
0010
0100
0000
1000
0000
0100
0010
1000
0000
1001
0000
,
0000
0000
0110
0000
0000
0000
1001
0000
0000
0000
1010
0000
0000
1100
0000
0000
,
0110
0000
0000
0000
1000
0100
0001
0000
0100
0000
1000
0010
0001
0000
0110
0000
,
0000
0000
0101
0000
0001
0000
0100
0010
1000
0000
1010
0000
0000
0101
0000
0000
,
0110
0000
2002
0000
0000
0000
3003
1001
,
0000
1000
0001
0100
0010
0001
0010
1000
,
0101
0100
1010
0001
0010
0100
0010
0001
,
1000
0000
0101
0000
0000
0000
0110
0000
0000
0000
0010
1000
0100
0000
0010
0000
,
0100
0000
0001
0100
1000
0000
0010
0000
0100
0000
1000
0000
0100
0000
0001
0000
,
0010
0000
0100
0000
0000
0110
0000
0000
0010
0000
0001
0000
0100
0000
0010
0000
,
1000
0000
0100
0010
0001
0000
0100
0000
1000
0000
0001
0000
0010
0000
1010
0000
,
0000
0000
0101
0000
0000
0000
1010
0000
0000
0000
1000
0010
1000
0000
0001
0000
,
0011
0001
0010
1100
1000
0100
0011
0010
,
0001
1100
0100
1000
0010
0100
0010
0001
,
0010
0000
0110
0000
1001
0000
1000
0010
,
0100
0000
0100
0001
0010
0010
0000
0001
,
1000
1000
0001
1000
0001
0001
1000
1000
,
0001
0000
1000
0010
0100
0000
1000
0100
0010
0000
1000
0100
0010
0100
1000
0010
,
0100
0100
1001
0000
1100
0000
0011
0001
,
0100
0010
1000
0100
0010
0001
0000
0100
,
0001
0010
0100
1000
0010
0100
0001
0010
,
0100
0010
0001
0100
0010
1000
0100
0000
,
0110
0000
1100
0000
0101
0000
0001
0100
,
1000
0000
0000
0000
0100
0000
0100
0001
0000
1000
0001
0000
0100
0000
1000
0000
,
0100
0000
0001
0000
0100
0000
0010
0000
1000
0100
0000
1000
0001
0000
0110
0000
,
0000
0000
0001
0100
0001
0000
1000
0100
1000
0000
0100
0010
0100
1000
0100
0000
,
1100
0000
0001
0100
0101
0000
1000
1010
,
0000
0001
0011
0000
0010
0110
0000
0000
,
1001
0000
0001
0010
0000
1100
0000
0101
,
0000
0000
0011
0000
0010
0001
1000
0000
0010
1000
0100
0000
0010
0100
1000
0001
,
0010
0000
0000
0011
0000
0000
0110
0000
0000
0000
1100
0000
0000
0000
0001
0000
,
0000
0100
0001
0100
0010
1000
0010
1000
,
1010
0000
0000
0110
0000
0000
0101
0000
0001
0000
0010
0000
1000
0000
0010
0000
,
0001
0000
0100
0000
0010
0000
0000
0000
0110
0000
0000
1001
0000
0000
0001
0000
,
0100
0010
1000
0010
0001
0010
1000
0100
,
1000
0010
0001
0010
0100
0010
0100
0100
,
0101
0000
0100
0100
0010
0010
1000
1001
,
0000
0000
0100
0000
0010
0000
0100
0000
0001
0100
0001
0000
1000
0100
1000
0000
,
0100
0000
0100
1000
0000
1000
0100
1000
,
0100
0001
0100
1000
0100
1000
0001
0000
,
1001
0000
0001
0001
0010
0100
0000
1100
,
0000
1001
0000
0011
0000
0010
0001
0010
,
0100
1000
0001
0000
0100
0000
1000
0100
0001
0000
0010
0000
0100
0010
0001
0100
,
0010
0000
0110
0000
0000
0000
0010
0000
0100
0000
0001
0000
1000
0100
0010
0000
,
0001
0010
0001
0000
0100
0000
0010
1000
0100
0000
0010
0001
1000
0000
0010
0100
,
0000
0000
0100
0001
0000
0000
1000
0000
0000
0000
0010
0000
1000
0000
0010
0000
,
1000
0000
1000
0100
1000
0010
1000
0001
,
0000
0000
0001
0000
1000
0000
0001
0010
0001
0000
0001
0100
0001
0000
0100
0000
,
0000
0000
0100
0000
0001
0100
1000
0000
0000
0000
0100
0000
1000
0100
0001
0000
,
1000
0000
0000
0001
0000
0000
1001
0000
0000
0000
0000
0000
1010
0000
0000
0000
1100
0000
0000
0000
0110
0000
0000
0000
,
0011
0000
0101
0000
1001
0000
1010
0000
0110
0000
0101
0000
,
0011
0000
1010
0000
1001
0000
1100
0000
0011
0000
1001
0000
,
0101
0000
0110
0001
1000
0001
0010
0100
,
1000
0100
0010
0000
0100
0000
0010
0000
0001
0010
0100
0000
1000
0000
0100
0010
,
0100
0000
0001
0000
0100
0000
1000
0000
0010
0000
0100
0001
1000
0000
1010
0000
,
0000
0000
1000
0000
0010
0100
0010
0000
1000
0000
0001
0000
0010
0100
0010
0000
,
0100
1000
0001
0000
0100
0010
0100
0000
0010
1000
0001
0100
1000
0000
0100
0000
,
0000
0100
0001
0010
0100
0000
1001
0000
,
1000
0100
1000
0100
1000
0000
0011
0000
0000
0000
1010
0000
0000
0000
1001
0000
,
0000
0101
0100
0010
0000
0110
0000
0100
,
1001
0000
0000
0000
1000
0010
0100
0000
1000
0000
0100
0010
1000
0000
1001
0000
,
0000
0000
0101
0000
0001
0000
0100
0010
1000
0000
1100
0000
0000
0110
0000
0000
,
0011
0000
0000
0000
0001
0010
0100
0000
0001
0000
0100
0010
0001
0000
1001
0000
,
0000
0110
0000
1001
0000
0000
0011
0000
,
0110
0000
0000
0000
0001
0100
1000
0000
0100
0000
0001
0010
1000
0000
0110
0000
,
0000
0000
1100
0000
1000
0000
0100
0010
0001
0000
0011
0000
0000
1100
0000
0000
,
0110
0000
1001
0000
0110
0000
0000
0001
,
0000
1000
0000
0000
0100
1000
0010
0000
;

//--------------- dance-single - ----------------
#NOTES:
     dance-single:
     :
     Challenge:
     18:
     1.075176,1.010127,1.131995,0.010198,0.907635,738,627,111,1,0,0,1.075176,1.010127,1.131995,0.010198,0.907635,738,627,111,1,0,0:
0000
0000
0000
0000
,
0011
0000
0000
0000
0001
0010
0100
0010
0001
1000
0010
0100
0001
0000
1001
0000
,
0000
0000
1010
0000
1000
0010
0100
0010
1000
0000
1100
0000
0000
1001
0000
0000
,
0011
0000
0000
0000
0001
0010
0100
1000
0010
0100
1000
0100
0001
0000
0101
0000
,
0000
0000
1001
0000
0000
0000
0110
0000
0000
0000
1010
0000
0000
0011
0000
0000
,
0110
0000
0000
0000
1000
0100
0010
0100
1000
0001
1000
0010
0100
0000
0101
0000
,
0000
0000
1010
0000
1000
0010
0100
1000
0100
0000
0110
0000
0000
0101
0000
0000
,
1010
0000
0000
0000
0000
0000
0001
0010
0100
0010
0001
0010
0200
0000
0000
0000
0000
0000
0300
0000
0000
1001
0000
0000
,
0000
1000
0001
0100
0010
0001
0010
1000
,
0101
0000
0010
0000
1010
0000
1000
0100
0010
0000
1000
0000
0010
0000
0100
1000
,
0010
0000
0101
0000
0000
0000
0110
0000
0000
0000
0100
0001
0010
0000
1000
0000
,
0001
0000
0001
0100
1000
0000
0010
0000
0001
0000
0010
0000
0001
0000
0010
0100
,
0010
0000
0100
0000
0000
0110
0000
0000
0010
0000
0010
1000
0101
0000
0001
0010
,
1100
0000
0100
0010
0001
0000
0100
0000
1000
0100
0010
0000
1000
0000
1010
0000
,
0000
0000
0101
0000
0000
0000
1010
0000
0000
0000
0100
0001
0100
0000
0010
0000
,
1001
0000
1000
0010
0100
0000
0110
0000
0100
0001
0010
0000
0011
0000
0001
0010
,
1000
0000
1010
0000
0010
0001
0100
0000
1000
0000
0001
0000
0010
1000
0100
0010
,
0000
0000
0000
0000
1001
0000
0100
0000
1001
0000
0000
0000
0001
0010
0001
0010
,
1000
0000
0010
0000
0100
0000
1000
0000
0010
0100
0010
0000
0000
0000
1010
0000
,
0100
0001
0010
0000
1100
0000
0010
0001
0100
0000
0100
0000
0001
0000
0001
0000
,
1000
0100
0010
0001
1000
0100
0010
0001
1000
0100
0010
0001
1000
0001
0010
0100
,
1000
0000
0100
0000
0001
0000
1000
0010
0001
0000
0000
0000
0011
0000
0001
0010
,
0100
0000
0001
0000
1000
0010
0100
0000
1000
0000
1100
0000
0000
0000
0101
0000
,
0001
0100
0001
0100
1000
0000
1000
0100
1000
0100
0001
0000
0010
0000
1000
0000
,
0001
0000
0100
0000
0001
0100
0010
0000
0001
0000
0100
0000
0110
0000
0000
0000
,
0110
0001
0110
1000
0110
0000
0010
1000
,
0100
0000
0000
0000
0001
0000
0100
1000
0000
0010
0001
0000
1000
0000
0100
0000
,
0001
0010
0100
0000
0001
0000
0100
0000
0001
1000
0000
0010
0001
0000
0011
0000
,
0000
0000
1100
0000
1000
0100
0010
1000
0010
0100
0001
0100
1000
0000
0001
0010
,
1000
0000
0010
0000
0001
0000
0100
0001
1000
0000
0100
0000
0001
0000
0100
1000
,
0001
0000
0100
0000
0110
0000
0000
0000
0010
0100
0010
0000
0000
0000
0001
0000
,
0011
0000
0001
0011
0000
1100
0000
0101
,
0000
0000
1010
0000
1000
0010
0100
0000
0100
0001
0010
0000
0010
0001
0100
0010
,
0001
0000
0000
0011
0000
0000
0110
0000
0000
0000
1010
0000
0000
1000
0100
0000
,
0000
0000
0010
0000
0010
0001
0100
0000
0010
0000
0010
1000
0100
0000
0010
0000
,
0011
0000
0000
0110
0000
0000
1100
0000
0001
0000
0010
0000
1000
0000
0010
0001
,
0010
0000
0010
1000
0010
0000
0000
0000
0110
0000
0000
0110
0000
0000
0100
1000
,
0100
0000
0010
0000
0100
1000
0100
0000
0010
0000
1000
0000
0010
0000
0100
0000
,
0001
0100
0010
0100
1000
0000
0010
0000
0100
0001
0010
0000
0110
0000
0100
0000
,
1100
0000
0000
1000
0100
0000
0110
0000
0010
0001
0010
0100
1000
0000
1001
0000
,
0000
0000
0100
0001
0010
0000
0110
0000
0100
1000
0010
1000
0100
0000
0010
0001
,
0100
0000
0010
0000
0100
0001
0100
0000
0010
0000
0100
1000
0100
0000
0001
0000
,
0100
0000
1000
0000
0100
0000
0001
0010
0100
0000
0001
0100
1000
0000
0000
0000
,
1001
0000
0000
0000
0001
0010
0001
0010
0100
1000
0010
0000
0000
0000
1010
0000
,
0000
1001
0000
0101
0000
0100
0001
0010
,
0100
1000
0010
0000
0001
0000
0010
0100
0001
0000
0010
0000
1000
0010
0001
0100
,
0010
0000
0110
0000
0000
0000
0010
0000
0100
0000
0001
0000
1000
0001
0100
0010
,
0100
1000
0100
0001
0010
0000
0010
0001
0100
0000
0100
0001
0010
0000
0010
0100
,
0000
0000
0100
1000
0000
0000
1000
0100
0010
0000
0001
0000
1000
0000
0001
0100
,
1000
0000
0001
0000
1000
0100
0001
0000
1000
0000
0001
0010
1000
0000
0001
0000
,
1000
0010
0001
0000
1000
0000
0010
0001
0010
0100
0010
1000
0010
0000
0100
0000
,
0100
0000
0100
0001
0010
0000
0010
0000
0010
0000
0010
0000
0010
0001
0100
0000
,
0010
0000
0000
0010
0000
0000
1001
0000
0000
0000
0000
0000
0011
0000
0000
0000
0101
0000
0000
0000
0110
0000
0000
0000
,
1010
0000
1100
0000
1001
0000
0011
0000
0110
0000
1100
0000
,
1010
0000
0011
0000
1001
0000
0101
0000
1010
0000
1001
0000
,
1100
0000
1000
0100
0010
0000
1000
0000
0001
0100
1000
0000
0010
0000
0100
0000
,
0001
0100
0010
1000
0100
0000
0010
0000
0001
0010
0100
0010
0100
1000
0010
0100
,
0010
0000
0001
0000
0010
0100
0001
0000
0010
0000
0100
1000
0001
0000
0011
0000
,
0000
0000
0010
0001
0100
0001
0010
0000
0100
0000
0001
0000
0100
1000
0010
0000
,
0001
0010
1000
0100
0010
0100
1000
0010
0100
0010
0001
0010
1000
0000
0001
0000
,
0000
0000
0001
0000
0010
0000
0100
1000
0001
0000
0000
0000
1001
0000
0000
0000
,
1000
0100
0001
0100
1000
0000
0011
0000
0000
0000
0101
0000
0000
0000
1001
0000
,
0000
0000
1010
0000
0100
0001
0010
0000
0000
0000
0110
0000
0000
0000
0001
0000
,
1010
0000
0000
0000
1000
0010
0100
0010
1000
0001
0010
0100
1000
0000
1001
0000
,
0000
0000
0011
0000
0001
0010
0100
0010
0001
0000
0101
0000
0000
1001
0000
0000
,
1010
0000
0000
0000
1000
0010
0100
0001
0010
0100
0001
0100
1000
0000
1100
0000
,
0000
1001
0000
0110
0000
0000
1001
0000
,
0110
0000
0000
0000
0001
0100
0010
0100
0001
1000
0001
0010
0100
0000
1100
0000
,
0000
0000
0011
0000
0001
0010
0100
0001
0100
0000
0110
0000
0000
1100
0000
0000
,
0011
0000
0101
0000
1010
0000
0000
1000
,
0000
0001
0000
0000
0100
0001
0010
0000
;
