#TITLE:なに笑ろとんねん;
#SUBTITLE:;
#ARTIST:吉乃;
#TITLETRANSLIT:Naniwarotonnen;
#SUBTITLETRANSLIT:;
#ARTISTTRANSLIT:Yoshino;
#GENRE:ANIME;
#CREDIT:;
#MUSIC:Naniwarotonnen.ogg;
#BANNER:Naniwarotonnen.png;
#BACKGROUND:Naniwarotonnen-bg.png;
#CDTITLE:;
#SAMPLESTART:49.138;
#SAMPLELENGTH:16.696;
#SELECTABLE:YES;
#OFFSET:1.992;
#BPMS:0.000=115.000;
#STOPS:;
#LASTBEATHINT:1.861760;
#BGCHANGES:3.750=Naniwarotonnen.avi=1.000=0=0=0=StretchNoLoop====,
99999.000=-nosongbg-=1.000=0=0=0=StretchNoLoop====
;
#FGCHANGES:;

//--------------- dance-single - ----------------
#NOTES:
     dance-single:
     :
     Hard:
     12:
     0,0,0,0,0:
0000
0000
0000
0000
,
0000
0000
0000
0000
,
0011
0000
0000
0000
1100
0000
0000
0000
0001
0000
0000
1000
0100
0000
0000
0000
,
0100
0000
0010
0000
0001
1000
0000
0000
0010
0000
0100
0000
0001
1000
0000
0000
,
1100
0011
0101
1010
,
1000
0010
1000
0001
0010
0100
1000
0001
0100
0000
0001
0020
0000
0000
0000
0000
,
0130
0000
1000
0100
1000
0000
0000
0001
0010
0000
0100
0000
1000
0000
0000
0000
,
1000
0000
0100
0000
0001
0000
0000
0100
0010
0000
0001
0000
1000
0000
0000
0000
,
0001
0010
0100
1000
0010
0100
0001
1000
,
0020
0000
0130
0000
,
1010
0000
0000
0000
1001
0000
0000
0000
0001
0000
0000
1000
0000
0000
0100
0000
,
0011
0000
0000
0000
1001
0000
0000
0000
1000
0000
0000
0001
0000
0000
0100
0000
,
1010
0000
0000
0000
1001
0000
0000
0000
0001
0000
0000
0010
0000
0000
0100
0000
,
1000
0100
0001
0100
1000
0010
0200
0000
,
0310
0000
0000
1000
0100
0000
0000
1000
0001
0000
0000
0100
0001
0000
0000
1000
,
0100
1000
0100
1000
0001
0100
0000
0010
0000
0000
0000
0000
0100
0000
0001
0000
,
1000
0000
0000
0001
0100
0000
0000
1000
0100
0000
0010
0000
0000
0000
1000
0000
,
0001
0100
0000
0010
0000
0000
1000
0001
0000
0000
0000
0000
0010
0200
0000
0000
,
1300
0001
1000
0001
0100
0000
0110
0000
0010
1000
0010
1000
0001
0000
0011
0000
,
0010
0100
0010
0100
1000
0100
0010
0001
1000
0000
0000
0000
1000
0010
0000
0100
,
0000
0000
0001
0000
0010
0100
0000
1000
0000
0000
0001
0000
0100
0000
1000
0000
,
0100
0000
0000
0010
0000
0000
1000
0000
0001
0000
0000
0000
0001
1000
0000
0100
,
0000
0000
1100
0000
1000
0001
0000
0100
0000
0000
0101
0000
0001
0000
0100
0000
,
1000
0000
0000
0100
0000
0000
0001
0000
1000
0000
0000
0000
0010
0100
0000
0100
,
0010
0000
0010
0000
0010
0100
0001
1000
,
0100
0000
0000
1000
0001
0000
0000
1000
0001
0000
0000
0000
0010
0000
0100
0000
,
1000
0000
0000
0001
0100
0000
0000
0010
0100
0010
1000
0001
1000
0000
0100
0000
,
0010
0001
0010
0001
1000
0010
0000
0100
0000
0000
0010
0000
0100
0000
0100
0000
,
0001
1000
0100
1000
0001
0010
0000
0100
0000
1000
0001
0000
0010
0000
0000
0000
,
0010
0000
0100
1000
0000
0000
1000
0000
0001
0000
1000
0000
0001
0000
1000
0000
,
0010
0000
0100
0001
0000
0000
0010
0000
0100
0000
1000
0001
0000
0000
0100
0000
,
0001
0000
0100
0000
1000
0000
0100
0000
0001
0000
0000
0010
0100
0000
0000
1000
,
0001
0000
0010
0100
0010
0001
0000
1000
0000
0010
0100
0000
0001
1000
0000
1000
,
0000
0000
0001
0000
0100
0000
0010
1000
0001
0000
0010
0100
0010
0100
0000
1000
,
0000
0000
0001
0000
0100
0000
0010
0100
0000
0000
0001
0000
1000
0100
0000
0020
,
0000
0000
0001
0000
0100
0000
0031
0000
0100
0000
0010
1000
0001
1000
0000
0020
,
0000
0000
0130
0000
0001
0010
0000
0100
0000
0000
1000
0000
0001
0000
0100
0000
,
0001
0000
1000
0010
0100
0010
1000
0010
0100
0010
0000
0010
0000
0000
0000
1000
,
0000
0000
0001
0010
0100
0010
0001
0010
0100
0010
0000
0010
0000
0001
0000
0001
,
0000
0000
0000
1000
0010
0000
0100
0010
1000
0000
0100
0000
0001
0000
0100
0010
,
0000
0000
0001
0000
1000
0000
0010
0100
0000
0001
0010
0000
0000
0100
1000
0001
,
0000
0000
0100
0000
0010
1000
0001
0010
,
0100
0000
0000
1000
0001
0000
0100
0000
0010
0000
1000
0001
0000
0000
0000
0000
;

//--------------- dance-single - ----------------
#NOTES:
     dance-single:
     :
     Challenge:
     16:
     0.516393,0.401739,0,0,0,326,326,0,0,0,0,0.516393,0.401739,0,0,0,326,326,0,0,0,0:
0000
0000
0000
0000
,
0000
0000
0000
0000
,
0101
0000
0000
0000
0000
0000
0110
0000
0000
0000
0000
0000
1100
0000
0000
0000
0000
1000
0001
0000
0000
0100
0000
0010
,
1000
0000
0000
0000
0000
0000
0000
0000
0000
0000
0000
0000
0010
0000
0000
0000
0000
0000
0000
0000
0000
0000
0000
0000
0100
0000
0000
0000
0000
0000
0000
0000
0001
0000
0000
0000
1000
0000
0000
0100
0000
0000
1000
0000
0000
0100
0000
0000
1000
0000
0000
0000
0000
0000
0000
0000
0000
0000
0000
0000
0010
0000
0000
0000
0000
0000
0000
0000
0100
0000
0000
0000
0001
0000
0000
0000
0000
0000
0000
0000
0010
0000
0000
0000
0100
0000
0000
0000
0000
0000
0000
0000
1000
0000
0000
0000
,
1100
0000
0101
0000
1100
0001
0101
1000
,
0110
0000
0000
0000
0000
0000
0000
0000
0100
0000
0000
0000
0010
0000
0000
0000
0000
0000
0000
0000
0010
0000
0000
0000
0100
0000
0000
0000
0000
0000
0000
0000
0000
0000
0000
0000
0001
0000
0000
1000
0000
0000
0001
0000
0000
1000
0000
0000
0001
0000
0000
0000
0000
0000
0100
0000
0000
0010
0000
0000
0100
0000
0000
0000
0000
0000
0000
0000
0001
0000
0000
0000
0010
0000
0000
0000
0000
0000
0100
0000
0000
0000
0000
0000
1000
0000
0000
0100
0000
0000
0010
0000
0000
0001
0000
0000
,
1000
0000
0000
0000
0000
0000
0000
0000
0000
0000
0000
0000
0101
0000
0000
0000
0000
0000
0000
0000
1000
0000
0000
0000
0020
0000
0000
0000
0000
0000
0000
0000
0000
0000
0000
0000
0000
0000
0000
0000
0000
0000
0000
0000
0100
0030
0000
0000
0001
0000
0000
0000
0000
0000
0000
0000
0010
0000
0000
0000
0100
0000
0000
0000
0000
0000
0000
0000
1000
0000
0000
0000
0001
0000
0000
0000
0000
0000
0000
0000
0000
0000
0000
0000
0010
0000
0000
0000
0000
0000
0000
0000
0000
0000
0000
0000
,
1100
0000
0000
0000
0000
0000
0000
0000
0000
0000
0000
0000
0010
0000
0000
0000
0000
0000
0000
0000
0000
0000
0000
0000
0101
0000
0000
0000
0000
0000
0000
0000
0000
0000
0000
0000
0100
0000
0000
0001
0000
0000
0100
0000
0000
0001
0000
0000
1000
0000
0000
0000
0000
0000
0000
0000
0010
0000
0000
0000
0100
0000
0000
0000
0000
0000
0000
0000
0001
0000
0000
0000
0010
0000
0000
0000
0000
0000
0100
0000
0000
0000
0000
0000
1000
0000
0000
0000
0000
0000
0001
0000
0000
0000
0000
0000
,
0100
0000
0000
0210
0300
0001
0010
0000
0000
0210
0300
1000
0010
0000
0000
0210
0300
0001
0010
0000
0000
0110
0000
0000
,
0100
0000
0000
0000
0000
0000
1000
0000
0000
0001
0000
0000
0100
0000
0000
0000
0000
0000
0000
0000
0100
0000
0000
0000
0010
0000
0000
0000
0000
0000
0000
0000
1000
0000
0000
0000
0001
0000
0000
0000
0000
0000
0000
0000
0010
0000
0000
0000
0200
0000
0000
0000
0000
0000
0000
0000
0000
0000
0000
0000
0000
0000
0000
0000
0000
0000
0000
0000
0000
0000
0000
0000
0300
0000
0000
0000
0000
0000
0000
0000
0000
0000
0000
0000
0000
0000
0000
0000
0000
0000
0000
0000
0000
0000
0000
0000
,
0102
0003
1000
0010
0000
0000
2100
3000
0001
0010
0000
0100
1000
0000
1000
0001
0000
0101
0000
0000
0100
0010
0000
0000
,
2010
3000
0100
0010
0000
0000
0012
0003
0100
0010
0000
0000
1001
0000
0001
1000
0000
0010
0000
0000
0010
0100
0000
0000
,
0102
0000
0003
0000
0010
0000
0100
0000
0000
0000
0000
0000
2100
0000
3000
0000
0010
0000
0100
0000
0000
0000
0001
0000
1000
0000
0000
0000
0000
0000
0001
0000
0000
0000
0100
0000
0010
0000
0000
0000
0010
0000
1000
0000
0000
0000
0001
0010
,
0001
0000
0010
0100
0000
1000
0010
0000
0100
0001
0010
0100
0010
0000
0100
1000
0000
0010
0100
0000
0001
1000
0000
0100
,
0020
0000
0000
0030
,
0110
0000
0001
1000
0000
1000
0010
0000
0100
0000
0000
0010
0000
0000
0100
0001
0000
0001
1000
0000
0010
1000
0000
0000
,
2001
0000
3010
0100
0000
0000
1002
0000
0013
0100
0000
1000
0001
0000
0000
0020
0000
0000
0100
0000
0000
1030
0000
0000
,
0010
0000
0001
0100
0000
2000
0000
0000
0000
3100
0000
0010
0000
0000
0100
0010
0000
1000
0100
0000
1000
0001
0000
0000
,
0101
0000
0001
0100
0000
1000
0100
0000
0000
0101
0000
0000
1100
0000
1000
0100
0000
0001
0100
0000
0000
1100
0000
0000
,
0001
0000
0100
0010
0000
1000
0100
0000
1000
0001
0000
0100
0020
0000
0000
1000
0000
0000
0130
0000
0100
0000
0000
0001
,
0020
0000
0000
0001
0000
0000
0130
0000
0100
0000
0000
1000
0020
0000
0000
0130
0000
0000
0001
0000
0000
1000
0000
0010
,
0100
0000
0001
1000
0000
0000
0001
0000
0000
1000
0000
0100
0010
0000
0100
1000
0000
0100
0010
0000
0001
0000
0000
1100
,
0000
0000
0001
0100
0000
0000
0010
0000
1000
0000
0000
0101
0000
0000
0000
0001
0000
0000
0010
0000
0100
0000
0000
0100
,
1000
0000
0000
0001
0000
0100
0010
0000
0000
0100
0000
0000
0001
0000
0000
1000
0000
0100
0010
0000
0100
0001
0000
0000
,
0100
0000
0000
0000
0000
0000
1000
0000
0000
0000
0001
0000
0100
0000
0000
0000
0100
0000
0000
0000
0100
0000
0000
0000
0010
0000
0000
0000
1000
0001
1000
0000
0000
0000
0100
0000
0010
0000
0001
0000
1000
0000
0100
0000
0010
0000
0001
0000
,
0100
0000
0000
1010
0000
0100
0001
0000
0000
0011
0000
0100
1000
0000
0010
0100
0000
0000
0101
0000
0000
1100
0000
0000
,
1001
0000
0001
0010
0000
0100
0010
0000
0000
0100
0000
1000
0010
0000
0100
0010
0000
0100
1001
0000
0000
0110
0000
0000
,
0001
0000
0100
1000
0000
0100
0010
0000
1000
0000
0000
1100
0000
0000
0100
0010
0000
0000
0011
0000
0000
1100
0000
0000
,
1000
0000
0100
0010
0000
0100
0001
0000
0100
0000
0000
1100
0000
0000
0001
0010
0000
0100
1000
0000
0010
0100
0000
0000
,
1001
0000
0000
0001
0000
0100
0000
0000
0010
0100
0000
0100
0001
0000
0000
0010
0000
0100
1000
0000
0000
1001
0000
0000
,
0110
0000
0000
1000
0000
0100
0000
0000
0010
0100
0000
0000
1001
0000
0000
0001
0000
0100
0000
0000
0010
0100
0000
0000
,
0001
0000
0100
1000
0000
0100
0001
0000
0000
0010
0000
0000
0100
0000
1000
0010
0000
0000
0110
0000
0000
0100
0000
0001
,
1000
0000
0000
0100
0000
0100
1000
0000
0010
0000
0000
0100
0001
0000
0010
0100
0000
1000
0010
0000
0100
0000
0000
0110
,
0000
0000
0001
0010
0000
0000
0100
0000
0010
0001
0000
0000
0011
0000
0000
1000
0000
0010
0100
0000
1000
0000
0000
0100
,
0000
0000
0001
0010
0000
0000
0110
0000
0000
0100
0000
1000
0000
0000
1000
0001
0000
0000
0110
0000
0110
0000
0000
1001
,
0000
0000
0010
0100
0000
0000
0001
0000
1000
0100
0000
0000
1000
0000
0010
0100
0000
0100
0001
0000
0010
0000
0000
1000
,
0000
0000
0000
0000
0010
0000
0001
0000
0000
0000
0000
0000
0001
0000
0000
0000
1000
0000
0000
0000
0000
0000
1000
0000
0010
0000
0000
0000
0100
0000
0001
0000
0000
0000
0001
0000
0010
0000
0000
0000
0010
0000
0100
0000
0000
0000
1000
0001
,
1000
0000
0000
0000
0010
0000
0100
0000
0000
0000
1000
0000
0100
0000
0000
0000
0010
0000
0100
0000
0000
0000
0001
0000
1000
0000
0000
0000
0100
0000
0000
0000
0000
0000
0010
0000
0000
0000
0000
0000
0100
0000
1000
0000
0000
0000
0001
1000
,
0001
0000
0010
0100
0000
0001
0100
0000
0010
0100
0000
1000
0100
0000
0010
0000
0000
0110
0000
0000
1000
0001
0000
0100
,
0000
0000
0000
0100
0000
0010
1000
0000
0000
0001
0000
0000
0100
0000
0010
0100
0000
0000
0100
0000
0000
0010
0000
0100
,
0000
0000
0100
0010
0000
0000
0100
0000
0001
1000
0000
0100
0000
0000
1000
0001
0000
0000
0010
0000
0100
1000
0000
0010
,
0000
0000
0100
0000
0001
0010
0100
1000
,
0010
0000
0000
0000
0000
1000
0100
0000
0100
0001
0000
0000
0100
0000
0000
0010
0000
0100
0000
0000
0000
0000
0000
0000
;
