#TITLE:NULL;
#SUBTITLE:;
#ARTIST:鬱P feat. 初音ミク;
#TITLETRANSLIT:NULL;
#SUBTITLETRANSLIT:;
#ARTISTTRANSLIT:Utsu-P;
#GENRE:POP;
#CREDIT:;
#MUSIC:NULL.ogg;
#BANNER:NULL.png;
#BACKGROUND:NULL-bg.png;
#CDTITLE:;
#SAMPLESTART:60.043;
#SAMPLELENGTH:8.000;
#SELECTABLE:YES;
#OFFSET:-0.043;
#BPMS:0.000=120.000;
#STOPS:;
#BGCHANGES:3.500=NULL.avi=1.000=0=0=0=StretchNoLoop====,
99999.000=-nosongbg-=1.000=0=0=0=StretchNoLoop====
;
#FGCHANGES:;

//--------------- dance-single - ----------------
#NOTES:
     dance-single:
     :
     Medium:
     12:
     0,0,0,0,0:
0000
0000
0000
0000
,
0000
0000
0000
0000
,
1000
1000
0000
0000
0000
0000
0000
0000
,
0001
0001
0000
0000
0000
0000
1001
0000
,
1000
1000
0000
0000
0001
0001
0000
0000
,
0010
0010
0010
0010
0110
0000
0000
0000
,
0001
0000
0100
0000
0001
0100
0001
0000
1000
0000
0100
0000
1000
0100
1000
0000
,
0010
0000
0100
0000
0010
0100
0010
0000
1000
0001
1000
0001
1000
0001
1000
0000
,
0001
0000
0010
0000
0001
0010
0001
0000
1000
0000
0010
0000
1000
0010
1000
0000
,
0010
0100
0010
0000
0100
0010
0100
0000
0001
1000
0001
1000
0001
1000
0001
1000
,
0001
0100
0001
1000
0100
0010
0100
0010
,
0001
1000
0100
1000
0001
0100
0001
1000
,
0010
0100
0001
0100
0010
1000
0001
0010
,
0100
0010
0100
1000
0001
1000
0100
0010
,
0110
0000
0000
0000
1001
0000
0000
0001
,
1000
0000
0000
1000
0000
0000
0010
0000
0100
0000
0001
0000
0010
0000
0100
0000
,
1001
0000
0000
0000
0010
0000
0000
0100
,
0001
0000
0000
0001
0000
0000
1000
0000
0100
0000
0010
0000
0100
0000
1000
0000
,
0001
0000
0000
0100
0000
0100
0001
0000
0001
0100
0000
0100
,
0001
0000
0000
1000
0000
0100
1000
0000
1000
0100
0000
0100
,
1000
0000
0000
0001
0000
0001
0100
0000
0100
0010
0000
0010
,
1000
0000
0000
0100
0000
0000
0010
0000
0001
0000
0000
0000
0001
0000
0100
0000
,
0010
1000
0001
0000
0010
0001
1000
0000
,
0010
0100
0001
0000
0010
0100
1000
0000
,
0001
0100
1000
0100
0001
0100
1000
0100
,
0001
0010
0100
1000
0001
0000
1001
0000
,
1000
0100
0010
0100
1000
0001
0100
0001
,
0100
0010
0100
0001
1000
0100
1000
0100
,
0000
1000
0100
1000
0001
0100
0001
1000
,
1001
0000
0000
0000
0000
1001
0000
1001
,
1000
0000
0001
0100
0000
0010
0000
1000
0000
0010
0000
0100
0001
0000
1000
0000
,
0001
0000
1000
0100
0000
0010
0000
0001
0000
0010
0000
0100
1000
0000
0001
0000
,
0000
0000
1000
0000
0001
0000
1000
0000
0010
0100
0000
0100
0000
0000
0100
0000
,
0001
0010
0001
0010
0100
1000
0100
0000
,
1000
0000
1000
0010
0000
0010
0000
0100
0000
0100
0000
0001
1000
0000
1000
0000
,
0001
0000
0001
0010
0000
0010
0000
0100
0000
0100
0000
1000
0001
0000
0001
0000
,
0000
0000
1000
0000
0100
0000
1000
0000
0010
0100
0000
0001
0000
0000
0010
0100
,
0000
1000
0000
0000
0010
0100
0000
0001
0000
0000
1000
0000
0001
0000
1000
0000
,
1000
0000
0010
0000
1000
0010
1000
0000
0001
0000
0010
0000
0001
0010
0001
0000
,
0100
0000
0010
0000
0100
0010
0100
0000
0001
1000
0001
1000
0001
1000
0001
0000
,
1000
0000
0100
0000
1000
0100
1000
0000
0001
0000
0100
0000
0001
0100
0001
0000
,
0100
0000
0010
0000
0100
0010
0100
0000
0001
1000
0001
1000
0001
1000
0001
1000
,
0001
0000
0000
0000
0000
0000
0100
0000
0000
0001
0000
0100
,
0010
0000
1000
0000
1000
0000
1000
0000
0001
0100
0000
0000
,
2002
0000
0000
0000
0000
0000
0000
0000
0000
3000
0000
0000
1003
0000
0000
0000
0000
0000
1000
0000
0000
0000
0100
0000
,
0010
0000
0001
0000
0001
0000
1001
0000
1001
0000
1001
0000
,
0000
0000
0000
0000
0001
1000
0001
1000
0001
1000
0001
1000
0001
0000
0100
0000
,
0010
0000
0000
1000
0000
1000
0100
0000
0000
0010
0000
0000
,
0010
0000
0001
1001
0000
1001
0000
0000
,
0002
0000
0000
0003
2000
0000
0000
3000
,
1001
0000
0000
0000
1000
0001
1000
0001
1000
0001
1000
0001
1000
0000
0100
0000
,
0010
0000
0000
0001
0000
0001
0100
0000
0000
0010
0000
0100
,
0010
0000
1000
1001
0000
1001
0000
0000
,
2001
0000
3100
0000
1000
0100
0000
0010
,
0001
0010
1000
0010
0001
1000
0001
0100
,
0010
0000
0110
0000
0010
1000
0000
0100
,
0001
0100
1000
0010
0100
0000
0001
0000
,
1001
0000
0110
0000
0001
0100
0000
0010
,
1000
0010
0001
0010
1000
0001
1000
0100
,
0010
0000
0110
0000
0010
0001
0000
0100
,
1000
0100
0001
0010
0100
0000
1000
0001
,
1000
0000
0000
0000
;

//--------------- dance-single - ----------------
#NOTES:
     dance-single:
     :
     Hard:
     15:
     0,0,0,0,0:
0000
0000
0000
0000
,
0000
0000
0000
0000
,
0100
1000
0000
0000
0000
0000
0000
0000
,
0100
0001
0000
0000
0000
0000
1001
0000
,
0100
1000
0000
0000
0100
0001
0000
0000
,
0001
1000
0001
1000
1001
0000
0000
0000
,
0001
0100
0010
1000
0010
0100
0001
0010
0100
1000
0001
1000
0010
1000
0001
0100
,
0001
1000
0100
0010
0001
0100
0001
1000
0001
0100
0001
0010
0001
0100
0010
0100
,
0010
1000
0010
1000
0100
0010
0001
0100
0001
0010
0100
1000
0010
0100
0001
1000
,
0100
0010
0001
0000
1000
0010
0100
0001
0010
0100
0010
0001
0010
0100
1000
0001
,
0100
0010
1000
0010
0100
0001
0100
0010
1000
0001
0010
0100
0010
0001
1000
0100
,
0010
0100
0010
0001
0100
0010
1000
0001
0100
0010
1000
0010
0100
0010
0100
0001
,
1000
0100
1000
0001
0100
0010
0100
0001
1000
0001
1000
0010
0100
0010
1000
0010
,
0100
0001
0010
0100
1000
0100
0010
0001
1000
0010
0100
0001
0100
0010
1000
0001
,
1000
0000
0000
0000
0000
0000
0000
0000
1001
0000
0000
0000
0000
0000
0001
1000
,
0001
0000
0000
0000
0000
0000
0000
0000
0000
1000
0000
0000
0000
0000
0000
0000
0000
0000
0010
0000
0000
0100
0000
0000
0010
0000
0000
0000
0000
0000
1000
0000
0001
0000
1000
0000
0001
0000
0000
0000
0000
0000
0100
0000
0000
0000
0000
0000
,
0110
0000
0000
0000
0000
0000
0000
0000
0010
0000
0000
0000
0000
0000
0010
1000
,
0010
0000
0000
0000
0000
0000
0000
0000
0000
0100
0000
0000
0000
0000
0000
0000
0000
0000
0001
0000
0000
1000
0000
0000
0010
0000
0000
0000
0000
0000
0100
0000
0010
0000
0100
0000
0010
0000
0000
1000
0000
0000
0000
0000
0000
0100
0000
0000
,
0010
0000
0000
0001
0100
0001
0100
0010
1000
0010
1000
0100
,
0010
0000
0000
0100
1000
0100
1000
0000
0001
1000
0010
0100
,
0001
0000
0000
0010
0100
0010
0001
1000
0001
0100
0010
0100
,
0001
0000
0000
0000
0000
0000
0000
0000
0000
0100
0000
0000
0000
0000
0000
0100
0000
0000
0010
0000
0000
0000
0000
0000
1000
0000
0000
0000
0000
0000
0001
0000
0100
0000
0001
0000
0100
0000
0000
0000
0000
0000
0010
0000
0000
0000
0000
0000
,
1000
0000
0010
0100
0000
0001
0000
1000
0001
0010
1000
0010
0001
0000
0010
0000
,
0100
0000
1000
0100
0010
0100
0000
0010
0000
0001
0100
1000
0100
0000
0001
0000
,
0010
0000
0100
0000
0010
0000
0100
0010
0001
0000
1000
0010
0000
0000
0100
0001
,
0010
0100
1000
0010
0000
0000
1000
0000
0001
0000
1000
0010
0000
0100
0010
0000
,
1000
0000
0001
0010
0000
0100
0000
0100
0000
0100
0000
0010
0001
0000
1000
0000
,
0001
0000
1000
0010
0100
0010
0000
0001
0000
0010
0100
0010
1000
0000
0100
0000
,
0010
0001
0001
0001
0100
1000
1000
1000
,
0110
0000
0000
0000
0000
0000
0000
0000
0000
0000
1000
0001
0000
1000
0001
0000
,
0010
0000
0100
1000
0000
0100
0000
0001
0000
0100
0000
1000
0001
0000
0100
0000
,
0010
0000
0100
0001
0000
0100
0000
1000
0000
0100
0001
0010
0100
0000
1000
0000
,
0000
0001
0100
0001
0100
0000
0010
0000
1000
0100
0000
0010
0000
0001
1000
0000
,
0100
0000
0010
0000
0001
1000
0001
0000
1000
0010
1000
0010
0100
0000
0001
1000
,
0001
0100
0010
0100
0001
0010
0100
1000
0000
1000
0100
0100
0001
0000
1001
0000
,
1000
0100
0010
0100
1000
0010
0100
0001
0000
0001
0100
0100
1000
0000
0110
0000
,
0000
0000
0100
0000
0010
1000
0100
0001
0000
0001
0100
1000
0000
0000
0001
0100
,
0000
1010
0000
1000
0100
0001
0000
0110
0000
0000
1100
0000
0101
0000
1001
0000
,
0001
1000
0100
1000
0010
0100
0001
1000
0001
0100
0001
1000
0010
1000
0001
0001
,
1000
0001
0100
0001
0010
0100
1000
0001
1000
0100
1000
0001
0010
0001
1000
1000
,
0010
0100
0001
0001
0100
0010
1000
1000
0001
0010
0100
0100
1000
0100
0010
0010
,
0001
0001
0100
0100
0001
0001
1000
1000
0010
0010
0100
0100
0001
0001
1000
1000
,
2002
0000
0000
0000
0000
0000
0000
0000
0000
3003
0000
0000
0100
0000
0000
0000
0000
0000
1000
0000
0010
0000
1000
0000
,
0001
0000
0001
0000
0001
0000
1000
0000
1000
0100
0000
0000
,
2002
0000
0000
0000
0000
0000
0000
0000
0000
3000
0000
0000
1003
0000
0000
0000
0000
0000
0001
0000
0100
0000
0001
0000
,
1000
0000
1000
0000
1000
0000
0010
0100
0010
0100
0010
0000
,
0000
0000
0000
0000
0102
1000
0100
1000
0100
1000
0100
1000
0103
0000
1000
0000
,
0001
0000
0000
1000
0100
0010
0001
0000
1000
0001
0000
1000
,
0001
0000
1000
1001
0000
0110
0000
0000
,
2002
0000
0000
3003
2002
0000
0000
3003
,
1001
0000
0000
0000
2100
0001
0100
0001
0100
0001
0100
0001
3100
0000
0001
0000
,
1000
0000
0000
1000
0100
0010
0001
0000
0000
1001
0000
0001
,
0100
0000
0000
1001
0000
1000
0100
0000
1000
0001
0000
0000
,
1002
0000
0103
0000
0001
1000
0000
0010
,
0100
0010
1000
0001
1000
0100
0010
0001
,
1000
0000
0110
0000
1000
0001
0000
0010
,
0100
0010
0001
1000
0001
0100
0010
1000
,
0001
0000
0110
0000
1000
0001
0000
0001
,
0010
0100
1000
0001
1000
0100
0010
0001
,
1000
0000
0110
0000
0001
1000
0000
1000
,
0100
0001
0100
1000
0001
0010
1000
0001
,
1000
0000
0000
0000
;

//--------------- dance-single - ----------------
#NOTES:
     dance-single:
     :
     Challenge:
     18:
     0.90029,1.597669,0.701121,0.048353,1.406271,782,695,87,6,0,0,0.90029,1.597669,0.701121,0.048353,1.406271,782,695,87,6,0,0:
0000
0000
0000
0000
,
0000
0000
0000
0000
,
0110
1001
0000
0000
0000
0000
0000
0000
,
0110
1001
0000
0000
0000
0000
1001
0000
,
0110
1001
0000
0000
0110
1001
0000
0000
,
1001
1001
1001
1001
0000
0000
0000
0000
,
1000
0100
1000
0100
1000
0100
1000
0100
0010
0001
0010
0001
0010
0001
0010
0001
1000
0100
1000
0100
0010
0001
0010
0001
1000
0100
1000
0001
1000
0100
1000
0001
,
0100
0001
0100
0001
0100
0001
0100
0001
1000
0010
1000
0010
1000
0010
1000
0010
0100
0001
0100
0010
1000
0010
1000
0001
0100
0010
1000
0010
1000
0010
1000
0010
,
0100
0001
1000
0001
1000
0001
1000
0001
0010
0100
0010
0100
0010
0100
0010
0100
1000
0001
1000
0001
1000
0001
1000
0100
1000
0100
0010
0001
0010
0001
0010
0001
,
1000
0010
0100
0001
1000
0000
0000
0000
0001
0100
0010
1000
0001
0100
0010
0100
0010
0100
0010
0100
0010
0100
0001
1000
0010
0000
0100
0000
0001
0000
1000
0000
,
0010
0000
0100
0000
0001
0000
0010
0000
0100
0000
1000
0000
0100
0000
0010
0000
0001
1000
0001
1000
0001
0000
0010
0000
0100
0000
1000
0000
0001
0000
0100
0000
,
0010
1000
0010
0100
0001
1000
0010
0100
0001
0100
0001
0010
0100
0010
0100
1000
,
0100
0000
0010
0000
0001
0000
1000
0000
0100
0000
1000
0000
0001
0000
0100
0000
0001
0010
0001
0000
1000
0000
0010
0000
1000
0100
1000
0000
0001
0000
0010
0000
,
0100
1000
0001
0100
0001
1000
0100
0010
0001
1000
0010
0100
0001
0100
0010
1000
,
0001
0000
0000
0000
0000
0000
0000
0000
1001
0000
0000
0000
0000
0000
0100
0010
,
0100
0000
0000
0000
0000
0000
0000
0000
0000
0011
0000
0000
0000
0000
0000
0000
0000
0000
0100
0000
0000
1000
0000
0000
0100
0000
0000
0000
0000
0000
0010
0000
0001
0000
1000
0000
0010
0000
0000
0000
0000
0000
0100
0000
0000
0000
0000
0000
,
1001
0000
0000
0000
0000
0000
0000
0000
0110
0000
0000
0000
0000
0000
0100
0001
,
0100
0000
0000
0000
0000
0000
0000
0000
0000
1010
0000
0000
0000
0000
0000
0000
0000
0000
0100
0000
0000
0001
0000
0000
0010
0000
0000
0000
0000
0000
0100
0000
1000
0000
0001
0000
1000
0000
0000
0010
0000
0000
0000
0000
0000
0100
0000
0000
,
0101
0000
0000
0000
0000
0000
0001
0000
0100
0000
0010
0000
0100
0000
0001
0000
0010
0100
0010
0000
1000
0000
0010
0000
,
0001
0000
0000
0000
0000
0000
0001
0000
0100
0000
1000
0000
0100
0000
0000
0000
0001
0010
1000
0000
0010
0000
0001
0000
,
0100
0000
0000
0000
0000
0000
0010
0000
1000
0000
0100
0000
0010
0000
0001
0000
1000
0100
1000
0000
0001
0000
0100
0000
,
0010
0000
0000
0000
0000
0000
0000
0000
0000
0110
0000
0000
0000
0000
0000
0100
0000
0000
1010
0000
0000
0000
0000
0000
0101
0000
0000
0000
0000
0000
0001
0000
0010
0000
0100
0000
1000
0000
0000
0000
0000
0000
0001
0000
0000
0010
0000
0000
,
0100
0000
1000
0000
0010
0000
0100
0000
0001
0000
1000
0000
0001
0000
1000
0000
0001
0000
0100
0000
0010
0000
0100
0000
0001
0000
1000
0000
0010
0000
0100
0001
,
0100
0000
0001
0000
0010
0000
0100
0000
1000
0000
0100
0000
0010
0000
0100
0000
1000
0000
0010
0000
0100
0000
0001
0000
0100
0000
0001
0000
1000
0000
0010
0100
,
0010
0000
0000
0000
0100
0000
0001
0000
0010
0000
0000
0000
0100
0000
1000
0000
1001
0000
0000
0000
0001
0000
0100
0000
0010
0000
1000
0000
0001
0000
1000
0100
,
1000
0001
0010
0100
0000
0000
1000
0000
1001
1000
1010
0010
0100
0110
0010
1000
,
1001
0000
0000
0000
0000
0000
0000
0000
0000
0000
0000
0000
0001
0000
0000
0000
0010
0000
0000
0000
0100
0000
0000
0000
1000
0000
0000
0000
0000
0000
0001
0000
0000
0000
0000
0000
0000
0000
0000
0000
0000
0000
0001
0000
0000
0000
0000
0000
0100
0000
0000
0000
0000
0000
0000
0000
0000
0000
0000
0000
0010
0000
0000
1000
0000
0000
0010
0000
0000
1000
0000
0000
0010
0000
0000
0000
0000
0000
0100
0000
0000
0000
0000
0000
0001
0000
0000
0000
0000
0000
1000
0000
0000
0000
0000
0000
,
0001
0000
0000
0000
0000
0000
1000
0000
0100
0000
0010
0000
0001
0000
0000
1000
0000
0000
0000
0000
0000
1000
0000
0000
0010
0000
0000
0000
0000
0000
0100
0000
0001
0000
0010
0000
0100
0000
0000
1000
0000
0000
0000
0000
0000
1000
0000
0000
,
1010
0000
0011
0000
1010
0000
0011
0000
0110
0000
1001
0000
0100
0010
0100
0010
,
0100
0000
0000
0000
0000
0000
0000
0000
0000
0000
0001
0101
0000
1000
1100
0000
,
0010
0000
1001
0000
1000
0100
0010
0100
0000
1000
0001
0000
0001
0100
0010
0100
,
1000
0000
1000
0100
0000
0101
0000
0011
0000
0010
0100
1000
0001
0000
0001
0010
,
0000
0010
0100
1000
0001
0000
1001
0000
1000
0010
0000
0010
0100
0001
1001
0000
,
0101
0000
1100
0000
1000
0001
1000
0000
0001
0010
0001
0010
0100
1000
0100
1000
,
0001
0100
1000
0100
0001
0010
0100
1000
0001
1000
0010
0100
0001
1000
1010
0000
,
1000
0100
0001
0100
1000
0010
0100
0001
1000
0001
0010
0100
1000
0001
1001
0000
,
1000
0100
0010
0100
1000
0001
0100
0010
0100
0001
1000
1010
0000
0010
0100
0001
,
0010
0110
0000
0100
1000
0010
0100
0001
1001
0000
1100
0000
0101
0000
1001
0000
,
0001
0000
0100
0000
0001
0000
0010
0000
0001
0000
0010
0000
0100
0000
1000
0000
0010
0100
0010
0000
1000
0000
0001
0000
0010
0100
0010
0000
0001
0000
1000
0000
,
0010
0100
0010
0100
0001
0010
0100
1000
0100
0010
0100
1000
0001
0100
0001
0010
,
0001
0000
0100
0000
0001
0000
1000
0000
0010
0000
1000
0000
0100
0000
1000
0000
0001
0100
0001
0000
0010
0000
0100
0000
1000
0100
1000
0000
0010
0000
0100
0000
,
0010
1000
0001
1000
0100
0010
0001
0100
0001
1000
0010
0100
0010
0100
0010
1000
,
2002
0000
0000
0000
0000
0000
0000
0000
0000
3003
0000
0000
0101
0000
0000
0000
0000
0000
1000
0000
1000
0000
1000
0000
,
1000
0000
0101
0000
1010
0000
1001
0000
0010
0010
0000
0000
,
2002
0000
0000
0000
0000
0000
0000
0000
0000
3003
0000
0000
1100
0000
0000
0000
0000
0000
0001
0000
0001
0000
0001
0000
,
1000
1000
1000
0000
1010
0000
0101
0000
0011
0000
1100
0000
,
0000
0000
0000
0000
0000
0000
0000
0000
0001
0100
0001
1000
0001
0100
0001
1000
0001
0100
0001
1000
0001
0100
0001
1000
0001
0000
0000
0000
0010
0000
0000
0000
,
0100
0000
0000
1000
1000
1000
0001
0000
1000
0010
0000
0100
,
0001
0000
0110
1001
0000
1001
0000
0000
,
0002
0000
2003
0000
,
3001
0000
0000
0000
0000
0000
0000
0000
1000
0100
1000
0001
1000
0100
1000
0001
1000
0100
1000
0001
1000
0100
1000
0001
1000
0000
0000
0000
0010
0000
0000
0000
,
0100
0000
0000
1001
1001
1001
1001
0000
0000
1001
0000
1000
,
0010
0000
0000
0110
0000
0001
1000
0000
1000
0001
0000
0000
,
0011
0000
1100
0000
1000
0001
0000
0001
,
0010
0000
0000
0100
0000
0000
1000
0000
1000
0000
1000
0000
1000
0000
0000
0001
0000
0000
1000
0000
0000
0010
0000
0000
,
0100
0000
0110
0000
0001
1000
0000
1000
,
0100
0000
0000
0010
0000
0000
0001
0000
0001
0000
0001
0000
0001
0000
0000
1000
0000
0000
0001
0000
0000
0010
0000
0000
,
0100
0000
0110
0000
1100
0101
0000
0001
,
1000
0000
0000
0001
0000
0000
1001
0000
1001
0000
1001
0000
1001
0000
0000
1000
0000
0000
0100
0000
0000
0010
0000
0000
,
0100
0000
1001
0000
0101
1100
0000
0001
,
0100
0000
0000
0010
0000
0000
0110
0000
0110
0000
0110
0000
0110
0000
0000
0100
0000
0000
0001
0000
0000
1000
0000
0000
,
0001
0000
0000
0000
;
