#TITLE:NOX LUX;
#SUBTITLE:;
#ARTIST:MYTH & ROID;
#TITLETRANSLIT:;
#SUBTITLETRANSLIT:;
#ARTISTTRANSLIT:;
#GENRE:;
#CREDIT:;
#MUSIC:NOX LUX.ogg;
#BANNER:NOX LUX.png;
#BACKGROUND:NOX LUX-bg.png;
#CDTITLE:;
#SAMPLESTART:40.611;
#SAMPLELENGTH:13.332;
#SELECTABLE:YES;
#OFFSET:2.718;
#BPMS:0.000=144.016;
#STOPS:100.000=1.458;
#LASTBEATHINT:4.074100;
#BGCHANGES:6.750=NOX LUX.avi=1.000=0=0=0=StretchNoLoop====,
99999.000=-nosongbg-=1.000=0=0=0=StretchNoLoop====
;
#FGCHANGES:;

//--------------- dance-single - ----------------
#NOTES:
     dance-single:
     :
     Medium:
     12:
     0,0,0,0,0:
0000
0000
0000
0000
,
0000
0000
0000
0000
,
2000
3002
0203
0320
,
0230
0000
0000
0000
0000
0000
0000
0000
0302
0000
0000
0000
0000
0000
1003
0100
,
1000
0000
1000
0000
0001
0010
0100
0010
,
0001
0010
0100
1000
0010
0100
0010
1000
,
0002
2003
3020
0230
,
0320
0000
0000
0000
0000
0000
0000
0000
2030
0000
0000
0000
0000
0000
3001
0100
,
0001
0000
1000
0000
0010
0100
0010
0100
,
0001
0010
0100
1000
0001
1000
0100
0010
,
0001
0000
1000
0000
0000
1000
0000
0000
0010
0000
0000
0100
0000
0000
0001
0000
,
0010
0000
1000
0000
0010
0000
0001
0000
1000
0000
0000
0010
0000
0000
0000
0000
,
0100
0001
1000
0001
0101
0000
1010
0000
,
0110
0110
1001
1001
,
1000
0000
0001
0000
0000
0001
0000
0000
0010
0000
0000
0100
0000
0000
1000
0000
,
0010
0000
0001
0000
0010
0000
1000
0000
0001
0000
0000
0010
0000
0000
0000
0000
,
0100
1000
0100
1100
0000
1000
0001
0101
,
0100
0001
1000
0100
1000
0010
0100
0001
,
0010
0200
2300
3002
,
2003
0000
3020
0000
0230
0000
0301
1000
,
0020
0000
0000
0130
0002
0000
1003
0001
,
0020
0000
0230
0000
2300
0000
0000
3001
,
0000
0001
0010
0100
1000
0000
0001
1000
,
0000
1000
0010
0100
0001
0000
0010
0000
,
0210
0000
0000
1300
0010
0001
1000
0100
,
0002
0003
0000
0000
0000
0000
0000
0000
0000
0000
0000
0000
0000
0000
0000
0000
0000
0000
0000
0000
0000
0000
0000
0000
1001
0000
0000
0000
0000
0000
0000
0000
0000
0000
0000
0000
0000
0000
0000
0000
0000
0000
0000
0000
0000
0000
0000
0000
0000
0000
0000
0000
0000
0000
0000
0000
0000
0000
0000
0000
0000
0000
0000
0000
0000
0000
0000
0000
0000
0000
0000
0000
0001
0000
0000
0000
0000
0000
0000
0000
0000
0000
0000
0000
0000
0000
0000
0000
0000
0000
0000
0000
0000
0000
0000
0000
0010
0000
0000
0000
0000
0000
0000
0000
0000
0000
0000
0000
0000
0000
0000
0000
0000
0000
0000
0000
0000
0000
0000
0000
0011
0000
0000
0000
0000
0000
0000
0000
0000
0000
0000
0000
0000
0000
0000
0000
0000
0000
0000
0000
0000
0000
0000
0000
0000
0000
0000
0000
0000
0000
0000
0000
0000
0000
0000
0000
0000
0000
0000
0000
0000
0000
0000
0000
0000
0000
0000
0000
0001
0000
0000
0000
0000
0000
0000
0000
0000
0000
0000
0000
0000
0000
0000
0000
0000
0000
0000
0000
0000
0000
0000
0000
,
1000
0000
0001
0000
0100
0000
0010
1000
0000
0001
0000
0000
0010
0000
0100
0000
,
0000
0100
1000
0010
1000
0100
0000
0010
,
0001
0100
0001
0010
0000
0100
0000
1000
,
0001
0101
0000
0001
1000
1100
0000
0100
,
1000
0000
0001
0000
0100
0000
0010
1000
0000
0001
0000
0000
0010
0000
0100
0000
,
1000
0010
0000
0100
0001
0010
0000
0100
,
0010
0110
0000
1001
0000
0001
0010
0100
,
1000
1010
0000
0100
0001
0011
0000
0010
,
0001
0000
0100
0000
1000
0000
0100
0010
0000
1000
0000
0000
0001
0000
0010
0000
,
0000
0010
0100
1000
0100
0001
0000
0100
,
1000
0010
0100
0002
0000
1000
0000
0013
,
0100
0000
0010
0000
0001
0000
1000
0010
0000
0001
0000
0000
0010
0000
2000
0000
,
0000
0000
3001
0000
0100
0000
0001
0010
0000
1000
0000
0000
0010
0000
0200
0000
,
0000
0000
1300
0000
0010
0000
0100
0001
0000
0010
0000
0000
0100
0000
1000
0000
,
0010
0000
0100
0000
0001
0000
1000
0000
0100
0010
0000
0100
1000
0000
0001
0000
,
0100
0001
0010
0100
1000
0001
0010
0100
,
1000
0000
1100
0000
0000
0001
0100
0000
0010
0000
0110
0000
0000
0000
0010
0000
,
1000
0000
0001
0000
0000
0010
0100
0000
1000
0000
1001
0000
0010
0000
0110
0000
,
1000
0002
0000
2003
0000
3020
0000
0230
,
0000
0302
0000
0013
0100
1000
0010
0100
,
0010
0000
1010
0000
0000
0100
0001
0000
0010
0000
0110
0000
0000
0000
1000
0000
,
0001
0000
0011
0000
0000
0100
1000
0000
0010
0000
0110
0000
0000
1000
0001
0000
,
0010
0000
0110
0000
0100
0000
1000
0000
0001
0000
1000
0000
0100
0000
0010
0001
,
0000
1000
0010
0000
0100
0000
0001
0000
0100
0000
0010
0000
1000
0000
0001
0000
,
0000
1000
0100
0001
0100
1000
0100
0001
,
0100
1000
0010
0001
0010
1000
0010
0001
,
0010
0000
1000
0000
0001
0000
0000
0001
0000
0000
0010
0000
0000
0010
0000
0000
,
0100
0000
1000
0000
0001
0000
1000
0000
0001
0000
0100
0000
0000
0110
0000
0000
;

//--------------- dance-single - ----------------
#NOTES:
     dance-single:
     :
     Hard:
     15:
     0,0,0,0,0:
0000
0000
0000
0000
,
0000
0000
0000
0000
,
0002
2003
3020
0230
,
0302
0000
0000
0000
0000
0000
0000
0000
0023
0000
0000
0000
0130
0000
1000
0001
,
0010
0000
0100
0000
1000
0000
0001
0100
0010
0000
1000
0010
0100
0000
0001
0000
,
0010
0000
0100
1000
0001
0000
0100
0000
0010
1000
0001
0100
0001
1000
0100
0010
,
0002
2003
3020
0230
,
0302
0000
0000
0000
1000
0000
0000
0000
0023
0000
0000
0000
0130
0000
1000
0001
,
0100
0000
0010
0000
0100
0000
0001
0000
0010
0000
0100
1000
0000
1000
0010
0000
,
0100
0001
0100
0010
0100
0001
0010
0100
1000
0100
0010
0100
1000
0010
0100
0001
,
1000
0000
0001
0000
0010
0100
0000
0010
0001
0000
1000
0010
0000
0100
0000
0001
,
0010
0000
0100
0000
1000
0000
0010
0000
0100
0000
0001
0010
0000
0000
0100
0000
,
1000
0010
0100
0001
0101
0000
1010
0000
,
1100
0000
1000
0010
0100
0000
0010
1000
0001
0000
0010
0100
0010
0000
0001
0000
,
1001
0000
1000
0000
0010
0100
0000
0001
0010
0000
0100
1000
0000
0010
0000
0100
,
0001
0000
0010
0000
0100
0000
1000
0000
0010
0000
0100
0001
0000
0000
1000
0100
,
0010
0001
0100
0101
0000
1000
0100
1100
,
1000
0010
0100
0001
0100
0010
1000
0100
0010
0001
0010
0100
1000
0001
0100
0010
,
1000
0020
0230
0302
,
0023
0000
0230
0000
2300
0000
3010
0100
,
0002
0000
0100
2003
0010
0000
3010
0100
,
0002
0000
0023
0000
0230
0000
1000
0320
,
0000
0000
0031
1000
0100
0000
0010
0000
0200
0000
0000
0000
1300
0000
0020
0000
,
0000
0000
0130
0001
1000
0000
0010
0000
0200
0000
0000
0000
0302
0000
0000
0000
,
0023
0000
0000
0000
0130
0000
1000
0000
0001
0010
0100
1000
0001
0010
0100
1000
,
0020
0030
0000
0000
0000
0000
0000
0000
0000
0000
0000
0000
0000
0000
0000
0000
0000
0000
0000
0000
0000
0000
0000
0000
0110
0000
0000
0000
0000
0000
0000
0000
0000
0000
0000
0000
0000
0000
0000
0000
0000
0000
0000
0000
0000
0000
0000
0000
0000
0000
0000
0000
0000
0000
0000
0000
0000
0000
0000
0000
0000
0000
0000
0000
0000
0000
0000
0000
0000
0000
0000
0000
0100
0000
0000
0000
0000
0000
0000
0000
0000
0000
0000
0000
0000
0000
0000
0000
0000
0000
0000
0000
0000
0000
0000
0000
0001
0000
0000
0000
0000
0000
0000
0000
0000
0000
0000
0000
0000
0000
0000
0000
0000
0000
0000
0000
0000
0000
0000
0000
1001
0000
0000
0000
0000
0000
0000
0000
0000
0000
0000
0000
0000
0000
0000
0000
0000
0000
0000
0000
0000
0000
0000
0000
1000
0000
0000
0000
0000
0000
0000
0000
0000
0000
0000
0000
0010
0000
0000
0000
0000
0000
0000
0000
0000
0000
0000
0000
0100
0000
0000
0000
0000
0000
0000
0000
0000
0000
0000
0000
0000
0000
0000
0000
0000
0000
0000
0000
0000
0000
0000
0000
,
0010
0000
1000
0000
0100
0000
0001
0100
0000
0100
1000
0000
0010
0000
0100
0000
,
1000
0100
1000
0000
0100
0001
0100
0000
0010
0100
0010
0000
1000
0000
0001
0000
,
1000
0100
0010
0000
0011
0000
1100
0000
0000
0000
1000
0000
0010
0100
0001
0010
,
0100
1000
0001
0000
1000
0010
0001
0000
0010
0000
1000
0000
0001
0010
1000
0000
,
0010
0000
0001
0000
1000
0000
0010
0100
0000
0100
0001
0000
1000
0100
0010
0000
,
0100
0000
1100
0000
1000
0010
0100
0000
1000
0000
0100
0000
0001
0010
0100
0000
,
0001
0000
0100
0000
1000
0010
0100
0000
0010
1000
0001
0010
0100
0010
0100
1000
,
0010
0100
0001
0000
0010
0100
0001
0000
0100
0000
1000
0000
0010
0100
1000
0000
,
0100
0000
0010
0000
1000
0000
0001
0100
0000
0100
1000
0000
0100
0000
0001
0000
,
1000
0000
0100
0000
0010
0100
0010
0000
0001
1000
0001
0000
0100
0000
1000
0000
,
0100
0000
0001
0000
1000
0000
1001
0000
0001
0010
0100
0000
1000
0000
0001
0010
,
0100
1000
0010
0000
0010
0000
0100
0001
0000
0100
0001
0000
1000
0100
0001
0100
,
1000
0001
0010
0000
0010
0000
0100
1000
0000
0100
1000
0000
0001
0100
1000
0100
,
0001
0010
0200
0000
1000
0000
0010
0000
1300
0010
0200
0000
0001
0000
0010
0000
,
0301
0010
0200
0000
1000
0000
0010
0000
1300
0010
0000
0100
0001
0000
1000
0000
,
0010
0000
0100
0001
0010
0100
1000
0001
0010
0100
1000
0001
0010
0100
1000
0001
,
0010
0100
1100
0000
0000
1000
0010
0000
0100
0000
0101
0000
0000
0000
0110
0000
,
1001
0000
0001
0010
0000
0100
1000
0000
1100
0000
1001
0000
0101
0000
0110
0000
,
1001
0002
0100
0023
1000
0230
1000
0320
,
1000
0000
0032
0000
0100
0000
0023
0000
2030
0000
3001
0010
0100
1000
0010
0000
,
0100
0000
0001
0010
0000
0100
1000
0000
1010
0000
0010
0100
0000
0000
0110
0000
,
1001
0000
1000
0010
0000
0100
0001
0000
0011
0000
0010
0100
0000
1000
0001
0000
,
1001
0000
1000
0000
0010
0000
0200
0000
0302
0000
0023
0000
0230
0000
1300
0010
,
0000
1000
0001
0000
0100
0001
0010
0000
0001
0010
0100
0000
0010
0100
1000
0000
,
0001
0000
1001
0000
1000
0010
0100
0000
0001
0010
0100
0000
1000
0010
0100
0000
,
0001
0010
0100
0000
1000
0010
0100
0000
0001
0010
0100
0000
1000
0010
0100
0000
,
0001
0010
0100
0000
1000
0000
1000
0010
0000
0010
0100
0000
0100
0001
0000
0010
,
0000
0010
0100
0000
0100
0000
1000
0000
0010
0000
0100
0001
0000
0110
0000
0000
;

//--------------- dance-single - ----------------
#NOTES:
     dance-single:
     :
     Challenge:
     17:
     0.959921,0.989102,0.288293,0.199588,1.175349,606,580,26,18,0,0,0.959921,0.989102,0.288293,0.199588,1.175349,606,580,26,18,0,0:
0000
0000
0000
0000
,
0000
0000
0000
0000
,
0002
0023
0230
2300
,
3002
0000
0000
0000
0000
0000
0000
0000
0203
0000
0000
0000
0310
0000
1000
0001
,
0010
0000
0100
0000
1000
0000
0001
0010
0100
0010
0001
0010
0100
1000
0001
0000
,
0100
0000
0010
1000
0100
0000
0010
0000
0100
1000
0001
0100
0001
1000
0010
0100
,
0210
0000
0000
0000
0320
0000
0000
0030
2000
0000
0000
0000
3002
0000
0000
0000
,
0023
0000
0000
0000
0130
0000
1000
0000
0002
0000
0000
0000
0103
0000
0010
1000
,
0001
0000
0010
0100
0001
0000
0100
0000
1000
0000
0010
0100
0000
1000
0100
0000
,
0010
1000
0100
0010
0100
1000
0100
0010
0001
0010
1000
0001
0100
1000
0100
0010
,
0001
0000
0100
0000
1000
0100
0000
0010
0100
0000
0001
0010
0000
0100
1000
0010
,
0100
0001
0010
0100
1000
0000
0010
0000
0100
0000
0001
1000
0000
0000
0110
0000
,
0001
0100
0010
0100
0001
0000
0100
0000
0110
0000
1000
0100
0010
0100
1000
0001
,
1000
0000
1000
0010
0100
0000
0100
0001
0010
1000
0001
0100
1000
0000
0001
0000
,
0101
0000
0100
0000
0010
0100
0000
0001
0010
0000
0100
0001
0000
0100
1000
0001
,
0100
0000
0010
0000
1000
0000
0001
0100
1000
0000
0100
0001
0010
0100
1000
0010
,
0001
0010
0100
0001
0010
0000
0100
0000
1100
0000
1000
0010
0100
0000
0010
1000
,
0001
0010
1000
0010
0100
1000
0010
0001
0010
0100
0001
0010
0100
1000
0001
0100
,
1000
0100
0001
0010
0100
1000
0001
0000
,
1000
0000
0100
0010
0000
0000
0001
0000
1000
0000
0010
0100
0000
0000
0001
0000
,
1000
0010
0001
1000
0001
0010
0200
0000
,
0302
0000
0000
0000
0013
0100
1000
0001
2000
0000
0000
0000
3020
0000
0000
0000
,
0130
0001
0010
0100
1000
0001
0100
0000
,
0010
0000
0000
0010
0000
0000
0010
1000
0001
0000
0000
0000
0010
0000
0100
0000
,
0110
0000
0000
0000
0010
0001
1000
0000
0001
0100
1000
0100
0010
0001
1000
0100
,
0020
0030
0000
0000
0000
0000
0000
0000
0000
0000
0000
0000
0000
0000
0000
0000
0000
0000
0000
0000
0000
0000
0000
0000
1000
0000
0000
0000
0000
0000
0000
0000
0000
0000
0000
0000
0000
0000
0000
0000
0000
0000
0000
0000
0000
0000
0000
0000
0001
0000
0000
0000
0000
0000
0000
0000
0000
0000
0000
0000
0010
0000
0000
0000
0000
0000
0000
0000
0000
0000
0000
0000
0100
0000
0000
0000
0000
0000
0000
0000
0000
0000
0000
0000
0000
0000
0000
0000
0000
0000
0000
0000
0000
0000
0000
0000
0010
0000
0000
0000
0000
0000
0000
0000
0000
0000
0000
0000
0000
0000
0000
0000
0000
0000
0000
0000
0000
0000
0000
0000
1000
0000
0000
0000
0000
0000
0000
0000
0000
0000
0000
0000
0010
0000
0000
0000
0000
0000
0000
0000
0000
0000
0000
0000
0001
0000
0000
0000
0000
0000
0000
0000
0000
0000
0000
0000
0000
0000
0000
0000
0000
0000
0000
0000
0000
0000
0000
0000
1000
0000
0000
0000
0000
0000
0000
0000
0000
0000
0000
0000
0010
0000
0000
0000
0000
0000
0000
0000
0000
0000
0000
0000
,
0001
0010
0100
1000
0100
0001
0010
1000
0000
0010
0001
1000
0010
0100
1000
0100
,
0010
0000
0110
0000
0100
0001
0010
0000
1000
0010
0100
1000
0010
0100
1000
0100
,
0001
0000
0011
0000
1100
0000
0100
1000
0001
0100
1000
0100
0001
0010
1000
0010
,
0001
0100
0010
0000
0100
0001
1000
0000
1100
0000
0100
1000
0001
0010
1000
0000
,
0001
0000
0100
0000
0010
0001
1000
0010
0000
0100
1000
0001
0010
0100
1000
0000
,
0100
0000
0110
0000
0010
1000
0001
1000
0100
0000
0010
0001
1000
0001
0100
0010
,
0001
0000
0011
0000
0010
0100
0001
0000
0010
0100
0001
0100
1000
0010
0001
0000
,
0010
1000
0001
0000
0010
0100
1000
0000
0001
0100
1000
0100
0001
0000
1000
0010
,
0001
0010
1000
0000
0001
0010
0100
1000
0000
0001
0100
0010
0001
1000
0100
0000
,
0010
1000
0100
0000
1000
0100
0001
0000
0100
0010
0001
1000
0010
0001
1000
0000
,
0100
0001
0010
0000
0100
1000
0010
0000
0001
0010
0100
0001
1000
0000
0001
0010
,
0100
1000
0010
0000
0010
1000
0100
0000
0110
0000
0010
0001
1000
0010
0100
0000
,
0010
1000
0001
0000
0100
0001
0010
0000
0010
0001
0100
0010
1000
0001
0010
0000
,
0100
1000
0001
0000
0100
0001
1000
0000
0100
0000
1000
0100
0001
0100
0010
0100
,
1000
0010
0002
0000
1003
0100
0010
0100
0001
0010
0100
0010
1000
0010
0001
0000
,
0100
0000
0010
0000
0100
0000
0010
0000
0000
1000
0000
0000
0001
0000
0000
0010
0000
0000
0100
0000
0000
1000
0000
0000
0001
0000
0000
0010
0000
0000
0100
0000
0000
1000
0000
0000
0001
0000
0000
0010
0000
0000
0100
0000
0000
1000
0000
0000
,
0001
0010
0110
0000
0000
0001
0010
0000
1100
0000
1000
0010
0000
0000
0110
0000
,
0101
0000
0001
0010
0000
0100
1000
0000
0110
0000
1000
0001
0100
0000
0110
0000
,
1001
0000
0001
0010
1000
0010
0001
0000
1000
0000
0001
0100
1000
0100
0001
0000
,
1000
0000
0001
0000
0100
0010
0100
0000
0010
1000
0010
0100
0001
0010
0100
1000
,
0010
1000
0100
0010
0000
0001
0100
0000
1010
0000
1000
0001
0000
0000
0011
0000
,
1100
0000
1000
0010
0000
0100
0001
0000
0011
0000
0010
0100
0000
1000
0001
0000
,
0100
0000
0110
0000
0010
1000
0100
0000
0001
0100
1000
0010
0001
0010
0100
0000
,
0010
1000
0001
0000
0001
0010
0100
0000
0100
1000
0010
0100
0001
0100
0010
1000
,
0001
0000
0011
0000
0010
0100
1000
0000
0001
0100
1000
0001
0000
1000
0100
0000
,
0001
1000
0100
0000
0001
0100
1000
0000
0001
1000
0001
0100
0000
1000
0100
0001
,
1000
0001
0010
0000
0100
0000
0010
0001
0000
0001
1000
0000
1000
0010
0000
0100
,
0000
0001
0010
0000
0100
0000
1000
0000
0001
0000
0100
0010
0000
1000
0000
0000
,
0001
0010
0000
0000
0000
0000
0000
0000
0000
0000
0000
0000
0000
0000
0000
0000
;
