#TITLE:乗ってけ!ジャパリビート;
#SUBTITLE:;
#ARTIST:どうぶつビスケッツ;
#TITLETRANSLIT:NOTTEKE! JAPARIBEAT;
#SUBTITLETRANSLIT:;
#ARTISTTRANSLIT:Doubutsu Biscuits;
#GENRE:ANIME;
#CREDIT:;
#MUSIC:NOTTEKE! JAPARIBEAT.ogg;
#BANNER:NOTTEKE! JAPARIBEAT.png;
#BACKGROUND:NOTTEKE! JAPARIBEAT-bg.png;
#CDTITLE:;
#SAMPLESTART:47.680;
#SAMPLELENGTH:16.119;
#SELECTABLE:YES;
#OFFSET:0.204;
#BPMS:0.000=134.000;
#STOPS:;
#BGCHANGES:0.500=NOTTEKE! JAPARIBEAT.avi=1.000=0=0=0=StretchNoLoop====,
99999.000=-nosongbg-=1.000=0=0=0=StretchNoLoop====
;
#FGCHANGES:;

//--------------- dance-single - ----------------
#NOTES:
     dance-single:
     :
     Beginner:
     3:
     0,0,0,0,0:
0000
0000
0000
0000
,
0000
0000
0000
0000
,
0001
0000
0001
0000
,
1000
0000
1000
0000
,
0010
0000
0010
0000
,
0100
0100
0200
0300
,
1001
0000
0100
0000
,
1001
0000
0010
0000
,
1001
0000
1000
0000
,
0001
0001
1000
1000
,
0010
0000
0010
0000
,
0100
0000
0100
0000
,
0001
0000
0001
0000
,
1000
0000
1000
0000
,
1001
0000
0100
0000
,
1001
0000
0010
0000
,
1001
0000
0001
0000
,
1000
0000
0010
0000
,
0100
0000
0100
0000
,
0010
0000
0010
0000
,
1000
1000
0001
0001
,
1001
0000
1001
0000
,
2000
0000
3000
0000
,
0002
0000
0003
0000
,
0200
0000
0300
0000
,
0020
0000
0030
0000
,
1000
0000
0001
0000
,
1000
0000
0001
0001
,
0001
0000
1000
1000
,
1000
0000
0001
0000
,
1000
0000
0010
0000
,
0100
0000
0010
0010
,
0010
0000
0100
0100
,
0100
0000
0010
0000
,
0100
0000
0001
0000
,
1000
0000
0001
0001
,
0001
0000
1000
1000
,
1000
0000
0001
0000
,
1000
0000
0010
0000
,
0100
0000
0010
0010
,
0010
0000
0100
0100
,
0100
0000
1001
0000
,
0110
0000
2002
0000
,
3003
0000
1001
0000
,
0110
0000
0001
0001
,
0001
0000
1000
1000
,
1000
0000
0001
0000
,
0001
0000
1000
0000
,
1000
0000
0010
0000
,
0010
0000
0100
0100
,
0200
0300
0000
0000
;

//--------------- dance-single - ----------------
#NOTES:
     dance-single:
     :
     Easy:
     6:
     0,0,0,0,0:
0000
0000
0000
0000
,
0001
0100
0001
1000
,
0001
0001
1000
1001
,
0100
0100
0010
1001
,
0001
1000
0001
1001
,
0001
0000
0000
0000
0000
0000
1000
0000
0000
0000
0000
0000
0010
0000
0000
0000
0000
1001
0000
0000
0000
0000
0000
0000
,
1001
0100
0010
0001
,
1001
0010
0100
1000
,
1001
2000
3002
2003
,
3002
2003
3020
0130
,
0001
0100
0001
0100
,
0010
0010
1000
0100
,
1000
1000
0001
0001
,
0000
0110
0000
0000
2002
0000
3003
0000
,
1001
0001
0100
0010
,
1001
1000
0100
0010
,
1001
0002
2003
3002
,
2003
3002
0203
0320
,
1030
0100
0010
0010
,
0001
0100
0010
0010
,
1000
1000
0001
0001
,
0010
0000
0000
0000
0100
0000
0000
0000
0010
0000
0000
1001
0000
0000
0000
0000
,
0001
0100
1000
0100
,
0002
0000
0000
0000
2003
0000
0000
3000
,
1000
0100
0001
0100
,
1000
1001
1001
2000
,
3002
2003
3002
2003
,
3200
0320
0031
1001
,
0001
1000
0100
0010
,
0001
0000
1000
0000
0000
1001
0000
0000
,
0001
1000
0100
1000
,
0001
0000
0100
0000
0000
1001
0000
0000
,
0001
0000
1000
0000
0000
1001
0000
0000
,
1000
0100
0001
0100
,
1000
0100
1000
0001
,
0001
1000
1000
0001
,
0100
0000
0010
0000
0000
1001
0000
0000
,
1000
0000
0001
0000
0000
1001
0000
0000
,
0100
0000
0010
0000
0000
1001
0000
0000
,
0001
0000
0010
0000
0000
0110
0000
0000
,
0100
0000
0010
0000
0000
0110
0000
0000
,
1000
0001
1001
0000
,
0100
0010
0001
1000
,
0001
1000
1100
0000
,
0011
0001
0002
2003
,
3002
2003
3002
2003
,
3001
1001
1000
1000
,
0001
1001
0100
0100
,
0010
1001
1000
0001
,
1000
1001
1000
0001
,
0010
0000
0000
0000
0000
1001
0000
0000
0000
0000
0000
0000
0000
0000
0000
0000
0000
0000
0000
0000
0000
0000
0000
0000
;

//--------------- dance-single - ----------------
#NOTES:
     dance-single:
     :
     Medium:
     12:
     0,0,0,0,0:
0000
0000
0000
0000
,
0001
0000
0001
0000
0100
0000
0000
0001
0000
0000
1000
0000
1000
0000
0000
0000
,
0001
0000
0100
0000
0001
0000
0100
0000
0010
0000
0000
1001
0000
0000
0000
0000
,
1000
0000
0100
0000
1000
0000
0100
0000
0010
0000
0000
1001
0000
0000
1001
0000
,
0001
0000
0100
0000
1000
0000
0100
0000
0001
0000
0000
0101
0000
0000
1001
0000
,
0001
0000
0000
0001
0000
0000
1000
0000
0000
1000
0000
0000
0100
0000
0000
0000
0000
1001
0000
0000
0000
0000
0000
0000
,
1001
0000
1000
0100
1000
0001
0000
0000
,
0110
0000
0100
0010
0100
1000
0100
0000
,
1100
0000
0000
1000
0100
1000
0001
0100
0001
1000
0100
1000
,
0001
0100
0001
0100
0010
1000
0010
1000
,
0000
0100
0001
0100
1000
0100
1000
0001
,
0000
0001
0100
1000
0100
0001
0010
0100
,
1000
0000
0000
1000
0010
0100
0001
0010
,
0000
0110
0000
2000
0002
0000
0000
3003
,
1001
0000
0001
0100
0001
0010
0100
0000
,
0110
0000
0100
0001
0100
1000
0000
0000
,
1010
0000
0000
0010
0000
0000
1000
0000
0010
0000
1000
0000
0001
0000
0010
0000
0001
0000
1000
0000
0010
0000
1000
0000
,
0001
0100
0010
1000
0100
0010
0001
1000
,
0000
0000
0000
0001
0000
0000
0100
0000
0000
0010
0000
0000
0100
0000
0000
0001
0000
0010
0000
0000
0010
0100
0000
0000
,
0000
0000
0000
1000
0000
0000
0100
0000
0000
0010
0000
0000
0100
0000
0000
1000
0000
0010
0000
0000
0010
0100
0000
0000
,
0001
0001
1000
1000
0010
0010
0100
0100
,
0001
0000
1000
0000
0001
0000
1000
0000
1001
0000
0000
1001
0000
0000
1000
0000
,
0001
1000
0100
0010
0100
0000
0100
1000
,
0001
0000
1001
0000
0000
0001
0000
0000
0010
0000
0100
1000
0000
0000
1000
0000
,
0001
1000
0010
0100
0001
1000
0010
0010
,
1001
0000
0001
1000
0001
0000
1001
0000
1001
0000
0000
0000
2000
0000
0000
0000
,
3002
0023
0230
2300
,
3200
0320
0031
1001
,
0101
0000
0000
0000
0000
0000
1000
0000
0100
0000
1000
0000
0000
0000
0000
0100
0000
0000
0000
0000
0000
0010
0000
0000
,
0011
0000
0001
1000
0010
1001
0000
0001
,
0100
0010
1000
0001
0000
1000
0000
1000
,
0010
0100
0010
1000
0000
1001
0000
1000
,
0100
0010
0010
0001
0000
0100
0000
0001
,
1000
0100
0100
0000
0110
0000
0010
0001
,
1000
0001
0100
1000
0100
0000
1001
0000
,
0001
0100
0001
1000
1001
0000
0011
0000
,
1100
0000
0000
0000
0000
0000
0010
0000
0001
0000
0010
0000
0000
0000
0000
1100
0000
0000
0000
0000
0000
0001
0000
0000
,
1001
0000
1000
0001
0100
1001
1000
0100
,
0010
0001
0010
0100
0000
1000
0001
1000
,
0001
0000
0001
0100
0010
1001
0000
0001
,
0100
0100
1000
0100
0000
0010
0100
0010
,
0100
1000
0001
0000
1001
0000
0000
0001
,
0100
0010
1000
0001
0011
0000
1100
1000
,
0001
0000
0001
1000
0001
0000
0000
0100
,
0010
0100
0010
0100
0002
0000
2003
0000
,
3002
2003
3002
2003
,
3001
0100
1001
0000
1000
0100
1000
0100
,
0010
0000
0000
1001
0000
0000
0000
0000
0001
0000
0100
0000
0001
0000
0100
0000
,
0010
0000
0000
1001
0000
0000
1001
0000
1000
0000
0100
0000
0001
0000
0100
0000
,
1000
0000
0000
1100
0000
0000
1001
0000
1000
0000
1000
0000
0001
0000
0001
0000
,
0100
0000
0000
0000
0000
1001
0000
0000
0000
0000
0000
0000
0000
0000
0000
0000
0000
0000
0000
0000
0000
0000
0000
0000
;

//--------------- dance-single - ----------------
#NOTES:
     dance-single:
     :
     Hard:
     15:
     0,0,0,0,0:
0000
0000
0000
0000
,
1100
0000
1100
0000
0101
0000
0001
0100
0000
0001
1000
0000
1000
0001
1000
0100
,
0010
0000
0001
0000
0010
0000
0100
0000
1000
0000
0001
1000
0000
0001
0010
0001
,
0010
0000
1001
0000
1000
0010
0000
0010
0100
0000
0001
1000
0000
1000
0100
0010
,
0001
0000
1000
0000
0001
0000
1000
0000
0001
0000
0010
0100
0000
0000
1000
0000
,
0001
0000
0000
0001
0000
0000
1000
0000
0000
1000
0000
0000
0100
0000
0010
0001
0000
1001
0000
0000
0000
0000
0000
0000
,
0011
0000
0000
0000
0000
0000
0100
0000
0000
0000
0000
0000
0010
0000
0000
0000
0001
0000
0100
0000
0000
0000
0001
0000
0100
0000
0000
0000
0010
0000
0100
0000
0000
0000
0110
0000
0000
0000
0000
0000
1000
0000
0100
0000
0000
0010
0000
0000
,
0100
0000
0000
1000
0000
0000
0010
0000
0000
0000
0000
0000
0200
0000
0000
0000
0000
0000
0000
0000
0301
0000
0000
0000
0100
0000
0000
0000
0000
0000
1000
0000
0000
0100
0000
0000
0010
0000
0000
0000
1000
0000
0100
0000
0000
0000
1000
0000
,
0100
0000
0000
0011
0000
0000
0001
0000
0010
0000
0001
0000
1000
0000
0100
0000
1000
0000
0001
0000
0100
0000
0001
0000
,
1001
0000
0001
0010
0000
0000
0001
0000
0010
0001
0000
0000
1000
0000
0010
1000
0000
0000
0010
0000
1000
0010
0000
0000
,
2000
0100
0001
0010
3002
0100
1000
0010
,
2003
0010
0001
0100
3002
0010
1000
0100
,
1003
0000
0100
1000
0000
1000
0001
0000
0001
0100
0000
0100
0010
0000
0010
1000
0000
1000
0001
0000
0001
0010
0000
0010
,
0100
0000
0000
0220
0000
0000
0330
0000
0000
0100
0000
0000
2002
0000
0000
3003
0000
0001
1000
0000
1000
0001
0000
0000
,
1000
0000
0000
0000
0000
0000
0000
0000
0000
0100
0000
0000
1000
0000
0000
0000
0000
0000
0000
0000
0000
0000
0000
0000
0001
0000
0000
0000
0000
0000
0000
0000
0001
0000
0000
0000
0100
0000
0000
0000
0000
0000
0000
0000
0000
0000
0000
0000
0100
0000
0000
0000
0000
0000
0001
0000
0000
0000
0000
0000
0010
0000
0000
0000
0000
0000
0100
0000
0000
0000
0000
0000
1000
0000
0000
0000
0000
0000
0000
0000
1000
0000
0000
0000
0100
0000
0000
0000
0000
0000
0000
0000
0000
0000
0000
0000
,
0010
0000
0000
0000
0000
0000
0001
0000
0000
0000
0000
0000
0010
0000
0000
0000
0000
0000
0000
0000
0000
0000
0000
0000
0100
0000
0000
0000
0000
0000
0000
0000
0000
0000
0000
0000
1000
0000
0000
0000
0100
0000
0000
0000
0000
0000
0000
0000
1000
0000
0000
0000
0000
0000
0001
0000
0000
0000
0000
0000
1000
0000
0000
0000
0000
0000
0001
0000
0000
0000
0000
0000
0000
0000
0000
0000
0000
0000
0000
0000
0100
0000
0000
0000
0010
0000
0000
0000
0000
0000
0000
0000
0000
0200
0000
0000
,
0000
0000
0000
0301
0000
0000
1000
0000
0010
0000
1000
0000
0010
0000
0100
0000
0010
0000
0100
0000
0001
0000
1000
0000
,
0001
0000
1000
0100
0000
0000
1000
0000
0001
0100
0000
0000
1001
0000
0001
0100
0000
0001
0010
0000
0001
0100
0000
0001
,
0010
0000
0000
0100
0000
0000
1000
0000
0000
0100
0000
0000
0010
0000
0000
0001
0000
0010
0000
0000
0010
0100
0000
0000
,
0100
0000
0000
1100
0000
0000
0100
0000
0000
0101
0000
0000
0010
0000
0001
1000
0000
0100
0000
0000
0100
0010
0000
0000
,
0001
0000
0100
1000
0000
0000
0001
0000
0010
1000
0000
0000
0001
0000
1000
0001
0000
0001
1000
0000
1000
0001
0000
0001
,
0010
0000
0000
0110
0000
0000
0110
0000
0000
0110
0000
0000
1001
0000
0001
1000
0000
0010
0000
0000
0100
0010
0000
0100
,
0001
0000
0000
1000
0000
1000
0100
0000
0000
0001
0000
0001
0100
0000
0000
1000
0000
1000
0010
0000
0000
0100
0000
0000
,
0100
0000
0000
0000
0000
0000
0000
0000
1001
0000
0000
0000
0000
0000
0000
0000
0000
0000
0000
0000
0000
1000
0000
0000
0100
0000
0000
0000
0000
0000
0000
0000
0001
0000
0000
0000
0000
0000
0000
0100
0000
0000
0000
0000
0000
1000
0000
0000
0000
0000
0000
0000
0000
0010
0000
0000
1000
0000
0000
0100
0000
0000
1000
0000
,
0001
0000
0000
1000
0000
0000
0010
0000
0000
0100
0000
0000
0001
0000
0000
0010
0000
0000
0010
0000
0100
0010
0000
0000
,
1001
0000
0000
0000
0000
0000
0001
0000
0000
1000
0000
0000
0001
0000
0000
0000
0000
0000
1001
0000
0000
0000
0000
0000
1001
0000
0000
0000
0000
0000
0000
0000
1000
0000
0000
0000
1000
0000
0000
0000
2000
0000
0000
0000
0000
0000
0000
0000
,
3002
0023
0230
2300
,
3200
0000
0320
0000
0031
1000
0110
0010
,
0101
0000
0000
0001
0000
0000
1000
0000
0100
0000
0002
0000
0000
0000
0000
0103
0000
0000
1000
0000
0000
0001
0000
0000
,
1001
0000
0000
0010
0000
0000
0100
0000
0001
1000
0000
0001
0000
0000
0000
1001
0000
0000
1000
0000
1000
0100
0000
0100
,
0010
0000
0010
0001
0000
0001
1000
0000
1000
0010
0000
0110
0000
0000
0000
0110
0000
0000
0001
0000
0000
1000
0000
0000
,
1001
0000
0000
1000
0000
0000
0001
0000
0010
0100
0000
0010
0100
0000
0000
1001
0000
0000
0000
0000
0000
1001
0000
0000
,
0001
0000
0000
0000
0000
0000
1000
0000
0000
0100
0000
0000
1000
0000
0000
0000
0000
0000
0001
0000
0000
0000
0000
0000
0100
0000
0000
0000
0000
0000
0010
0000
0000
0000
0000
0000
1000
0000
0000
0000
0001
0000
0100
0000
0000
0000
0001
0000
,
1000
0000
0000
0000
0000
0000
0010
0000
0000
0000
0100
0000
0000
0000
0000
0000
0100
0000
0001
0000
0000
0000
0001
0000
0010
0000
0000
0000
0000
0000
0110
0000
0000
0000
0100
0000
1000
0000
0000
0000
0000
0000
0010
0000
0000
0100
0000
0000
,
0010
0000
1000
0001
0000
0100
0000
0000
0100
0010
0000
0010
0100
0000
0000
1001
0000
0000
1000
0000
0000
0001
0000
1000
,
0010
0000
0001
0010
0000
1000
0100
0000
0001
0100
0000
0100
1000
0000
0000
1001
0000
0000
0001
0000
1000
0000
0000
0000
,
1001
0000
0000
0000
0000
0100
0010
0000
0001
0000
1000
0000
0000
0000
0000
1010
0000
0000
0000
0000
0000
0110
0000
0000
,
1001
0000
0000
0011
0000
0000
0100
0000
1000
0001
0000
0100
0001
0000
0000
0110
0000
0000
1000
0000
0000
0001
0000
0000
,
1000
0000
0100
0000
0010
0000
0100
0010
0000
0000
0011
0000
0010
0000
1100
0000
,
0100
0000
0000
0011
0000
0000
1001
0000
1000
0100
0000
1000
0001
0000
0000
1001
0000
0000
0001
0000
0000
0001
0000
0000
,
1000
0000
0000
1000
0010
0000
0100
0000
0010
1000
0000
0000
0001
0000
0000
0010
0000
0000
0011
0000
0010
0100
0000
0000
,
1100
0000
0000
0001
0000
0100
0001
0000
0000
1000
0000
0000
1001
0000
0000
0000
0000
0000
0000
0000
0000
0001
0100
0001
,
0100
0000
0000
0000
0000
0000
1010
0000
0000
1000
0001
0000
0101
0000
0000
0000
0000
0000
1100
0000
1000
0001
0000
0000
,
0010
0000
0000
0100
0000
1000
0010
0000
0010
0100
0000
0100
0001
0000
0000
0000
0000
0000
0000
0000
0000
0100
0000
0000
,
0010
0100
0010
0100
0002
0000
2003
0000
,
3002
2003
3002
2003
,
3001
0100
1001
0000
0010
1000
0010
0100
,
0001
0000
1000
0001
0000
1000
0010
1000
0010
0000
1001
0000
0001
0010
0000
0010
,
0100
0000
1000
0001
0000
0001
0100
0010
1000
0000
0001
0000
1000
0000
0001
0000
,
1000
0000
0010
0100
0000
0000
0001
0000
1000
0000
1000
0000
0001
0000
0001
0000
,
0100
0000
0010
1000
0000
2002
0000
0000
3003
0000
0000
0000
0000
0000
0000
0000
0000
0000
0000
0000
0000
0000
0000
0000
;

//--------------- dance-single - ----------------
#NOTES:
     dance-single:
     :
     Challenge:
     18:
     0.612715,0.463782,0,0,0,395,395,0,0,0,0,0.612715,0.463782,0,0,0,395,395,0,0,0,0:
0000
0000
0000
0000
,
1010
0000
0000
0000
0000
0000
1001
0000
0000
0000
0000
0000
0101
0000
0000
0000
0000
0000
0001
0000
0000
0010
0000
0000
0000
0000
0000
0010
0000
0000
0100
0000
0000
0000
0000
0000
1000
0000
0100
0000
0010
0000
0001
0000
1000
0000
0100
0000
,
0110
0000
1001
0000
0110
0000
1001
0000
0110
0000
1000
0010
0000
0001
0010
0100
,
0110
0000
1001
0000
0001
0010
0000
0010
0110
0000
1000
0001
0000
0001
0100
0010
,
1010
0000
0101
0000
1010
0000
0101
0000
0110
0000
1000
0001
0000
0000
0010
0000
,
0110
0000
0000
0110
0000
0000
0110
0000
0000
0110
0000
0000
1001
0000
0001
0010
0000
1100
0000
0000
0000
0000
0000
0000
,
0011
0000
0000
0000
0000
0000
0010
0000
0000
0000
0000
0000
0100
0000
0000
0000
1000
0000
0100
0000
0000
0000
1000
0000
0010
0000
0000
0000
0100
0000
0001
0000
0000
0000
0011
0000
0000
0000
0000
0000
0001
0000
0010
0000
0000
0100
0000
0000
,
0010
0000
0000
0001
0000
0000
0010
0000
0000
0000
0000
0000
0100
0000
1000
0000
0010
0000
0000
0000
0110
0000
0000
0000
0100
0000
0001
0000
0000
0000
0010
0000
0000
0001
0000
0000
1000
0000
0000
0000
0100
0000
0010
0000
0000
0000
0100
0000
,
1000
0000
0000
1001
0000
0000
0011
0000
1010
0000
1100
0000
0101
0000
0011
0000
0101
0000
1100
0000
1010
0000
0110
0000
,
1001
0000
0001
0010
0000
0000
0110
0000
0010
0001
0000
0000
0110
0000
0010
1000
0000
0000
0110
0000
0100
1000
0000
0000
,
0210
1000
0010
0001
0302
0100
1000
0010
,
0023
0000
0000
0001
0000
0000
0130
0000
0100
1000
0000
0100
0010
0000
0100
1000
0000
0100
0010
0000
0100
1000
0000
0000
,
1001
0000
0001
0100
0000
0010
0100
0000
1000
0100
0000
0001
0010
0000
0100
0010
0000
1000
0010
0000
0001
1000
0000
0010
,
0100
0000
0000
0120
0000
0000
1000
0000
0000
0130
0000
0000
2001
0000
0000
3001
0000
0001
0010
0000
0010
0100
0000
0000
,
1000
0000
0000
0100
0000
0000
0010
0000
0000
0001
0000
0000
0010
0000
0000
0000
0000
0000
0000
0000
0000
0000
0000
0000
0110
0000
0000
0000
0000
0000
0000
0000
1000
0000
0000
0000
0010
0000
0000
0000
0000
0000
0000
0000
0000
0000
0000
0000
0100
0000
0000
0000
0000
0000
0001
0000
0000
0000
0000
0000
0010
0000
0000
0000
0000
0000
1000
0000
0000
0000
0000
0000
0001
0000
0000
0000
0000
0000
0000
0000
0001
0000
0000
0000
0100
0000
0000
0000
0000
0000
0000
0000
0000
0000
0000
0000
,
0010
0000
0000
0000
0000
0000
0001
0000
0000
0000
0000
0000
1001
0000
0000
0000
0000
0000
0000
0000
0000
0000
0000
0000
0110
0000
0000
0000
0000
0000
0000
0000
0000
0000
0000
0000
1000
0000
0000
0000
0010
0000
0000
0000
0000
0000
0000
0000
0101
0000
0000
0000
0000
0000
1001
0000
0000
0000
0000
0000
1100
0000
0000
0000
0000
0000
1001
0000
0000
0000
0000
0000
0000
0000
0000
0000
0000
0000
0000
0000
0001
0000
0000
0000
0010
0000
0000
0000
0000
0000
0000
0000
0000
0100
0000
0000
,
0000
0000
1000
0000
0000
0000
0000
0001
0000
0000
0000
0000
1000
0000
0000
0000
0000
0000
0000
0000
0000
0000
0000
0000
1001
0000
0000
0000
0000
0000
0000
0000
1100
0000
0000
0000
0000
0000
0000
0000
0101
0000
0000
0000
0000
0000
0000
0000
1001
0000
0000
0000
0000
0000
0000
0000
0011
0000
0000
0000
0000
0000
0000
0000
1010
0000
0000
0000
0000
0000
0000
0000
0110
0000
0000
0000
0000
0000
0000
0000
0101
0000
0000
0000
0000
0000
0000
0000
1010
0000
0000
0000
0000
0000
0000
0000
,
1001
0000
0001
0010
0000
0000
0110
0000
0100
1000
0000
0000
1001
0000
1000
0010
0000
0100
0001
0100
0010
1000
0100
0010
,
0001
0000
0000
0011
0000
0000
0010
0000
0000
0100
0000
0000
1100
0000
0000
0001
0000
0011
0000
0000
0001
1000
0000
0000
,
0110
0000
0000
1001
0000
0000
0100
0000
0000
0001
0000
0000
1010
0000
0100
0001
0000
1001
0000
0000
0010
0100
0000
0000
,
1100
0000
0010
0001
0000
0000
0101
0000
0010
1000
0000
0000
1001
0000
1000
0001
0000
0001
1000
0000
1000
0001
0000
0001
,
0010
0000
0000
0110
0000
0000
0110
0000
0000
0110
0000
0000
1001
0000
0001
1000
0000
1001
0000
0000
0001
0010
0100
1000
,
0001
0000
0000
0011
0000
0010
0100
0000
0000
1001
0000
1000
0001
0000
0000
0101
0000
0100
0010
0000
0000
0110
0000
0000
,
0101
0000
0000
0000
0000
0000
0000
0000
0001
1000
0000
0000
0000
0000
0000
0000
0000
0000
0000
0000
0000
1000
0000
0000
0100
0000
0000
0000
0000
0000
0000
0000
0011
0000
0000
0000
0000
0000
0000
1000
0000
0000
0000
0000
0000
1001
0000
0000
0000
0000
0000
0000
0000
0010
0000
0000
0001
0000
0000
0100
0000
0000
0001
0000
,
0101
0000
0000
1010
0000
0000
0110
0000
0000
0101
0000
0000
1001
0000
0000
1010
0000
0000
0110
0000
0100
0010
0000
0000
,
1001
0000
0011
1100
0011
0000
1001
0000
1001
0000
0000
1000
0100
1000
0100
1000
,
0100
0000
0000
0000
0010
0000
0000
0000
0100
0000
0000
0000
0010
0000
0000
0000
0100
0000
0000
0000
0010
0000
0000
0000
0100
0000
0000
0000
0000
0000
1000
0000
0000
0000
0000
0000
0001
0000
0000
0000
0000
0000
1000
0000
0000
0000
0000
0000
0100
0000
0000
0000
0000
0000
0000
0000
0000
0000
0000
0000
0000
0000
0000
0000
0000
0000
0000
0000
0000
0000
0000
0000
1000
0000
0000
0100
0000
0000
0010
0000
0000
0001
0000
0000
1000
0000
0000
0100
0000
0000
0010
0000
0000
0001
0000
0000
,
1000
0100
0010
0001
1000
0100
0010
0001
1000
0100
0010
0001
1000
0100
0010
0001
1000
0000
0000
0000
0001
0000
0000
0000
0110
0000
0000
0000
0010
0000
0000
0000
,
1010
0000
0000
0001
0000
0000
0011
0000
1001
0000
2200
0000
3300
0000
0000
0100
0000
0000
0010
0000
0000
0001
0000
0000
,
1001
0000
0000
0010
0000
0000
1000
0000
0100
0010
0001
1000
0000
0000
0000
0110
0000
0000
1000
0000
0100
0001
0000
0001
,
1000
0000
1000
0010
0000
0010
0100
0000
0100
1000
0000
1001
0000
0000
0000
0011
0000
0000
1000
0000
0000
0101
0000
0000
,
1000
0000
0000
1001
0000
0000
0001
0100
0010
0100
0001
1000
0010
0000
0000
0110
0000
0000
1001
0000
0000
0100
0000
0000
,
0110
0000
0000
0000
0000
0000
0000
0000
0000
0000
0000
0000
0010
0000
0000
0000
0000
0000
0100
0000
0000
0001
0000
0000
1000
0000
0000
0000
0000
0000
0000
0000
0000
0000
0000
0000
0010
0000
0000
0000
0000
0000
0000
0000
0000
0000
0000
0000
1100
0000
0000
0000
0000
0000
0000
0000
0000
0000
0000
0000
0011
0000
0000
0000
0000
0000
0000
0000
0000
0000
0000
0000
1000
0000
0000
0000
0000
0000
0000
0000
0001
0000
0000
0000
0010
0000
0000
0000
0000
0000
0000
0000
0001
0000
0000
0000
,
1000
0000
0000
0000
0000
0000
0010
0000
0000
0000
0110
0000
0000
0000
0000
0000
0010
0000
1000
0000
0000
0000
1000
0000
0100
0000
0000
0000
0000
0000
0001
0000
0000
0000
0100
0000
1000
0000
0000
0000
0000
0000
0010
0000
0000
0100
0000
0000
,
0010
0000
0000
0000
1000
0000
0010
0000
0000
0000
0110
0000
0000
0000
0000
0100
0000
0000
0001
0000
0000
0000
1000
0000
1001
0000
0000
0000
0000
0000
0001
0000
0000
0000
0000
0000
1000
0000
0000
0000
0000
0000
1001
0000
0000
0000
0001
0000
,
0010
0000
0000
0000
0000
0000
0000
0000
0001
0000
0000
0000
1000
0000
0000
0000
0000
0000
0000
0000
0001
0000
0000
0000
0010
0000
0000
0001
0000
0000
0010
0000
0000
0100
0000
0000
1000
0000
0000
0100
0000
0000
1000
0000
0000
0100
0000
0000
0010
0000
0000
0000
0000
0000
0000
0000
0000
0000
0000
0000
0100
0000
0000
0000
0000
0000
0000
0000
0000
0000
0000
0000
0010
0000
0000
0000
0000
0000
0000
0000
1001
0000
0000
0000
0000
0000
0000
0000
0000
0000
0000
0000
0000
0000
0000
0000
,
1001
0000
0000
0000
0000
1000
0010
0000
0100
0000
0101
0000
0000
0000
0000
1010
0000
0000
0000
0000
0000
0110
0000
0000
,
1001
0000
0000
0001
0000
0000
0010
0000
0100
1000
0000
0100
0001
0000
0000
0110
0000
0000
0010
0000
0000
0001
0000
0000
,
1000
0000
1000
0000
0001
0000
0100
0010
0000
0000
1010
0000
0010
0000
0011
0000
,
0010
0000
0000
1010
0000
0000
1001
0000
0001
0100
0000
0010
1000
0000
0000
0110
0000
0000
1000
0000
0000
0010
0000
0000
,
0110
0000
0100
0001
0010
0000
0100
0000
1000
0001
0000
0000
0001
0000
0000
1001
0000
0000
0110
0000
0010
1000
0000
0000
,
0101
0000
0000
1010
0000
0100
0001
0000
0000
1000
0000
0000
1001
0000
0000
0000
0000
0000
0000
0000
0000
0001
0010
0100
,
1000
0000
0000
0000
0000
0000
1001
0000
0000
1000
0001
0000
0110
0000
0000
0000
0000
0000
1100
0000
1000
0001
0000
0000
,
0011
0000
0000
1100
0000
1000
0010
0000
0010
0100
0000
0100
1001
0000
0000
0000
0000
0000
1001
0000
0000
0100
0000
0000
,
1001
0010
1001
0100
0022
0033
2200
3300
,
0022
0033
1100
1001
0022
0033
2020
3030
,
0011
0000
0000
1000
0100
0010
0002
0000
0000
0003
0000
0000
0011
0000
0000
1100
0000
0000
0011
0000
0000
1100
0000
0000
,
1001
0000
0000
0000
0000
0000
0001
0000
0000
0000
0100
0000
0001
0000
0000
0010
0000
0000
0100
0000
0000
1000
0000
0000
0100
0000
0000
1000
0000
0000
0100
0000
0000
0010
0000
0000
0001
0000
0000
0010
0000
0000
0001
0000
0000
1000
0000
0000
,
0100
0000
0000
0010
0000
0000
0001
0000
0000
0010
0000
0000
0001
0000
0100
0000
0010
0000
0001
0000
0010
0000
0100
0000
0001
0000
0000
0010
0000
0000
0100
0000
0000
0010
0000
0000
1000
0000
0000
0010
0000
0000
1000
0000
0000
0001
0000
0000
,
0100
0001
0100
1000
0100
1000
0001
0100
0110
0000
0101
0000
0110
0000
1010
0000
,
0101
0000
0100
0010
0000
2002
0000
0000
3003
0000
0000
0000
0000
0000
0000
0000
0000
0000
0000
0000
0000
0000
0000
0000
;
