#TITLE:NEZUMI Scheme;
#SUBTITLE:;
#ARTIST:Calliope Mori x FAKE TYPE;
#TITLETRANSLIT:NEZUMI Scheme;
#SUBTITLETRANSLIT:;
#ARTISTTRANSLIT:Calliope Mori x FAKE TYPE;
#GENRE:POP;
#CREDIT:;
#MUSIC:NEZUMI Scheme.ogg;
#BANNER:NEZUMI Scheme.png;
#BACKGROUND:NEZUMI Scheme-bg.png;
#CDTITLE:;
#SAMPLESTART:39.396;
#SAMPLELENGTH:15.000;
#SELECTABLE:YES;
#OFFSET:-0.021;
#BPMS:0.000=128.000;
#STOPS:;
#BGCHANGES:3.500=NEZUMI Scheme.avi=1.000=0=0=0=StretchNoLoop====,
99999.000=-nosongbg-=1.000=0=0=0=StretchNoLoop====
;
#FGCHANGES:;

//--------------- dance-single - ----------------
#NOTES:
     dance-single:
     :
     Medium:
     11:
     0.450764,0.472033,0.473725,0.245322,0.016919,373,317,56,29,0,0,0.450764,0.472033,0.473725,0.245322,0.016919,373,317,56,29,0,0:
0000
0000
0000
0000
,
0000
0000
0000
0000
,
0000
0000
0000
0000
,
0000
0000
0000
0000
,
0000
0000
0000
0000
,
0100
1001
0010
1001
,
0001
0010
0100
1000
0001
0000
0100
0000
,
0010
1001
0100
1001
,
1000
0100
0010
0001
2000
0000
3002
0000
,
0103
0000
0010
1000
0001
0000
1100
0000
,
0001
0100
1000
0100
0010
0000
1001
0200
,
0000
0301
0001
1000
0100
0000
0010
0000
,
0001
0100
1000
0100
0010
1000
0100
0010
,
0120
0000
0000
0001
0000
0000
0130
0000
0210
0000
0000
0010
0000
0000
1300
0000
,
2001
0000
0000
0010
0000
0000
3001
0000
1002
0000
0000
0100
0000
0000
1003
0000
,
0000
0010
1000
0001
0010
0000
0011
0000
,
1000
0001
0101
0000
0001
1000
1100
0000
,
2000
0000
3020
0000
0130
0001
2000
0000
,
3002
0000
0023
0000
0130
1000
0002
0000
,
0203
0000
2300
0000
3100
0001
0020
0000
,
0230
1300
1001
0000
,
0101
0000
0010
1000
0001
0000
0010
0100
,
1000
0000
0001
0100
0010
0000
1001
0000
,
0011
0000
1100
0000
1010
0000
0100
0001
,
0010
0000
0100
1000
1001
0000
1001
0000
,
1100
0000
1000
0010
0100
0000
0010
1000
,
0001
0000
0010
0100
1000
0000
1001
0000
,
0001
0100
0001
0001
1000
0100
1000
1000
,
0110
0000
1001
0000
1100
0000
1000
0100
,
0010
1001
0100
1001
,
1000
0010
0100
0001
1000
0000
0001
0000
,
0100
1001
0010
1001
,
0001
0100
0010
1000
0001
0000
1000
0000
,
0001
0001
0100
0000
1000
1000
0100
0000
,
0001
1000
0001
1000
0010
0000
1001
0000
,
0011
0000
0010
1000
0010
0000
0002
0000
,
0103
1000
0100
0001
1000
0100
1001
0000
,
0001
1000
0010
0000
0100
0001
1000
0000
,
0001
0010
1000
0001
1000
0001
0200
0000
,
1300
0010
0100
0000
1000
0100
0001
0000
,
1000
0100
0001
1000
0010
0000
0110
0000
,
1000
0100
0100
0001
1000
0000
0001
1000
,
0010
0100
0010
0100
0001
0000
1000
0100
,
0000
0001
0100
1000
0020
0000
0230
0000
,
0302
2003
0002
0000
,
3003
0000
0000
0000
,
0101
0000
0001
0100
2000
0000
3001
0010
,
2000
0000
3001
0010
1000
0000
1001
0000
,
1010
0000
0101
0000
0011
0000
0001
1000
,
0100
0000
1000
0001
0101
0000
1010
0000
,
0002
0000
1003
0010
0002
0000
1003
0100
,
0002
0000
1003
0100
0001
0000
1001
0000
,
1000
0100
1000
1000
0001
0100
0001
0001
,
0110
0000
1001
0000
1100
0000
1000
0001
,
0101
0000
0110
0000
1001
0000
0001
1000
,
0010
0100
0110
0000
1001
0000
1000
0100
,
0001
0000
0110
0000
1001
0000
0001
0100
,
1000
0001
0110
0000
1001
0000
1000
0000
,
0001
0100
1000
0100
0010
1000
0100
0001
,
0100
0010
0001
1000
0110
0000
1001
0000
,
0001
0100
1000
0000
1000
0100
0001
0000
,
1000
0100
0001
0100
1000
0010
0100
0001
,
1000
0000
0000
0000
;

//--------------- dance-single - ----------------
#NOTES:
     dance-single:
     :
     Hard:
     14:
     0.68521,0.734274,0.625994,0.279159,0.562549,567,493,74,33,0,0,0.68521,0.734274,0.625994,0.279159,0.562549,567,493,74,33,0,0:
0000
0000
0000
0000
,
0011
0000
0000
0000
1001
0000
0000
0000
1100
0000
0000
0001
0000
0000
0010
0100
,
0010
0000
0001
0000
1000
0000
0010
0000
0100
0000
0001
0100
0001
0000
1000
0000
,
1010
0000
0000
0000
1001
0000
0000
0000
0101
0000
0000
1000
0000
0000
0010
0100
,
0010
0000
1000
0000
0001
0000
0010
0000
0100
1000
0100
1000
0001
0000
0100
0000
,
0101
0000
0000
0000
1001
0000
0000
0000
1010
0000
0000
0001
0000
0000
0100
0010
,
0100
0000
0001
0000
0010
0000
0100
0000
1000
0000
0001
0010
0001
0000
1000
0000
,
1100
0000
0000
0000
1001
0000
0000
0000
0011
0000
0000
1000
0000
0000
0010
0100
,
0010
0000
0000
1000
0000
0000
0100
0000
0000
0010
0000
0000
0001
0000
0100
0000
0001
0000
1000
0000
0100
0000
1000
0000
,
0010
0000
0010
0000
0100
0000
0100
0000
0001
1000
0000
0001
1000
0000
0010
0000
,
1000
0001
0000
1000
0001
1000
0000
0010
0100
0010
0100
0001
0000
0000
0001
0010
,
0000
0100
1000
0100
1000
0000
0001
0010
0100
0000
1100
0000
0110
0000
1100
0000
,
1001
0000
0001
0100
0001
0000
0100
0000
0010
1000
0010
1000
0010
0100
0001
0000
,
0011
0000
0010
0100
0000
0100
0010
0000
0001
0000
0100
0010
0000
0010
0100
0000
,
0001
0000
1000
0100
0000
0100
1000
0000
0010
0000
0100
0001
0000
0001
0010
0100
,
0000
0000
1000
0100
1000
0000
0001
0100
0001
0000
0010
0100
0000
1100
0000
0000
,
1000
0010
0100
0001
0000
0101
0000
0001
0010
0100
1000
0001
0000
1001
0000
0000
,
0002
0000
2003
3200
0000
0320
0032
0000
,
2003
0000
3002
0203
0000
0320
2030
3200
,
0320
0000
0230
2300
0000
3002
0203
0320
,
2030
0000
0000
3010
0000
0000
0100
0000
1001
0000
0000
0000
0000
0000
0000
0000
,
0201
0000
0000
0010
0000
0000
0310
1000
0002
0000
0000
0010
0000
0000
0013
0100
,
2000
0000
0000
0001
0000
0000
3100
0000
0110
0000
0000
0000
1001
0000
0000
0000
,
0110
0000
0000
0001
0010
0000
0000
0100
1000
0000
0000
0000
1001
0000
0000
1000
,
0010
0000
0000
0100
0001
0000
0000
1000
0001
0000
0010
0000
1100
0000
0010
0000
,
0201
0000
0000
0001
0000
0000
0310
1000
0200
0000
0000
1000
0000
0000
0310
0001
,
2000
0000
0000
0001
0000
0000
3010
0000
0100
0000
0010
0000
1001
0000
0000
0000
,
0001
0100
0101
0101
0001
1000
1100
1100
,
0100
0000
0010
0001
1000
0000
0001
1000
0100
1000
0001
0000
0010
0000
0100
0000
,
1100
0000
0000
0000
1001
0000
0000
0000
0011
0000
0000
1000
0000
0000
0010
0100
,
0010
0000
1000
0000
0001
0000
0010
0000
0100
0000
1000
0100
1000
0000
0001
0000
,
0101
0000
0000
0000
1001
0000
0000
0000
1010
0000
0000
0001
0000
0000
0010
0100
,
0010
0000
0001
0000
1000
0000
0010
0000
0100
0001
0100
0001
1000
0000
0100
0000
,
0001
0001
0100
1000
0001
0001
0100
1000
,
0001
0000
0001
0000
0010
0000
1000
0000
0001
1000
0100
0000
0110
0000
0000
0000
,
1001
0000
0000
1000
0000
0001
0100
0001
0100
0000
0000
0000
0020
0000
0000
0000
,
0130
0000
0001
0100
0000
0100
0001
0000
1000
0000
0100
0000
0110
0000
0000
0000
,
1001
0001
0010
0100
1001
1000
0010
0100
,
1001
0000
0010
0000
0110
0000
1000
0001
1000
0000
0010
0100
0010
0000
0000
0000
,
0110
0100
0001
1000
0110
0010
0001
1000
,
0110
0000
0010
0000
1000
0000
0100
0010
0100
0000
1000
0001
1000
0000
0000
0000
,
1001
0000
0001
0100
0001
0100
0001
0010
0100
0000
1000
0001
0000
0000
1000
0100
,
1000
0000
0001
0100
0001
1000
0100
1000
0001
0000
0010
0100
0000
0000
1100
0000
,
0000
1000
1000
0010
0100
0100
0001
1000
,
0100
0000
0000
1000
0100
0010
0002
0000
0000
1003
0000
0000
,
0000
0000
0000
0000
0000
0000
0000
0000
0001
0100
0001
0100
0010
1000
0010
1000
,
0002
0000
0000
1000
0000
0000
1003
0010
0002
0000
0000
1000
0000
0000
1003
0100
,
0002
0000
0000
1000
0000
0000
0103
0000
1001
0000
0000
0000
1001
0000
0000
0000
,
0110
0000
0000
1000
0010
0000
0000
0100
0001
0000
0000
0000
1001
0000
0000
0001
,
0010
0000
0000
0100
1000
0000
0000
0001
1000
0000
0000
0000
1001
0000
0000
0000
,
2100
0000
0000
0001
0000
0000
3001
0010
2000
0000
0000
0001
0000
0000
3001
0100
,
2000
0000
0000
0001
0000
0000
3100
0000
1001
0000
0000
0000
1001
0000
0000
0000
,
0011
0001
1000
0100
1100
1000
0001
0100
,
0101
0000
0001
0100
0010
0000
0010
1000
0010
1000
0001
0010
0001
0010
1000
0000
,
1010
0000
0000
0000
0110
0000
0000
0000
1001
0000
0000
0000
0001
0100
0001
0100
,
1000
0000
1000
0100
0010
0000
0000
0000
1001
0000
0000
0000
1000
0010
0200
0000
,
0310
0000
0000
0000
0110
0000
0000
0000
1001
0000
0000
0000
0001
0010
0100
1000
,
0001
0000
0001
0010
0100
0000
0000
0000
1001
0000
0000
0000
1000
0000
1000
0000
,
0011
0100
1000
0010
0101
1000
0100
0010
,
1100
0000
0010
0000
0001
0000
0100
0000
1001
0000
0001
0010
1000
0000
0010
0000
,
0001
0000
0100
0000
1000
0000
0100
0000
0001
0010
0001
0000
0100
0000
1000
0000
,
0001
0000
0010
0000
1000
0000
0100
0001
0100
0000
1000
0000
0010
0000
0100
0000
,
0110
0000
0000
0000
;

//--------------- dance-single - ----------------
#NOTES:
     dance-single:
     :
     Challenge:
     17:
     0.919655,0.996515,0.735966,0.236863,1.032044,761,674,87,28,0,0,0.919655,0.996515,0.735966,0.236863,1.032044,761,674,87,28,0,0:
0000
0000
0000
0000
,
0011
0000
0000
0100
0000
0000
1010
0000
0000
0100
0000
0000
1001
0000
0000
0001
0000
0010
0000
0000
0000
0100
1000
0010
,
0001
0000
0000
0010
0000
0000
1000
0000
0000
0100
0000
0000
0010
0000
0000
0100
0000
1000
0010
0000
0000
0010
0000
0100
,
0001
0000
0000
0010
0000
0000
1100
0000
0000
0010
0000
0000
0101
0000
0000
1000
0000
0010
0000
0000
0000
0100
0001
0010
,
1000
0000
0000
0010
0000
0000
0001
0000
0000
0100
0000
0000
0010
0000
0100
0001
0000
1000
0100
0000
0000
0010
0000
0001
,
1000
0000
0000
0010
0000
0000
0101
0000
0000
0010
0000
0000
1100
0000
0000
0001
0000
0100
0000
0000
0000
0010
1000
0100
,
0001
0000
0000
0100
0000
0000
1000
0000
0000
0010
0000
0000
0100
0000
0000
0010
0000
1000
0100
0000
0000
0100
0000
1000
,
0001
0000
0000
0010
0000
0000
1100
0000
0000
0010
0000
0000
0101
0000
0000
1000
0000
0010
0000
0000
0000
0100
0001
0010
,
1000
0000
0000
0010
0000
0000
0100
0000
0000
0010
0000
0000
0102
0000
0010
0000
0103
0000
2010
0000
0100
0000
3010
0000
,
1001
0000
0000
0000
0000
0000
0000
0000
0000
0000
0000
0000
0001
0000
0000
0000
0000
0000
0000
0100
0000
0000
0000
0000
0010
0000
0000
0000
0000
0000
0000
0000
0000
0000
0000
0000
0100
0000
0000
0000
0000
0000
0000
0000
0000
0000
0000
0000
0001
0000
0000
0000
0000
0000
0000
0000
1000
0000
0000
0000
0000
0000
0000
0000
0000
0000
0000
0001
0000
0000
0000
0000
1000
0000
0000
0000
0000
0000
0000
0000
0000
0000
0000
0000
0010
0000
0000
0000
0000
0000
0000
0100
0000
0000
0000
0000
,
0010
0000
0000
0000
0000
0000
0000
0000
1000
0000
0000
0000
0000
0000
0000
0000
0000
0000
0000
0001
0000
0000
0000
0000
0010
0000
0000
0000
0000
0000
0000
0000
0100
0000
0000
0000
0000
0000
0000
0000
0000
0000
0000
0010
0000
0000
0000
0000
0001
0000
0000
0000
0000
0000
0000
0000
1000
0000
0000
0000
0010
0000
0000
0000
0000
0000
0200
0000
0000
0000
0000
0000
0000
0000
0000
0000
0000
0000
0000
0000
0000
0000
0000
0000
0001
0000
0000
0000
0000
0000
0302
0000
0000
0000
0000
0000
,
0000
0000
0000
0000
0000
0000
0003
0000
1000
0000
0000
0000
0100
0000
0000
0000
0000
0000
0000
0100
0000
0000
0000
0000
0010
0000
0000
0000
0000
0000
0000
0000
0000
0000
0000
0000
0001
0000
0000
0000
0000
0000
0000
0000
1000
0000
0000
0000
0010
0000
0000
0000
0000
0000
0000
0000
0010
0000
0000
0000
0100
0000
0000
0000
0000
0000
0000
0000
0100
0000
0000
0000
1000
0000
0000
0000
0000
0000
0000
0000
0100
0000
0000
0000
0010
0000
0000
0000
0000
0000
0000
0100
0000
0000
0000
0000
,
0001
0000
0000
0000
0000
0000
0000
0000
0000
0000
0000
0000
0001
0000
0000
0000
0000
0000
0000
0010
0000
0000
0000
0000
1000
0000
0000
0000
0000
0000
0000
0000
0000
0000
0000
0000
0010
0000
0000
0000
0000
0000
0000
0000
0000
0000
0000
0000
0100
0000
0000
0000
0000
0000
0000
0000
1000
0000
0000
0000
0010
0000
0000
0000
0000
0000
0000
0000
0001
0000
0000
0000
0010
0000
0000
0000
0000
0000
0000
0000
0100
0000
0000
0000
0010
0000
0000
0000
0000
0000
0000
0000
0000
0000
0000
0000
,
1001
0000
0000
0001
0000
0010
0000
0000
0010
0100
0000
0000
1001
0000
0000
1000
0000
0010
0000
0000
0010
0100
0000
0000
,
0110
0000
0000
0000
0000
0000
0001
0000
0000
0000
1000
0000
0000
0000
0000
0000
1000
0000
0100
0000
0000
0000
0000
0000
0101
0000
0000
0000
0000
0000
0100
0000
0000
0000
1000
0000
0000
0000
0000
0000
1000
0000
0010
0000
0000
0100
0000
0000
,
0000
0000
0000
0000
0000
0000
0000
0000
0000
0000
0000
0000
0100
0000
0000
0000
0000
0000
0000
0000
0001
0000
0000
0000
1000
0000
0000
0000
0000
0000
0000
0000
0000
0000
0000
0000
0001
0000
0000
0000
0000
0000
0000
0010
0000
0000
0000
0000
0100
0000
0000
0000
0000
0000
0000
0000
0000
0000
0000
0000
0100
0000
0000
0000
0000
0000
0010
0000
0000
0000
0000
0000
0000
0000
0000
0000
0000
0000
0110
0000
0000
0000
0000
0000
0000
0000
0000
0000
0000
0000
0000
0000
0000
0000
0000
0000
,
0100
0000
0000
0000
1000
0000
0001
0000
0000
0000
0010
0000
0000
0000
0000
1100
0000
0000
0000
0000
0000
0000
0010
0000
0100
0000
0000
0000
0001
0000
1000
0000
0000
0000
0010
0000
0000
0000
0000
0101
0000
0000
0000
0000
0000
0000
0000
0000
,
0002
0010
2003
3020
1000
0230
0302
0023
,
0230
0010
2300
3002
0010
2003
3002
0103
,
1010
1000
0110
0010
0101
0100
1001
0001
,
1000
0000
0010
0100
0000
0010
0100
0000
0000
1001
0000
0100
0010
0000
0100
0010
0000
1001
0000
0000
0000
0000
0000
0000
,
0101
0000
0000
0100
0001
0010
0000
0000
0010
0001
0000
0001
0100
0000
0000
0010
0000
1000
0100
0000
0000
0100
0000
1000
,
0010
0000
0000
0000
0000
0000
0100
0000
0000
0001
0000
0000
0000
0000
0000
0000
0001
0000
1000
0000
0000
0000
0000
0000
0001
0000
0000
0000
0010
0000
0100
0000
0000
0000
0010
0000
1001
0000
0000
0000
0000
0000
1000
0000
0000
0000
0010
0000
,
0100
0000
0000
0010
0100
0001
0010
0000
0000
0010
0100
1000
0010
0000
0000
1000
0000
0000
0101
0000
0000
0000
1000
0000
,
0011
0000
0000
0000
0001
0000
1100
0000
0000
0000
0001
0000
1010
0000
0000
0100
0000
0000
0011
0000
0000
0100
0000
0000
,
1001
0000
0000
0001
1000
0001
0000
0000
0001
0010
0000
0010
0100
0000
0000
1000
0001
1000
0000
0000
1000
0010
0000
0010
,
0100
0000
0000
0000
0000
0000
0001
0000
0000
1000
0000
0000
0000
0000
0000
0000
0001
0000
0010
0000
0000
0000
0100
0000
0010
0000
0000
0000
0000
0000
0100
0000
1000
0000
0010
0000
0001
0000
0000
0000
0000
0000
0010
0000
0000
0000
0000
0000
,
0110
0000
0000
0001
0100
0001
0100
0000
0010
1000
0100
1000
0100
0000
0000
0100
0010
0001
1000
0000
1000
0001
0000
0001
,
0100
0000
0100
0010
1000
0010
1000
0000
0000
1000
0100
0010
0001
0010
0100
1000
0100
0010
0001
0000
1000
0010
0000
0000
,
0101
0000
0000
0010
0000
0000
1100
0000
0000
0010
0000
0000
0101
0000
0000
1000
0000
0010
0000
0000
0000
0100
0001
0010
,
0200
0000
0000
0001
0000
0000
0010
0000
0000
1300
0000
0000
1001
0000
0000
0001
0000
0100
0010
0000
0000
0100
0000
0001
,
1000
0000
0000
0010
0000
0000
0101
0000
0000
0010
0000
0000
1100
0000
0000
0001
0000
0100
0000
0000
0000
0010
1000
0100
,
0020
0000
0000
1000
0000
0000
0100
0000
0000
0031
0000
0000
1000
0000
0010
0100
0000
0001
0010
0000
0000
0010
0000
0001
,
1000
0010
0110
1000
1001
0100
0110
0001
,
0011
0000
0000
1000
0000
0000
1010
0000
0000
0001
0000
0000
1001
0000
0100
0010
0000
0000
0110
0000
0000
0000
0000
0000
,
0001
0000
0000
0100
0000
0100
0001
0100
0020
0000
1000
0000
0230
0000
0000
0000
,
0301
0000
0000
0000
0000
0000
0010
0000
0000
0100
0000
0000
1000
0000
0000
0000
0001
0000
0100
0000
0000
0000
0000
0000
0110
0000
0000
0000
1000
0000
0001
0000
0000
0000
0000
0000
0001
0000
0000
0000
0010
0000
0000
0000
0100
0000
0000
0000
,
1001
0011
0100
1000
1010
0110
0001
0010
,
1100
0000
0000
0000
0000
0000
0000
0000
1000
0000
0000
0000
0020
0000
0000
0000
0000
0000
0000
0000
0000
0000
0000
0000
0130
0000
0000
0000
0000
0000
0000
0000
0000
0000
0000
0000
0100
0000
0000
0000
0000
0000
0000
0001
0000
0000
0000
0000
1000
0000
0000
0000
0000
0000
0000
0000
0000
0000
0000
0000
0100
0000
0000
0000
0000
0000
0000
0000
1000
0000
0000
0000
0002
0000
0000
0000
0000
0000
0000
0000
0000
0000
0000
0000
0103
0000
0000
0000
0000
0000
0000
0000
0000
0000
0000
0000
,
0110
1010
0100
0001
0011
0110
1000
0001
,
0110
0000
0000
0000
0000
0000
0000
0000
0000
0000
0000
0000
1010
0000
0000
0000
0000
0000
0000
0000
0000
0000
0000
0000
1000
0000
0000
0000
0000
0000
0000
0000
0000
0000
0000
0000
0001
0000
0000
0000
0000
0000
0000
0010
0000
0000
0000
0000
0100
0000
0000
0000
0000
0000
0000
0000
0000
0000
0000
0000
1000
0000
0000
0000
0000
0000
0000
0010
0000
0000
0000
0000
0100
0000
0000
0000
0000
0000
0000
0000
0000
0000
0000
0000
0010
0000
0000
0000
0000
0000
0000
0000
0000
0000
0000
0000
,
1001
0000
0000
0000
0000
0000
0000
0000
0000
0000
0000
0000
0001
0000
0000
0000
0000
0000
0100
0000
0000
0000
0000
0000
0010
0000
0000
0000
0000
0000
1000
0000
0000
0000
0000
0000
0100
0000
0000
0000
0000
0000
0000
0010
0000
0000
0000
0000
0001
0000
0000
0000
0000
0000
0000
0000
0000
0000
0000
0000
1000
0000
0000
0000
0000
0000
0000
0010
0000
0000
0000
0000
0000
0000
0000
0000
0000
0000
0000
0000
0000
0000
0000
0000
0010
0000
0000
0000
0000
0000
0100
0000
0000
0000
0000
0000
,
0001
0000
0000
0000
0000
0000
0000
0000
0000
0000
0000
0000
0010
0000
0000
0000
0000
0000
0000
1000
0000
0000
0000
0000
0010
0000
0000
0000
0000
0000
0000
0000
0001
0000
0000
0000
1000
0000
0000
0000
0000
0000
0010
0000
0000
0000
0000
0000
0100
0000
0000
0000
0000
0000
0000
0000
0000
0000
0000
0000
0001
0000
0000
0000
0000
0000
1000
0000
0000
0000
0000
0000
0000
0000
0000
0000
0000
0000
0000
0000
0000
0000
0000
0000
0002
0000
0000
0000
0000
0000
0000
0000
0000
0000
0000
0000
,
1003
0110
0101
0001
1100
1010
0010
0100
,
1001
0000
0000
1000
0000
0000
0001
0000
0010
0000
0100
0000
1000
0000
0000
0001
0100
0001
0100
0000
0000
0110
0000
0000
,
0000
0000
0000
0000
0000
0000
0000
0000
0000
0000
0000
0000
1001
0000
0001
0100
0000
0100
1000
0000
1000
0100
0000
0100
,
0001
0000
0000
0100
0001
0010
0000
0000
0010
1000
0000
1000
0010
0000
0000
0010
0001
0100
0000
0000
0100
1000
0000
1000
,
0001
0000
0000
0000
0000
0000
0001
0000
0000
0020
0000
0000
0000
0000
0000
0000
0000
0000
1030
0000
0000
0000
0000
0000
0001
0000
0000
0000
1000
0000
0100
0000
0000
0000
0010
0000
1001
0000
0000
0000
0000
0000
0001
0000
0010
0000
0100
0000
,
1000
0000
0000
1000
0010
0100
0001
0000
0000
0001
0010
0100
1000
0000
0000
0001
0000
0000
1100
0000
0000
0000
0001
0000
,
1010
0000
0000
0000
1000
0000
0101
0000
0000
0000
1000
0000
0011
0000
0000
0100
0000
0000
1010
0000
0000
0100
0000
0000
,
1001
0000
0000
0001
0010
0100
0000
0000
0100
0010
0000
0001
1000
0000
0000
1000
0010
0100
0000
0000
0100
0010
0000
1000
,
0001
0000
0000
0000
0000
0000
0010
0000
0000
0100
0000
0000
0000
0000
0000
0000
1000
0000
0010
0000
0000
0000
0100
0000
0010
0000
0000
0000
0000
0000
0100
0000
0001
0000
0010
0000
1000
0000
0000
0000
0000
0000
0010
0000
0000
0000
0000
0000
,
0011
0000
0000
0001
0010
0100
1000
0000
0001
0100
0000
0100
0010
0000
0000
1000
0010
0100
0001
0000
1000
0100
0000
0100
,
0010
0000
0000
0010
0000
0001
0100
0000
0000
0010
1000
0100
0010
0000
0100
1000
0000
0001
0100
0010
0100
0010
0000
0000
,
1010
0000
0010
0000
0110
0000
0000
0000
1001
0000
1000
0000
0001
0010
0100
0010
,
1000
0010
0001
0100
0110
0000
0000
0000
1001
0000
0001
0000
1000
0100
1000
0000
,
0010
0000
0100
0000
0110
0000
0000
0000
1001
0000
1000
0000
0010
1000
0100
0010
,
2000
0000
0000
0000
0000
0000
3001
0000
0000
0100
0000
0000
0110
0000
0000
0000
0000
0000
0000
0000
0000
0000
0000
0000
1001
0000
0000
0000
0000
0000
0001
0000
0000
0000
0010
0000
0100
0000
0000
0000
0010
0000
0100
0000
0000
0000
0000
0000
,
2100
0000
0000
3010
0000
0010
0100
0000
0100
0001
0000
0000
0102
0000
0000
0013
0000
0010
0100
0000
0100
1000
0000
0000
,
1020
0000
0000
0000
0000
0000
0130
0000
0000
0000
1000
0000
0100
0000
0000
0000
0010
0000
0100
0000
0000
0000
0001
0000
0200
0000
0000
0000
0000
0000
0301
0000
0000
0010
0000
0000
1000
0000
0000
0000
0000
0000
0010
0000
0000
0000
0000
0000
,
0001
0000
0001
0100
0000
0100
1000
0000
1000
0100
0000
0100
0001
0000
1000
0100
0000
0100
0001
0000
0001
0100
0000
0100
,
1000
0000
0001
0100
0000
0010
0100
0000
1000
0100
0000
0001
0010
0000
0100
0010
0000
1000
0010
0000
0100
0010
0000
0001
,
1000
0000
0000
0000
;
