#TITLE:Mr.VIRTUALIZER;
#SUBTITLE:;
#ARTIST:HIMEHINA;
#TITLETRANSLIT:Mr.VIRTUALIZER;
#SUBTITLETRANSLIT:;
#ARTISTTRANSLIT:HIMEHINA;
#GENRE:POP;
#CREDIT:;
#BANNER:Mr.VIRTUALIZER.png;
#BACKGROUND:Mr.VIRTUALIZER-bg.png;
#LYRICSPATH:;
#CDTITLE:;
#MUSIC:Mr.VIRTUALIZER.ogg;
#OFFSET:1.823000;
#SAMPLESTART:69.714996;
#SAMPLELENGTH:7.846000;
#LASTBEATHINT:1.744123;
#SELECTABLE:YES;
#DISPLAYBPM:65.000000:130.000000;
#BPMS:0.000000=130.000000
,148.000000=65.000000
,150.000000=130.000000
,182.000000=65.000000
,182.250000=130.000000
,182.500000=260.000000
,183.000000=130.000000
;
#STOPS:148.000000=1.846000
;
#BGCHANGES:6.000=Mr.VIRTUALIZER.avi=1.000=0=0=0=====,
99999=-nosongbg-=1.000=0=0=0 // don't automatically add -songbackground-
;
#KEYSOUNDS:;
#ATTACKS:;

//---------------dance-single - ----------------
#NOTES:
     dance-single:
     :
     Medium:
     11:
     0.455940,0.479185,0.342240,0.389994,0.187038,401.000000,358.000000,43.000000,49.000000,0.000000,0.000000,0.455940,0.479185,0.342240,0.389994,0.187038,401.000000,358.000000,43.000000,49.000000,0.000000,0.000000:
0000
0000
0000
0000
,
0000
0000
0000
0000
,
0000
0000
0000
0000
,
0000
0000
0000
0000
,
0000
0000
0000
0000
,
0000
0000
0000
0000
,
0001
0000
0000
1000
0000
0100
0000
1000
0000
0000
0001
0000
0002
0000
0000
0000
,
0100
0000
0203
0000
0000
0310
0000
0000
0010
0000
0000
1000
0000
0002
0000
0000
,
0013
0011
0000
1100
0000
0011
0000
1100
,
1000
0100
1000
0001
0100
0001
1001
0000
,
1000
0000
0000
0001
0000
0100
0000
0001
0000
0000
1000
0000
2000
0000
0000
0000
,
0010
0000
3020
0000
0000
0130
0000
0000
0100
0000
0000
0001
0000
2000
0000
0000
,
3010
1010
0000
0101
0000
1010
0000
0102
,
0010
0000
0000
1000
0000
0000
0103
0000
0100
0000
0001
1000
0000
0000
0100
0000
,
0010
0000
0001
0000
1000
0000
0000
0000
0010
0000
0000
0010
0000
0000
0100
0000
,
0001
1000
0001
0010
0100
0000
0100
0000
,
1000
0000
0001
0000
0000
0000
0001
0000
1000
0000
0000
1000
0000
0000
0001
0000
,
0100
1000
0100
0001
0101
0000
1010
0000
,
0010
1000
0000
1000
0001
0000
0001
0000
,
0010
0100
1000
0001
1000
0100
0001
0100
,
1000
0000
0001
0000
0000
0000
1000
0000
0010
0000
0000
0100
0000
0000
0010
0000
,
1000
0001
1000
0001
0101
0000
1100
0000
,
0011
0000
1000
0100
0022
0033
0101
0000
,
1010
0000
0001
0100
2020
3030
0200
0000
,
0301
2000
3200
0320
0032
0023
0230
2300
,
3002
0203
0320
2030
3001
0000
0110
0000
,
1100
0000
0100
1000
0011
0000
0101
0000
,
1010
0000
0100
0001
1010
0000
0101
0000
,
0001
0010
0100
0000
0100
1000
0100
0001
,
0000
0001
0100
1000
0001
0000
0110
0000
,
1001
0000
0000
0000
0000
0000
0001
0000
0100
0000
0000
0010
0000
0000
0000
0000
,
0100
0000
0001
0000
1000
0000
0001
0000
0010
0000
0000
0100
0000
0000
0100
0000
,
1000
0001
0100
1000
0001
1000
0100
0001
,
0010
1000
0001
1000
0010
0001
2000
0000
,
3002
0000
0000
0000
1003
0000
0010
0000
0100
0000
0000
0100
0000
0000
0001
0000
,
1000
0000
0000
1000
0000
0000
0001
0000
0010
0000
0000
0010
0000
0000
0100
0000
,
1000
0001
0010
1000
0001
0100
1000
0001
,
0200
0300
0000
0000
0000
0000
0000
0000
0000
0000
0000
0000
0000
0000
0000
0000
0000
0000
0000
0000
0000
0000
0000
0000
0000
0000
0000
0000
0000
0000
0000
0000
0000
0000
0000
0000
0000
0000
0000
0000
0000
0000
0000
0000
0000
0000
0000
0000
1001
0000
0000
0000
0000
0000
0000
0000
0000
0000
0000
0000
0000
0000
0000
0000
0000
0000
0000
0000
0000
0000
0000
0000
0000
0000
0000
0000
0000
0000
0000
0000
0000
0000
0000
0000
0000
0000
0000
0000
0000
0000
0000
0000
0000
0000
0000
0000
0001
0000
0000
0000
0000
0000
0000
0000
0000
0000
0000
0000
0000
0000
0000
0000
0000
0000
0000
0000
0000
0000
0000
0000
0010
0000
0000
0000
0000
0000
0000
0000
0000
0000
0000
0000
0000
0000
0000
0000
0000
0000
0000
0000
0000
0000
0000
0000
0100
0000
0000
0000
0000
0000
0000
0000
0000
0000
0000
0000
0000
0000
0000
0000
0000
0000
0000
0000
0000
0000
0000
0000
1000
0000
0000
0000
0000
0000
0000
0000
0000
0000
0000
0000
0000
0000
0000
0000
0000
0000
0000
0000
0000
0000
0000
0000
,
0010
1000
0100
1000
0001
0000
0010
0100
,
0000
1000
0100
0001
0100
1000
0001
0200
,
0000
0320
0000
0031
0010
1000
0100
0001
,
0000
0100
1000
0000
1000
0010
0100
0001
,
0010
0001
0100
0001
0010
0100
1000
0001
,
0000
1000
0010
0100
1000
0100
0001
0020
,
0000
0230
0000
2300
0000
3001
0100
0010
,
1000
0010
0100
0001
1000
0000
0001
0000
,
0001
0010
0000
0100
0000
1000
0100
0001
,
0100
1000
0010
0100
0001
0000
1001
0000
,
1000
0100
0000
0110
0000
0001
0100
1000
,
0100
0001
0010
0100
1100
0000
2000
3020
,
0000
0230
0000
0302
0000
0023
0000
0230
,
0000
2300
3002
0203
0310
1000
0001
1000
,
0001
0010
0000
0100
0000
1000
0001
1000
,
0100
0000
0010
0000
0001
0000
1000
0000
0010
0100
0000
0001
0000
1000
0000
0001
,
0000
0010
0100
0000
0200
0000
0000
0000
1000
0000
2300
0000
0000
3001
0000
0000
,
0100
0000
0000
0001
0000
2000
0000
0000
3010
0000
1010
0000
0000
0000
0101
0000
,
0000
1010
0000
0101
0001
0100
0001
1000
,
0100
0000
1000
0000
1001
0000
0000
0000
0001
0100
0000
0010
0000
1000
0000
0001
,
0000
1000
0100
0000
0200
0000
0000
0000
0010
0000
0320
0000
0000
0031
0000
0000
,
0100
0000
0000
0001
0000
2000
0000
0000
3001
0000
0011
0000
0000
0000
1100
0000
,
0000
0000
0011
0000
0000
0000
2100
0000
0010
0000
0000
0001
0000
0000
3100
0000
,
0010
0000
0000
0001
0000
0000
1000
0000
0010
0100
0000
0100
0000
0001
0000
0001
,
0000
1000
0100
0000
0200
0000
0000
0000
0310
0000
0020
0000
0000
0031
0000
0000
,
1001
0000
0000
0110
0000
0000
1001
0000
0000
0000
0000
0000
0000
0000
0000
0000
;

//---------------dance-single - ----------------
#NOTES:
     dance-single:
     :
     Hard:
     14:
     0.637862,0.807048,0.310403,0.485503,0.732233,561.000000,522.000000,39.000000,61.000000,0.000000,0.000000,0.637862,0.807048,0.310403,0.485503,0.732233,561.000000,522.000000,39.000000,61.000000,0.000000,0.000000:
0000
0000
0000
0000
,
0000
0000
0000
0000
,
0000
0000
0000
0000
,
0000
0000
0000
0000
,
0000
0000
0000
0000
,
0000
0000
0000
0000
0000
0000
0000
0000
1001
0000
0000
0001
0100
0000
0010
0000
,
1000
0001
0000
0010
0000
0100
0000
1000
0000
1000
0010
0000
0020
0000
0000
0000
,
1000
0000
2030
0000
0000
3001
0000
0001
0010
0000
0000
0100
0000
2000
0000
0000
,
3001
0000
1000
0010
0000
0000
0100
0010
0000
0000
1000
0010
0000
0000
0100
0000
,
0001
0100
0001
1000
0100
1000
0001
0100
0001
1000
0100
1000
1001
0000
0000
0000
,
0001
1000
0000
0010
0000
0100
0000
0001
0000
0001
0010
0000
0020
0000
0000
0000
,
0001
0000
0032
0000
0000
1003
0000
1000
0010
0000
0000
0100
0000
0002
0000
0000
,
1003
0000
0001
0010
0000
0000
0100
0010
0000
0000
0001
0010
0000
0000
0100
0000
,
1100
0000
0000
0101
0000
0000
1100
0000
1000
0000
0001
0100
0000
0100
0010
0000
,
1000
0000
1000
0000
0001
0100
0000
0010
0100
0000
0001
0010
0000
1000
0010
0000
,
0001
0100
0000
1000
0100
0010
0001
0000
0010
0000
0010
0000
1000
0000
0100
0000
,
0010
0000
0001
0000
0000
1000
0000
0010
0100
0000
0000
0101
0000
0001
1000
0000
,
0100
0000
0000
0011
0000
0000
1100
0000
2000
0000
0000
0001
0000
0000
0010
0000
,
3010
0000
0100
0000
0000
1001
0000
1000
0100
0000
0010
0100
0000
1000
0010
0000
,
0001
0010
0000
0100
0001
0000
0010
0000
0100
0000
0100
1000
0001
0000
0100
0000
,
0010
0000
0101
0000
0000
0000
0001
0010
0100
0000
1000
0001
0000
0000
0100
0000
,
0010
1000
0000
1000
0001
0000
0010
0000
0110
0000
0000
0000
1000
0001
0000
0000
,
0001
0100
0000
0010
1000
0000
0101
0000
2020
0000
3030
0000
0001
1000
0000
0000
,
1000
0100
0000
0010
0001
0000
1100
0000
0022
0000
0033
0000
0200
0000
0000
0000
,
1300
0002
2003
3020
0230
0302
0023
2030
,
3020
0032
0203
0320
1030
0000
1020
0000
,
0130
0001
0000
0000
1000
0010
0000
0000
0101
0000
0000
0000
0021
0000
0000
0000
,
0130
1000
0000
0000
0001
0010
0000
0000
1100
0000
0000
0000
0002
0000
0203
0000
,
2300
3200
0001
0302
0000
1003
0001
0020
,
0000
0130
1000
0001
0100
0010
1000
0001
,
2000
0000
0000
0000
3001
0000
0010
0100
0010
0000
0001
0100
0000
0000
0010
0000
,
1000
0001
0100
0001
0100
0001
0010
0100
1000
0000
0001
0100
0000
0010
0100
0001
,
0100
0001
1000
0001
1000
0100
0010
0001
0010
0100
1000
0100
1000
0001
1000
0001
,
0100
0010
1000
0010
1000
0001
1000
0100
0010
0001
1000
0100
0020
0000
0032
0000
,
2003
0000
0000
0000
3010
0000
0100
0001
1000
0000
0000
1100
0000
0000
1000
0000
,
0001
0000
0000
0101
0000
0000
0001
0000
0010
0000
0000
0110
0000
0000
1000
0000
,
0001
1000
0100
1000
0001
1000
0100
0000
1000
0001
0100
0001
1000
0001
0010
0100
,
2000
3000
0000
0000
0000
0000
0000
0000
0000
0000
0000
0000
0000
0000
0000
0000
0000
0000
0000
0000
0000
0000
0000
0000
0000
0000
0000
0000
0000
0000
0000
0000
0000
0000
0000
0000
0000
0000
0000
0000
0000
0000
0000
0000
0000
0000
0000
0000
1001
0000
0000
0000
0000
0000
0000
0000
0000
0000
0000
0000
0000
0000
0000
0000
0000
0000
0000
0000
0000
0000
0000
0000
0001
0000
0000
0000
0000
0000
0000
0000
0000
0000
0000
0000
0100
0000
0000
0000
0000
0000
0000
0000
0000
0000
0000
0000
0002
0003
0000
0000
0000
0000
0000
0000
0000
0000
0000
0000
0000
0000
0000
0000
0000
0000
0000
0000
0000
0000
0000
0000
0101
0000
0000
0000
0000
0000
0000
0000
0000
0000
0000
0000
0000
0000
0000
0000
0000
0000
0000
0000
0000
0000
0000
0000
1000
0000
0000
0000
0000
0000
0000
0000
0000
0000
0000
0000
0000
0000
0000
0000
0000
0000
0000
0000
0000
0000
0000
0000
1100
0000
0000
0000
0000
0000
0000
0000
0000
0000
0000
0000
0000
0000
0000
0000
0000
0000
0000
0000
0000
0000
0000
0000
,
0001
0100
0001
0000
1000
0100
1000
0000
0010
1000
0001
0000
0010
0000
1100
0000
,
0000
0000
0001
0000
1000
0000
0100
0000
0010
0000
0001
0010
0100
0000
2100
0000
,
0000
3001
0100
0000
0010
0000
0100
0001
1000
0000
0001
0010
0100
0000
1000
0010
,
1000
0010
0100
0001
0010
0000
0100
0000
1000
0000
1100
0000
0001
0000
0101
0000
,
1000
0100
1000
0000
0001
0100
0001
0000
1000
0000
0010
0000
0100
0000
0110
0000
,
0000
0001
1000
0001
1000
0000
0010
0000
0100
0000
0001
0010
0100
0000
1100
0000
,
0000
1000
0010
0000
0100
0000
0001
1000
0100
1000
0001
0010
0100
0000
1000
0000
,
0001
1000
0001
1000
0010
0000
0100
0000
0010
0000
0000
0000
1001
0000
1000
0000
,
0001
0010
0100
1000
0000
0001
0100
0000
0010
0000
1000
0001
1000
0000
0100
0010
,
0100
0000
1000
0100
0010
0001
0010
0100
1000
0000
0010
0000
1001
0000
0000
0000
,
1000
0010
0100
0001
0000
1000
0100
0000
0010
0000
0001
1000
0001
0000
0100
0010
,
0100
0001
0010
0100
1000
0000
0001
0000
0101
0000
0100
0000
0020
0000
2030
0000
,
3001
0020
0031
0200
0310
2000
3001
0020
,
0130
0000
2000
0000
3002
0000
0203
0000
0310
0000
1000
0000
0001
0000
0010
0100
,
0010
0000
0001
0000
1000
0000
0020
0000
0000
0000
0130
0001
1000
0000
0001
1000
,
0100
0000
0020
0000
0032
0000
2003
0000
3010
0100
0000
0001
0000
0010
0000
0100
,
0000
0100
1000
0000
2000
0000
0000
0000
0010
0000
3020
0000
0000
0130
0000
0100
,
0002
0000
0000
1003
0000
0200
0000
0000
1300
0000
0001
0100
0000
0000
0001
1000
,
0000
0000
0001
0100
0000
0000
0001
0000
1000
0100
1000
0001
0100
0001
1000
0100
,
1000
0001
0100
0001
1001
0000
0000
0000
1000
0100
0000
0010
0000
0001
0000
0100
,
0000
0100
0001
0000
0002
0000
0000
0000
0100
0000
0203
0000
0000
0310
0000
0010
,
2000
0000
0000
3001
0000
0020
0000
0000
0130
0000
1000
0010
0000
0000
1000
0001
,
0000
0000
1000
0010
0000
0000
0100
0000
0101
0000
0000
1001
0000
0000
1100
0000
,
0001
0010
0100
1000
0000
0001
0100
0000
1000
0100
0000
0001
0000
0010
0000
0100
,
0000
0100
1000
0000
2000
0000
0000
0000
3001
0000
0002
0000
0000
0103
0000
0100
,
0010
0000
1000
0001
0000
0000
0110
0000
0000
0000
0000
0000
0000
0000
0000
0000
;

//---------------dance-single - ----------------
#NOTES:
     dance-single:
     :
     Challenge:
     16:
     0.808413,0.857489,0.596929,0.429789,1.018759,711.000000,636.000000,75.000000,54.000000,0.000000,0.000000,0.808413,0.857489,0.596929,0.429789,1.018759,711.000000,636.000000,75.000000,54.000000,0.000000,0.000000:
// measure 0
0000
0000
0000
0000
,  // measure 1
0000
0000
0000
0000
,  // measure 2
0000
0000
0000
0000
,  // measure 3
0000
0000
0000
0000
,  // measure 4
0000
0000
0000
0000
,  // measure 5
0000
0000
0000
0000
0000
0000
0000
0000
0110
0000
0000
1000
0001
0000
1100
0000
,  // measure 6
1000
0010
0000
0110
0000
0101
0000
0011
0000
0010
0100
0000
0200
0000
0000
0000
,  // measure 7
1000
0000
2300
0000
0000
3010
0000
0100
0001
0000
0001
0010
0000
0200
0000
0000
,  // measure 8
1300
0000
0001
0100
0001
0000
1000
0010
1000
0000
0001
0100
0001
0000
1000
0000
,  // measure 9
0001
0100
1000
0001
0010
1000
0001
0010
1000
0001
0100
1000
1100
0000
0000
0000
,  // measure 10
0001
0010
0000
0110
0000
1100
0000
1010
0000
0010
0100
0000
0200
0000
0000
0000
,  // measure 11
0001
0000
0302
0000
0000
0013
0000
0100
1000
0000
1000
0010
0000
0200
0000
0000
,  // measure 12
0301
0000
1000
0100
1000
0000
0001
0010
0001
0000
1000
0100
1000
0000
0001
0000
,  // measure 13
0011
0000
0000
0110
0000
0000
1100
0000
1000
0100
0010
0001
0000
1000
0010
0000
,  // measure 14
0100
0010
0100
0010
1000
0001
0000
0010
0001
0000
0010
0100
0000
0010
0001
0000
,  // measure 15
0001
1000
0000
0010
0100
0000
0001
0000
1100
0000
0101
0000
0001
0010
0100
1000
,  // measure 16
0001
0010
1000
0000
0010
0100
0000
1000
0010
0000
0100
1000
0000
0100
0001
0010
,  // measure 17
0100
0000
0000
0000
0000
0000
1000
0000
0000
0001
0000
0000
0000
0000
0000
0000
0000
0000
0101
0000
0000
0000
0000
0000
0100
0000
0000
0000
0000
0000
0001
0000
0010
0000
0001
0000
0010
0000
0000
0000
0000
0000
0100
0000
0000
0000
0000
0000
,  // measure 18
1100
0000
1000
0000
0001
0100
0000
1000
0100
0000
0001
0010
0000
0100
1000
0100
,  // measure 19
0010
1000
0010
0001
0100
0000
0010
0000
0001
0010
0100
0000
0001
0000
1000
0000
,  // measure 20
1100
0000
0101
0000
0001
0100
0010
1000
0001
0000
0010
0100
0000
0000
0110
0000
,  // measure 21
0001
0000
0000
1000
0000
0000
0000
0000
0000
1000
0000
0000
0001
0000
0000
0000
0000
0000
0100
0000
0000
0000
0000
0000
0110
0000
0000
0000
0000
0000
0010
0000
1000
0000
0010
0000
1000
0000
0000
0001
0000
0000
0000
0000
0000
0000
0000
0000
,  // measure 22
0001
0010
0000
0010
0100
1000
0001
1000
2200
0000
3300
0000
0001
0100
0000
0000
,  // measure 23
0100
0010
0000
0010
0100
0001
1000
0001
0202
0000
0303
0000
1000
0000
0001
0100
,  // measure 24
0010
0200
0302
0023
2030
3002
0203
2300
,  // measure 25
3002
0000
0203
0000
2300
0000
3002
0000
0013
1000
0100
0010
0000
0100
0010
0000
,  // measure 26
0011
0001
1000
0100
0010
0001
1000
0010
1010
0000
1000
0001
0100
0000
0000
0000
,  // measure 27
1010
0000
0000
1000
0000
0000
0001
0000
0000
0010
0000
0000
0100
0000
0000
1000
0000
0000
0001
0000
0000
0100
0000
0000
0101
0000
0000
0000
0000
0000
0001
0000
0000
0100
0000
0000
0002
0000
0000
0000
0000
0000
2003
0000
0100
0000
0010
0000
,  // measure 28
3002
0000
0203
0000
0310
0000
0020
0000
0000
0000
1030
0000
0100
0000
1000
0001
,  // measure 29
0010
0100
1000
0001
1000
0010
0100
0001
0010
0000
0110
0000
1000
0001
0010
0100
,  // measure 30
2000
0000
0000
0000
3001
0000
1000
0100
0010
0000
0001
1000
0000
0000
0001
0000
,  // measure 31
0100
0010
1000
0010
1000
0001
0010
0100
1000
0000
0001
0100
0000
0001
0100
0001
,  // measure 32
0010
0001
1000
0100
1000
0010
1000
0100
0001
1000
0001
0100
1000
0001
1000
0010
,  // measure 33
0001
1000
0001
0010
0100
0001
0010
0100
1000
0001
1000
0100
0020
0000
0032
0000
,  // measure 34
2003
0000
0010
0000
3010
0000
0100
0001
0010
0000
0000
1100
0000
0100
1000
0000
,  // measure 35
0010
0000
0000
0000
0000
0000
0000
0000
0000
0101
0000
0000
0000
0000
0000
0001
0000
0000
0010
0000
0000
0000
0000
0000
0100
0000
0000
0000
0000
0000
1000
0000
0000
0001
0000
0000
1000
0000
0000
0000
0000
0000
0001
0000
0100
0000
0001
0000
,  // measure 36
0100
0010
1000
0100
0010
0001
1000
0000
0001
0100
0010
1000
0001
0010
0100
1000
,  // measure 37
0002
0003
0000
0000
0000
0000
0000
0000
0000
0000
0000
0000
0000
0000
0000
0000
0000
0000
0000
0000
0000
0000
0000
0000
0000
0000
0000
0000
0000
0000
0000
0000
0000
0000
0000
0000
0000
0000
0000
0000
0000
0000
0000
0000
0000
0000
0000
0000
1001
0000
0000
0000
0000
0000
0000
0000
0000
0000
0000
0000
0000
0000
0000
0000
0000
0000
0001
0000
0000
0000
0000
0000
1000
0000
0000
0000
0000
0000
0000
0000
0000
0000
0000
0000
0010
0000
0000
0000
0000
0000
0000
0000
0000
0000
0000
0000
0220
0330
0000
0000
0000
0000
0000
0000
0000
0000
0000
0000
0000
0000
0000
0000
0000
0000
0000
0000
0000
0000
0000
0000
1001
0000
0000
0000
0000
0000
0000
0000
0000
0000
0000
0000
0000
0000
0000
0000
0000
0000
0000
0000
0000
0000
0000
0000
1100
0000
0000
0000
0000
0000
0000
0000
0000
0000
0000
0000
0000
0000
0000
0000
0000
0000
0000
0000
0000
0000
0000
0000
0101
0000
0000
0000
0000
0000
0000
0000
0000
0000
0000
0000
0000
0000
0000
0000
0000
0000
0000
0000
0000
0000
0000
0000
,  // measure 38
0011
0000
1100
0000
1010
0000
0101
0000
0001
1000
0100
0000
0010
0000
0110
0000
,  // measure 39
0001
0000
1000
0001
0100
0000
0110
0000
1000
0001
0100
0100
1000
0001
0010
0100
,  // measure 40
0100
0001
1000
0010
0100
0100
1000
0001
0010
0100
0100
0001
1000
0010
0100
0100
,  // measure 41
1000
0001
0010
0100
0110
0000
1000
0001
1001
0000
0110
0000
1010
0000
0011
0000
,  // measure 42
0101
0000
1010
0000
1100
0000
0011
0000
0001
1000
0100
0000
0010
0000
0011
0000
,  // measure 43
1000
0000
0001
0100
0010
0000
0110
0000
0001
1000
0100
0100
1000
0001
0010
0100
,  // measure 44
0100
0001
1000
0010
0100
0100
1000
0001
0010
0100
0100
0001
1000
0010
0100
0100
,  // measure 45
1000
0001
0010
0100
0101
0000
1100
0000
0110
0000
0000
0000
1001
0000
0100
0000
,  // measure 46
0001
0010
0100
1000
0000
0001
0101
0000
0100
0001
0010
0000
0100
1000
0010
0000
,  // measure 47
0100
0001
0010
0100
1000
0010
0100
0001
0010
0100
1000
0000
1001
0000
0000
0000
,  // measure 48
1000
0010
0100
0001
0000
1000
1100
0000
0001
0010
0100
0000
1000
0010
0100
0000
,  // measure 49
0001
0010
0100
1000
0010
0100
0001
0010
0110
0000
0100
1000
0020
1000
0230
1000
,  // measure 50
0301
0010
0200
0010
0301
1000
0020
0100
1030
0100
0002
0010
1003
0010
0002
1000
,  // measure 51
0013
0100
2000
0100
3002
0010
0203
1300
1001
0000
0001
0000
0110
0000
0010
1000
,  // measure 52
0100
0000
0010
0000
1001
0000
0001
0010
0100
1000
1100
0000
0101
0000
1000
0001
,  // measure 53
0200
0000
0320
0000
2030
0000
3002
0000
0013
0100
0000
1100
0000
1001
0000
0101
,  // measure 54
0000
0100
0010
0000
0020
0000
0000
0000
1000
0000
2030
0000
0000
3001
0000
1000
,  // measure 55
0100
0000
0001
0100
0000
2000
0000
0000
3010
0000
0100
0001
0010
0000
0100
1000
,  // measure 56
0010
0000
0100
0001
0010
0000
0100
0000
1000
0010
0001
1000
0100
0001
1000
0100
,  // measure 57
0001
1000
0010
0001
0011
0000
0000
0000
0001
0010
0000
0110
0000
1100
0000
1010
,  // measure 58
0000
0010
0100
0000
0200
0000
0000
0000
0001
0000
0302
0000
0000
1003
0000
0001
,  // measure 59
0100
0000
1000
0100
0000
0002
0000
0000
0013
0000
0100
1000
0010
0000
0100
0001
,  // measure 60
0010
0000
0100
1000
0010
0000
0100
0000
0101
0000
0000
0011
0000
0000
1100
0000
,  // measure 61
0001
0010
0100
1000
0000
0001
0100
0000
0010
0100
0000
0001
0000
0010
0000
0100
,  // measure 62
0000
0100
1000
0000
0020
0000
0000
0000
0130
0000
0200
0000
0000
0301
0000
0001
,  // measure 63
0010
0100
1000
0010
0000
0000
1001
0000
0000
0000
0000
0000
0000
0000
0000
0000
;
