#TITLE:マザードラッグ;
#SUBTITLE:;
#ARTIST:HIMEHINA;
#TITLETRANSLIT:Mother Drug;
#SUBTITLETRANSLIT:;
#ARTISTTRANSLIT:HIMEHINA;
#GENRE:POP;
#CREDIT:;
#MUSIC:Mother Drug.ogg;
#BANNER:Mother Drug.png;
#BACKGROUND:Mother Drug-bg.png;
#CDTITLE:;
#SAMPLESTART:59.338;
#SAMPLELENGTH:11.186;
#SELECTABLE:YES;
#OFFSET:1.340;
#BPMS:0.000=177.000
,174.000=88.500
,176.000=177.000
,270.000=88.500
,272.000=177.000
;
#STOPS:172.000=0.169
,172.500=0.169
,173.000=0.169
,173.500=0.169
,268.000=0.169
,268.500=0.169
,269.000=0.169
,269.500=0.169
;
#LASTBEATHINT:0.920377;
#BGCHANGES:6.250=Mother Drug.avi=1.000=0=0=0=StretchNoLoop====,
99999.000=-nosongbg-=1.000=0=0=0=StretchNoLoop====
;
#FGCHANGES:;

//--------------- dance-single - ----------------
#NOTES:
     dance-single:
     :
     Medium:
     12:
     0.648812,0.789898,0.177191,0,0.004663,487,468,19,0,0,0,0.648812,0.789898,0.177191,0,0.004663,487,468,19,0,0,0:
0000
0000
0000
0000
,
0000
0000
0000
0000
,
0000
0000
0000
0000
,
1000
0001
0000
0001
1000
0100
0000
0100
,
0010
0100
0000
1000
0000
0001
0001
0001
,
1000
1000
0100
0001
0010
0010
0100
0001
,
0100
0001
0100
0001
0010
0001
1000
1000
,
0001
1000
0000
0000
0000
0001
1000
0010
,
0100
1000
0000
0000
0000
0001
1000
1000
,
0010
0001
0100
1000
0001
0001
1000
0001
,
1000
0010
0001
0001
1000
0100
1000
0010
,
1001
0000
1000
0010
0100
0000
0001
1000
,
0000
0100
1000
0001
0100
0001
0001
0001
,
0010
0001
0100
0100
0100
0100
1000
0001
,
0001
1000
0001
0001
1000
0001
0001
1000
,
0001
1000
0000
0010
0000
0100
0001
0010
,
0001
1000
0000
0010
0000
0010
0100
0001
,
1000
0010
0100
0000
0100
0001
1000
0000
,
1000
0100
0010
0100
0010
0100
1000
0001
,
0101
0000
1010
0000
1000
0100
0010
0100
,
1000
0001
1000
0100
0000
1000
0001
0001
,
0100
0010
0100
0001
1000
0100
1000
0100
,
0010
0001
1000
0010
0000
0010
0100
0001
,
0010
0100
1000
0010
0000
0010
0100
0001
,
1000
0100
1000
0001
0000
0001
1000
0100
,
0010
0001
0100
0001
0000
0001
1000
0001
,
0100
0010
0001
0010
1000
0100
0100
0100
,
0110
0000
1001
0000
0001
0100
0000
0010
,
0000
0010
0000
0100
0001
1000
0001
0000
,
1001
0000
1000
0100
1000
0100
0001
0100
,
0001
1000
0010
1000
0010
0001
0100
1000
,
0100
0001
0100
0001
0010
0001
0010
1000
,
0010
1000
0001
0100
1000
0010
0002
0000
,
0010
0023
2030
3200
,
0302
0203
2300
3020
,
0130
0001
0010
0100
0001
0100
1000
0010
,
0100
1000
0100
0001
0010
0000
0100
0000
,
1100
0000
1000
0000
0001
0010
0100
1000
,
0000
0001
0100
0001
0100
0010
0100
0001
,
1000
0000
1000
0010
0100
0000
0100
0001
,
0000
0010
0000
0100
1000
0000
0010
1000
,
0100
0000
0100
1000
0010
0000
0100
0001
,
0010
0000
0010
0001
0100
0001
1000
0001
,
0202
0303
0000
0000
0000
0000
0000
0000
0000
0000
0000
0000
0000
0000
0000
0000
0000
0000
0000
0000
0000
0000
0000
0000
2200
3300
0000
0000
0000
0000
0000
0000
0000
0000
0000
0000
0000
0000
0000
0000
0000
0000
0000
0000
0000
0000
0000
0000
0202
0303
0000
0000
0000
0000
0000
0000
0000
0000
0000
0000
0000
0000
0000
0000
0000
0000
0000
0000
0000
0000
0000
0000
2200
3300
0000
0000
0000
0000
0000
0000
0000
0000
0000
0000
0000
0000
0000
0000
0000
0000
0000
0000
0000
0000
0000
0000
2002
3003
0000
0000
0000
0000
0000
0000
0000
0000
0000
0000
0000
0000
0000
0000
0000
0000
0000
0000
0000
0000
0000
0000
0000
0000
0000
0000
0000
0000
0000
0000
0000
0000
0000
0000
0000
0000
0000
0000
0000
0000
0000
0000
0000
0000
0000
0000
0110
0000
0000
0000
0000
0000
0000
0000
0000
0000
0000
0000
0000
0000
0000
0000
0000
0000
0000
0000
0000
0000
0000
0000
1000
0000
0000
0000
0000
0000
0000
0000
0000
0000
0000
0000
0000
0000
0000
0000
0000
0000
0000
0000
0000
0000
0000
0000
,
0001
0000
0010
0000
0100
1000
0000
0001
,
0000
0100
0010
0100
0000
0010
1000
0001
,
0010
0000
1100
0000
1000
0001
0000
0100
,
0000
0100
0001
1000
0000
0001
0100
1000
,
0000
1000
0100
0001
0000
1000
0100
0001
,
0000
0001
0100
1000
0000
0001
0100
1000
,
0100
0001
0010
0001
1000
0100
0001
0100
,
1000
0010
1000
0100
0001
0000
0101
0000
,
1100
0000
1001
0000
0001
1000
0000
0010
,
0000
0100
0001
1000
0000
0001
0010
0100
,
1000
0000
0010
0000
0100
0001
0000
1000
,
0000
1000
0010
0100
0001
0000
1000
0001
,
0000
0100
0001
0100
0000
0100
1000
0100
,
0000
0010
1000
0010
0000
0010
0001
0010
,
0001
1000
0100
1000
0100
0001
0010
0100
,
1000
0000
0010
0000
0100
0000
0001
1000
,
0000
0100
0010
0000
0010
0001
1000
0000
,
1000
0010
1000
0100
1000
0001
0000
0010
,
0000
0001
1000
0000
0110
0000
0001
1000
,
0000
0001
0001
0001
0001
0001
0001
0001
,
0010
0000
0100
1000
0000
0010
0100
0000
,
1001
0000
1000
0010
0000
0100
0001
0000
,
0110
0000
1000
0100
0000
1000
0001
0000
,
2002
3003
0000
0000
0000
0000
0000
0000
0000
0000
0000
0000
0000
0000
0000
0000
0000
0000
0000
0000
0000
0000
0000
0000
2002
3003
0000
0000
0000
0000
0000
0000
0000
0000
0000
0000
0000
0000
0000
0000
0000
0000
0000
0000
0000
0000
0000
0000
2002
3003
0000
0000
0000
0000
0000
0000
0000
0000
0000
0000
0000
0000
0000
0000
0000
0000
0000
0000
0000
0000
0000
0000
2002
3003
0000
0000
0000
0000
0000
0000
0000
0000
0000
0000
0000
0000
0000
0000
0000
0000
0000
0000
0000
0000
0000
0000
2002
3003
0000
0000
0000
0000
0000
0000
0000
0000
0000
0000
0000
0000
0000
0000
0000
0000
0000
0000
0000
0000
0000
0000
0000
0000
0000
0000
0000
0000
0000
0000
0000
0000
0000
0000
0000
0000
0000
0000
0000
0000
0000
0000
0000
0000
0000
0000
0000
0000
0000
0000
0000
0000
0000
0000
0000
0000
0000
0000
0010
0000
0000
0000
0000
0000
0000
0000
0000
0000
0000
0000
0100
0000
0000
0000
0000
0000
0000
0000
0000
0000
0000
0000
0000
0000
0000
0000
0000
0000
0000
0000
0000
0000
0000
0000
,
0001
1000
0100
0000
0100
1000
0001
0000
,
1000
0010
0100
0001
0000
0001
0001
0001
,
1000
1000
0100
0001
0010
0001
0100
0010
,
0001
1000
0010
0001
1000
0010
0001
1000
,
0000
0010
0100
0000
0001
1000
0100
0000
,
0100
1000
0001
0100
0000
0001
0010
0100
,
1000
0001
0100
0000
0100
0001
1000
0000
,
1000
0010
0100
0010
0000
1000
0001
1100
,
0000
0000
0101
0000
,
1001
0000
0000
0000
;

//--------------- dance-single - ----------------
#NOTES:
     dance-single:
     :
     Hard:
     15:
     0,0,0,0,0,0,0,0,0,0,0,0,0,0,0,0,0,0,0,0,0,0:
0000
0000
0000
0000
,
0000
0000
0000
0000
,
0000
0000
0000
0000
,
0001
1000
0000
1000
0001
0100
0000
0100
,
0001
1000
0001
1000
0000
0001
0001
0001
,
1000
1000
0100
0001
0010
0010
0100
0001
,
0100
0001
0100
0001
0010
0001
1000
1000
,
0001
1000
0000
0010
0100
0001
1000
0010
,
0100
1000
0000
0010
0100
0001
1000
1000
,
0010
0001
0100
1000
0001
0001
1000
0001
,
1000
0010
0001
0001
1000
0100
1000
0010
,
0110
0000
0000
0000
1000
0000
0001
0000
0100
0010
0100
0000
0001
0000
0010
0000
,
0100
0000
1000
0001
1000
0001
0001
0001
,
0010
0001
0100
0100
0100
0100
1000
0001
,
0001
1000
0001
0001
1000
0001
0001
1000
,
0001
0000
1000
0000
0000
0000
0010
0000
0100
0001
0100
0000
0001
0000
1000
0000
,
0001
0000
0010
0000
0100
0000
1000
0001
0000
0001
1000
0000
0010
0000
0100
0000
,
0001
0000
1000
0000
0100
0000
1000
0001
1000
0000
0010
0000
0100
0000
0001
0000
,
1000
0100
0010
0100
0000
0100
1000
0001
,
1000
0000
1000
0000
0010
0000
0100
0000
0001
1000
0001
0000
0010
0000
0100
0000
,
1000
0001
1000
1100
0000
1100
1000
0001
,
1000
0010
1000
0000
0001
0000
1000
0000
0100
0001
0100
0000
1000
0000
0001
0000
,
0100
0010
0100
0000
0001
0000
0101
0000
0000
0000
0101
0000
0001
0000
0010
0000
,
0100
1000
0100
0000
1000
0000
1010
0000
0000
0000
1010
0000
1000
0000
0001
0000
,
0100
0010
0100
0000
0001
0000
0011
0000
0000
0000
0011
0000
0001
0000
0010
0000
,
0100
1000
0001
0000
0100
0000
0101
0000
0000
0000
0101
0000
0001
0000
1000
0000
,
0001
1000
0001
0000
1000
0000
0010
0000
0100
0000
0100
0000
0100
0000
0100
0000
,
0110
0000
1001
0000
0001
1000
0000
1100
,
0000
1100
0000
0100
0010
0001
1000
0000
,
1001
0000
0000
0000
0001
0000
0100
0000
0010
1000
0000
1000
0001
0000
0010
0000
,
0100
0000
1000
0000
0001
0000
0010
0000
0100
1000
0000
1000
0010
0000
0100
0000
,
0001
0000
0100
0000
0010
0000
1000
0000
0001
1000
0000
1000
0100
0000
0010
0000
,
0001
0000
1000
0000
0001
0000
0100
0000
0010
0000
0100
0001
1000
0000
0100
1000
,
0010
0000
0200
0000
0302
0010
0203
0000
,
2300
0001
3200
0010
2300
0001
3020
0000
,
0130
1000
0100
0001
0100
1000
0001
0010
,
1000
0000
0010
0000
0001
0000
1000
0000
0100
0010
0100
0000
0010
0001
1000
0001
,
1000
0000
0010
0000
0100
0001
1000
0001
,
0000
0010
0010
0100
1000
0001
0100
0010
,
0100
0000
0000
0100
0001
0000
1000
0000
0100
0000
0000
0100
1000
0000
0001
0000
,
0100
0000
0010
0000
0100
0000
0001
0000
1000
0000
0001
0000
1000
0100
1000
0100
,
1000
0000
0000
0000
0110
0000
0000
0000
0010
0000
1000
0000
0001
0100
0001
0100
,
0001
0000
1001
0000
0001
0010
0100
1000
,
2200
3300
0000
0000
0000
0000
0000
0000
0000
0000
0000
0000
0000
0000
0000
0000
0000
0000
0000
0000
0000
0000
0000
0000
0202
0303
0000
0000
0000
0000
0000
0000
0000
0000
0000
0000
0000
0000
0000
0000
0000
0000
0000
0000
0000
0000
0000
0000
2200
3300
0000
0000
0000
0000
0000
0000
0000
0000
0000
0000
0000
0000
0000
0000
0000
0000
0000
0000
0000
0000
0000
0000
0202
0303
0000
0000
0000
0000
0000
0000
0000
0000
0000
0000
0000
0000
0000
0000
0000
0000
0000
0000
0000
0000
0000
0000
2002
3003
0000
0000
0000
0000
0000
0000
0000
0000
0000
0000
0000
0000
0000
0000
0000
0000
0000
0000
0000
0000
0000
0000
0000
0000
0000
0000
0000
0000
0000
0000
0000
0000
0000
0000
0000
0000
0000
0000
0000
0000
0000
0000
0000
0000
0000
0000
0110
0000
0000
0000
0000
0000
0000
0000
0000
0000
0000
0000
0000
0000
0000
0000
0000
0000
0000
0000
0000
0000
0000
0000
0100
0000
0000
0000
0000
0000
0000
0000
0000
0000
0000
0000
0000
0000
0000
0000
0000
0000
0000
0000
0000
0000
0000
0000
,
1001
0000
0000
0000
0001
0000
0100
0010
0100
0000
0010
0000
1000
0000
0100
0000
,
1000
0010
1000
0000
0001
0000
1000
0100
1000
0000
0010
0000
0100
0000
0001
0000
,
0010
0100
1000
0010
1000
0100
0001
0100
,
1000
0000
0001
0000
0100
0000
0010
0000
0100
0000
0001
0000
0010
0100
0010
0000
,
1000
0000
0001
0000
0100
0010
0100
0000
1000
0000
0001
0000
0100
0010
0100
0000
,
1000
0000
0001
0000
0010
0100
0010
0000
1000
0000
0001
0000
0100
0000
1000
0000
,
0100
0000
0001
1000
0001
0000
0010
0000
1000
0001
1000
0000
0001
0000
0100
0000
,
1000
0001
1000
0000
0010
0000
0001
1000
0001
0000
0010
0000
1000
0001
1000
0001
,
1000
0000
0000
0000
1001
0000
0000
0001
0010
0000
0100
0000
0010
0000
0001
0000
,
1000
0000
0010
0000
0100
0000
0001
1000
0001
0000
0010
0000
0100
0000
1000
0000
,
1100
0000
0011
0000
1100
1000
0010
0100
,
0010
0000
1000
0100
1000
0000
0001
0010
0001
0000
1000
0000
0100
0000
1100
0000
,
0000
0000
1000
0000
0100
0010
0100
0000
0001
0000
1000
0000
0010
0100
0010
0000
,
0001
0000
1000
0000
0010
0100
0010
0000
0001
0000
1000
0000
0100
0000
0001
0000
,
0010
0000
0001
1000
0001
0000
0010
0000
1000
0001
1000
0000
0010
0000
0100
0000
,
1000
0001
1000
0000
0010
0000
0001
1000
0001
0000
0010
0000
1000
0001
1000
0001
,
0100
0000
0110
0000
0010
0100
0001
1000
,
1100
0000
1100
0000
1000
0001
0000
0101
,
0000
0001
1000
0000
0110
0000
0001
1000
,
0000
0001
0001
0001
0001
0001
0001
0001
,
0020
0000
0100
2030
0000
0010
3200
0000
,
0302
0000
0010
0203
0000
1000
0302
0000
,
0203
0000
0010
2300
0000
0001
3010
0000
,
2200
3300
0000
0000
0000
0000
0000
0000
0000
0000
0000
0000
0000
0000
0000
0000
0000
0000
0000
0000
0000
0000
0000
0000
0202
0303
0000
0000
0000
0000
0000
0000
0000
0000
0000
0000
0000
0000
0000
0000
0000
0000
0000
0000
0000
0000
0000
0000
2200
3300
0000
0000
0000
0000
0000
0000
0000
0000
0000
0000
0000
0000
0000
0000
0000
0000
0000
0000
0000
0000
0000
0000
0202
0303
0000
0000
0000
0000
0000
0000
0000
0000
0000
0000
0000
0000
0000
0000
0000
0000
0000
0000
0000
0000
0000
0000
2002
3003
0000
0000
0000
0000
0000
0000
0000
0000
0000
0000
0000
0000
0000
0000
0000
0000
0000
0000
0000
0000
0000
0000
0000
0000
0000
0000
0000
0000
0000
0000
0000
0000
0000
0000
0000
0000
0000
0000
0000
0000
0000
0000
0000
0000
0000
0000
0000
0000
0000
0000
0000
0000
0000
0000
0000
0000
0000
0000
0010
0000
0000
0000
0000
0000
0000
0000
0000
0000
0000
0000
0100
0000
0000
0000
0000
0000
0000
0000
0000
0000
0000
0000
0000
0000
0000
0000
0000
0000
0000
0000
0000
0000
0000
0000
,
0001
0000
0000
0000
1000
0000
0001
0000
0100
0010
0100
0000
0001
0000
1000
0000
,
0100
0000
1000
0010
0100
0001
0001
0001
,
1000
1000
0100
0001
0010
0001
0100
0010
,
0001
1000
0010
0001
1000
0010
0001
1000
,
0100
0000
0000
0000
1001
0000
0000
0000
1000
0100
1000
0000
0001
0000
0010
0000
,
0001
0000
1000
0000
0010
0000
0100
0001
0000
0001
0100
0000
0010
0000
1000
0000
,
0001
0000
0010
0000
0100
0000
1000
0001
1000
0000
0010
0000
0100
0000
0001
0000
,
1000
0100
0010
0100
0000
1000
0001
0101
,
0000
0000
1100
0000
,
1001
0000
0000
0000
;

//--------------- dance-single - ----------------
#NOTES:
     dance-single:
     :
     Challenge:
     17:
     0.795361,0.663067,0.027978,0,0,597,594,3,0,0,0,0.795361,0.663067,0.027978,0,0,597,594,3,0,0,0:
0000
0000
0000
0000
,
0000
0000
0000
0000
,
0000
0000
0000
0000
,
1000
0000
0001
0000
0100
0000
0001
1000
0001
0000
0010
0000
0100
0000
1000
0001
,
1000
0010
0100
0001
0000
0101
0101
0101
,
1010
1010
1100
0101
0011
0011
1100
0101
,
1100
0101
1100
0101
0011
0101
1010
1010
,
0101
1010
0000
0010
0000
0101
1010
0011
,
1100
1010
0000
0010
0000
0101
1010
1010
,
0011
0101
1100
1010
0101
0101
1010
0101
,
1010
0011
0101
0101
1010
1100
1010
0011
,
1001
0000
0000
0000
1000
0000
0001
0100
0010
0100
0010
0000
1000
0000
0001
0010
,
0001
0000
0100
0000
0010
0000
1000
0001
0100
0000
0101
0000
0101
0000
0101
0000
,
0011
0101
1100
1100
1100
1100
1010
0101
,
0101
1010
0101
0101
1010
0101
0101
1010
,
0101
0000
1010
0000
0000
0000
0010
0000
1000
0001
0100
0000
0010
0000
0100
0001
,
1000
0000
0100
0000
0010
0000
0001
1000
0000
1000
0010
0000
0100
0000
0001
0010
,
0100
0000
0010
0000
0001
0000
1000
0001
1000
0000
0010
0000
0100
0000
0000
0000
,
0100
0000
0001
0000
1000
0000
0001
0000
0010
0100
0010
0000
0001
0010
0100
1000
,
0001
0000
0000
0000
0101
0000
0100
0010
0100
0001
0000
0001
0010
0000
0100
0000
,
1000
0000
0001
0000
1000
0000
0010
0100
0010
0100
0001
0000
1000
0000
0100
0000
,
1000
0000
0010
0000
0100
0000
0001
0010
0001
0010
0100
0000
1000
0000
0001
0000
,
0010
0000
0100
0000
1000
0001
0100
0010
0000
0010
0100
0000
0010
0000
0010
1000
,
0001
0000
0100
0000
0010
1000
0100
0010
0000
0010
0100
0000
1000
0000
0001
0100
,
0001
0000
0100
0000
1000
0100
0001
0010
0000
0010
0100
0000
1000
0000
0001
0000
,
1000
0000
0100
0000
0001
0100
1000
0010
0000
0010
0100
0000
1000
0000
0100
0000
,
0001
0000
0010
0000
0001
0100
0000
0010
1000
0000
0100
0010
0100
0000
0100
0000
,
0110
0000
1001
0000
0001
0100
0000
1010
,
0000
0000
1010
0000
0000
0000
0101
0000
0001
1000
0010
0000
0100
0010
0100
0010
,
1001
0000
0000
0000
0001
0000
0100
0000
0010
1000
0100
1000
0010
0000
0100
0000
,
0010
0000
0100
0001
0010
0001
0100
0000
0010
0000
0100
0001
0010
0001
0100
0000
,
0010
0000
0100
0000
0010
1000
0100
1000
0010
0000
0100
0000
0010
0000
0100
0001
,
0010
0000
0100
1000
0010
0000
0100
0001
0010
0000
0100
1000
0010
0000
0100
0001
,
0010
0000
0020
0100
2030
0001
3200
0010
,
2300
0001
3020
0100
2030
0100
3020
0001
,
1030
0010
0001
1000
0001
0010
1000
0001
,
0010
0000
1000
0000
0001
0000
1000
0000
0010
0001
1000
0000
0010
0100
0010
0100
,
0001
0000
0000
0000
0011
0000
0000
0010
0100
0000
0100
1000
0001
0000
0100
0000
,
0000
0000
0100
0010
0100
0000
0001
0000
1000
0000
0001
0010
0100
0000
1000
0000
,
0001
0000
0000
0001
0100
0000
1000
0000
0100
0000
0000
0001
0010
0000
1000
0000
,
0010
0001
1000
0000
0001
0100
1000
0000
0100
0001
0010
0100
0010
0100
0010
0001
,
1000
0000
0110
0001
1000
0000
1001
0010
,
0100
0000
0110
0001
1000
0100
0010
0001
,
0022
0033
0000
0000
0000
0000
0000
0000
0000
0000
0000
0000
0000
0000
0000
0000
0000
0000
0000
0000
0000
0000
0000
0000
2200
3300
0000
0000
0000
0000
0000
0000
0000
0000
0000
0000
0000
0000
0000
0000
0000
0000
0000
0000
0000
0000
0000
0000
2020
3030
0000
0000
0000
0000
0000
0000
0000
0000
0000
0000
0000
0000
0000
0000
0000
0000
0000
0000
0000
0000
0000
0000
0202
0303
0000
0000
0000
0000
0000
0000
0000
0000
0000
0000
0000
0000
0000
0000
0000
0000
0000
0000
0000
0000
0000
0000
2002
3003
0000
0000
0000
0000
0000
0000
0000
0000
0000
0000
0000
0000
0000
0000
0000
0000
0000
0000
0000
0000
0000
0000
0000
0000
0000
0000
0000
0000
0000
0000
0000
0000
0000
0000
0000
0000
0000
0000
0000
0000
0000
0000
0000
0000
0000
0000
0110
0000
0000
0000
0000
0000
0000
0000
0000
0000
0000
0000
0000
0000
0000
0000
0000
0000
0000
0000
0000
0000
0000
0000
1000
0000
0000
0000
0000
0000
0000
0000
0000
0000
0000
0000
0000
0000
0000
0000
0000
0000
0000
0000
0000
0000
0000
0000
,
0001
0000
0100
0000
0010
0000
1000
0010
0100
0010
1000
0000
0100
0000
0010
0000
,
1000
0010
0100
0000
1000
0000
0010
0100
1000
0000
0100
0000
0001
0000
0010
0000
,
0110
0100
1001
0000
0011
1100
1000
0001
,
0100
0010
0100
0001
1000
0000
0001
0010
0100
0010
0001
0000
0100
0010
0001
0000
,
0010
0000
1000
0000
0010
0100
0001
0000
0010
0000
0100
0010
1000
0000
0010
0000
,
0100
0000
0010
0100
1000
0000
0001
0000
1000
0000
0001
0000
0100
0000
0010
0000
,
0100
0010
1000
0001
0010
0100
0010
0001
1000
0010
0100
0010
1000
0001
0010
0100
,
1000
0001
1000
0100
0010
0001
0100
0010
0001
0000
0001
0010
0100
0001
0010
0100
,
1000
0000
0000
0000
1001
0000
0000
0001
0010
0000
0100
0000
0001
0000
0100
0010
,
0001
0000
0100
0000
0001
0000
0100
0010
0001
0000
0010
0000
0100
0000
0001
0000
,
0101
0000
0000
0001
0010
0000
0000
0100
1000
0000
0010
0000
0100
0000
1000
0000
,
0100
0000
0001
1000
0001
0000
0010
0100
0010
0000
0001
0010
0100
1000
0001
0010
,
1000
0010
0100
1001
0000
1001
0100
0010
,
0000
0010
0100
1001
0000
1001
0010
0100
,
0001
0010
0100
0010
0001
0010
0100
1000
0010
0100
1000
0100
0010
0001
0010
0100
,
1000
0000
0100
0000
0001
0000
0000
1000
0100
0000
0010
0001
1000
0001
1000
0001
,
0100
0000
0010
0000
0100
0000
0001
0000
1000
0100
0000
0100
0010
0000
0100
0000
,
1000
0000
0001
0000
0100
0000
0010
0000
0100
0001
0000
0001
1000
0000
0100
0000
,
0010
0001
1000
0000
0110
0000
0001
1000
,
0000
0101
0101
0101
0101
0101
0101
0101
,
2000
0000
3010
0200
1000
0010
0302
1000
,
0023
0100
0001
0230
1000
0010
2300
0010
,
3002
0100
1000
0203
1000
0010
0301
1000
,
2020
3030
0000
0000
0000
0000
0000
0000
0000
0000
0000
0000
0000
0000
0000
0000
0000
0000
0000
0000
0000
0000
0000
0000
0202
0303
0000
0000
0000
0000
0000
0000
0000
0000
0000
0000
0000
0000
0000
0000
0000
0000
0000
0000
0000
0000
0000
0000
2200
3300
0000
0000
0000
0000
0000
0000
0000
0000
0000
0000
0000
0000
0000
0000
0000
0000
0000
0000
0000
0000
0000
0000
0022
0033
0000
0000
0000
0000
0000
0000
0000
0000
0000
0000
0000
0000
0000
0000
0000
0000
0000
0000
0000
0000
0000
0000
2002
3003
0000
0000
0000
0000
0000
0000
0000
0000
0000
0000
0000
0000
0000
0000
0000
0000
0000
0000
0000
0000
0000
0000
0000
0000
0000
0000
0000
0000
0000
0000
0000
0000
0000
0000
0000
0000
0000
0000
0000
0000
0000
0000
0000
0000
0000
0000
0000
0000
0000
0000
0000
0000
0000
0000
0000
0000
0000
0000
0010
0000
0000
0000
0000
0000
0000
0000
0000
0000
0000
0000
0100
0000
0000
0000
0000
0000
0000
0000
0000
0000
0000
0000
0000
0000
0000
0000
0000
0000
0000
0000
0000
0000
0000
0000
,
0001
0000
1000
0000
0100
0000
0010
0001
0010
0100
1000
0000
0010
0000
0100
0001
,
1000
0000
0100
0000
0010
0000
0100
1000
0001
0000
0101
0000
0101
0000
0101
0000
,
1010
1010
1100
0101
0011
0101
1100
0011
,
0101
1010
0011
0101
1010
0011
0101
1010
,
1001
0000
0001
0000
1000
0000
0010
0000
0100
0001
0010
0100
1000
0000
0010
0000
,
0100
0000
0001
0000
1000
0000
0001
0100
0000
0100
0010
0000
0100
0000
0001
1000
,
0100
0000
0001
0000
0100
0000
1000
0001
1000
0000
0010
0000
0100
0000
0001
0000
,
0010
0000
0100
0000
1000
0000
0001
0000
1000
0100
1000
0100
1000
0100
1100
0000
,
0000
0000
0101
0000
,
1001
0000
0000
0000
;
