#TITLE:More One Night;
#SUBTITLE:;
#ARTIST:チト(CV\:水瀬いのり)、ユーリ(CV\:久保ユリカ);
#TITLETRANSLIT:;
#SUBTITLETRANSLIT:;
#ARTISTTRANSLIT:Chito (CV\- Minase Inori), Yuuri (CV\- Kubo Yurika);
#GENRE:;
#CREDIT:;
#MUSIC:More One Night.ogg;
#BANNER:More One Night.png;
#BACKGROUND:More One Night-bg.png;
#CDTITLE:./CDTitles/DDR A.png;
#SAMPLESTART:72.239;
#SAMPLELENGTH:15.000;
#SELECTABLE:YES;
#OFFSET:0.000;
#BPMS:0.000=123.000;
#STOPS:;
#BGCHANGES:;
#FGCHANGES:;

//--------------- dance-single - ----------------
#NOTES:
     dance-single:
     :
     Edit:
     16:
     0,0,0,0,0:
0000
0000
0000
0000
,
2000
0100
3010
0001
2000
0100
3010
0001
2000
0010
3100
0001
2000
0010
3100
0001
,
2000
0100
3010
0001
2000
0010
3100
0001
2000
0100
3010
0001
2000
0010
3100
0001
,
2002
0000
0000
0000
0000
0000
0000
0000
0000
0000
3003
0000
2002
0000
0000
3003
,
0011
0000
1100
0000
0011
0000
0001
1000
0000
0110
0000
2002
3003
0000
1001
0000
,
1010
0000
0101
0000
1010
0000
1000
0001
0000
0110
0000
0010
2002
3003
0000
0000
,
1100
0000
0011
0000
1100
0000
0001
1000
0000
1001
0000
0220
0330
0000
1001
0000
,
1010
0000
0000
0000
0000
0000
0101
0000
0000
0000
0000
0000
1010
0000
0000
0000
0000
0000
1000
0000
0000
0001
0000
0000
0000
0000
0000
0001
0000
0010
0000
0100
0000
1000
0000
0000
2002
0000
0000
3003
0000
0000
0000
0000
0000
0000
0000
0000
,
0001
0010
0001
0010
0100
1000
0100
1000
0001
0100
0010
2000
0000
0000
3001
0000
,
1000
0010
1000
0010
0100
0001
0100
0001
1000
0100
0010
0002
0000
0000
1003
0000
,
0011
1010
0011
1010
0101
1100
0101
1100
,
0201
0000
1000
0000
0001
0000
0010
0000
1300
0100
0010
1000
1001
0000
0011
0000
,
2100
3000
0200
0000
0310
0002
1000
0003
1020
0000
0000
0230
0001
0300
2010
0000
,
0001
3000
0201
0000
0301
0020
0100
0030
2001
0000
3000
0200
0010
0300
0021
0000
,
0100
0030
2100
0000
3010
0200
0001
0300
2001
0000
3000
0020
0100
0030
2001
0000
,
0100
3000
1002
0000
0103
0020
1000
0030
2001
0000
0000
3000
0021
0000
0001
0000
,
0100
0030
0200
0000
1300
0002
0100
0003
0210
0000
0000
0320
1000
0030
2001
3000
,
1002
0000
0100
0003
2001
0000
0100
3000
0200
0000
0010
0000
1300
0001
0010
0100
,
2100
0000
0000
3000
0021
0000
0100
0030
2100
0000
0010
3000
0102
0000
1003
0010
,
0110
0000
0000
1001
0000
0000
0110
0000
0000
1001
0000
0000
0110
0000
0000
1001
0000
0002
2000
0000
0000
3003
0000
0000
,
1000
0100
0010
0100
1000
0100
0001
0100
1000
0010
0100
0010
1000
0010
0001
0010
,
1000
0100
0010
0100
1000
0010
0100
0010
1000
0001
0100
0010
0100
0001
1000
1000
,
0001
0100
0010
0100
0001
0100
1000
0100
0001
0010
0100
0010
0001
0010
1000
0010
,
0001
0100
0010
0100
0001
1000
0100
0010
0100
1000
0001
1000
1001
0000
1001
0000
,
0002
0100
0013
1000
0200
0010
0301
0010
0200
0010
0301
2000
0010
3100
2000
0100
,
3002
0000
0000
0010
0000
0000
0103
0000
0000
1000
0000
0000
0200
0000
0000
0010
0000
0000
1300
0000
0000
0010
0000
0000
0002
0000
0000
0100
0000
0000
0013
0000
0000
0200
0000
0000
0001
0000
0000
1300
0000
0000
0001
0000
0010
0000
0001
0000
,
0010
0000
0000
0100
0000
0000
1000
0000
0000
0100
0000
0000
1000
0000
0000
0001
0000
0000
1000
0000
0010
0000
1000
0000
0010
0000
0000
0100
0000
0000
0001
0000
0000
0100
0000
0000
0001
0000
0000
1000
0000
0000
0001
0000
0100
0000
0010
0000
,
1000
0100
0010
0001
0100
0010
1000
0100
0010
0001
0100
0010
2000
0000
0000
3000
0000
0000
1001
0000
0000
0110
0000
0000
,
2002
0000
0000
0000
3003
0000
0000
0000
0000
0001
0000
0000
0020
0000
0000
0000
0000
0000
0130
0000
0000
1000
0000
0000
0002
0000
0000
0000
0000
0000
0103
0000
0000
0001
0000
0000
0020
0000
0000
0000
0000
0000
0031
0000
0000
0010
0000
0000
,
2000
0000
0000
0000
0000
0000
3010
0000
0000
0001
0000
0000
0200
0000
0000
0000
0000
0000
0310
0000
0000
1000
0000
0000
0002
0000
0000
0000
0000
0000
0103
0000
0000
0001
0000
0000
0020
0000
0000
0030
0000
0000
0220
0000
0330
0000
0000
0000
,
2002
0000
0000
0000
3003
0000
0000
0000
0000
1000
0000
0000
0001
0000
0000
0000
0000
0000
0011
0000
0000
0000
0000
0000
1100
0000
0000
0000
0000
0000
0100
0000
0000
0010
0000
0000
0002
0000
0000
0000
0000
0000
1003
0000
0000
0100
0000
0000
,
0020
0000
0031
0100
2000
0000
3001
0010
0200
0000
1300
0100
0001
0010
1000
0000
,
0220
0000
0000
0000
0330
0000
0000
0000
0000
0100
0000
0000
1000
0000
0000
0000
0000
0000
1000
0000
0000
0010
0000
0000
0100
0000
0000
0000
0000
0000
0001
0000
0000
1000
0000
0000
0000
0000
0000
0000
0000
0000
1001
0000
0000
0000
0000
0000
,
0110
0000
0000
0001
0000
0000
1100
0000
0000
0010
0000
0000
0202
0000
0000
0303
0000
0000
2200
3300
0000
1001
0000
0000
,
0022
0000
0033
0000
0101
0000
1001
0000
2020
0000
3030
0000
1001
0000
0001
0100
,
0010
0001
0010
1000
0100
0010
0100
1000
0002
0000
0000
0000
2000
0000
0003
0000
,
0002
0000
0000
0000
0000
0000
0000
0000
0000
0000
0000
0000
3003
0000
0000
0001
1000
0001
2000
0000
0000
3001
0100
0010
,
1000
0010
1000
0010
0100
0000
0001
0010
0001
0010
0100
0000
1000
0100
1000
0100
,
0010
0000
0001
0100
0001
0100
0010
0000
1010
0000
0011
0000
0101
0000
1100
0000
,
1000
0100
0010
0100
1000
0000
0001
0100
0010
0100
0001
0000
1000
0010
0100
0010
,
1000
0000
0001
0010
0100
0010
0001
0000
0011
0000
1010
0000
1100
0000
0101
0000
,
0001
0100
1000
0100
0001
0000
1000
0100
0001
0100
1000
0000
0001
0010
1000
0010
,
0001
0000
1000
0010
0001
0010
1000
0000
1001
0000
0010
0100
0010
0000
0110
0000
,
0010
0100
0001
0010
1000
0000
0001
0100
1000
0010
0001
0000
1000
0100
0001
0010
,
1000
0000
0110
0000
0110
0000
1001
0000
1100
1000
0010
0100
0101
0001
1000
0001
,
1001
0000
0000
0000
0101
0000
0000
0000
1100
0000
0100
0010
2002
0000
0000
0000
,
3003
0000
0000
0000
;
