#TITLE:モノクロシティ;
#SUBTITLE:;
#ARTIST:ACE COLLECTION;
#TITLETRANSLIT:monoqlo city;
#SUBTITLETRANSLIT:;
#ARTISTTRANSLIT:ACE COLLECTION;
#GENRE:ANIME;
#CREDIT:;
#MUSIC:monoqlo city.ogg;
#BANNER:monoqlo city.png;
#BACKGROUND:monoqlo city-bg.png;
#CDTITLE:;
#SAMPLESTART:54.410;
#SAMPLELENGTH:15.111;
#SELECTABLE:YES;
#OFFSET:1.567;
#BPMS:0.000=135.000;
#STOPS:;
#LASTBEATHINT:1.337447;
#BGCHANGES:3.750=monoqlo city.avi=1.000=0=0=0=StretchNoLoop====,
99999.000=-nosongbg-=1.000=0=0=0=StretchNoLoop====
;
#FGCHANGES:;

//--------------- dance-single - ----------------
#NOTES:
     dance-single:
     :
     Hard:
     12:
     0,0,0,0,0:
0000
0000
0000
0000
,
0000
0000
0000
0000
,
0001
0000
0000
0000
1000
0000
0000
0000
0001
0000
0010
0000
0000
0011
0000
0000
,
1100
0000
0000
0000
0001
0000
0000
0000
1000
0000
0010
0000
0000
1010
0000
0000
,
0101
0000
0000
0100
0001
0000
1000
0000
0001
0000
0010
0000
0000
0110
0000
0000
,
1100
0000
1000
0000
0010
0000
1000
0000
0010
0000
0100
0000
0000
0101
0000
0000
,
1001
0000
1000
0000
0010
0000
0001
0000
0010
0000
1000
0000
0000
1001
0000
0000
,
1001
0000
0001
0000
0010
0000
1000
0000
0010
0000
0001
0000
0000
1001
0000
0000
,
1001
0000
0000
1000
0100
0000
0010
0000
0001
0000
0000
0001
0100
0000
0010
0000
,
1000
0000
0100
0000
0001
0000
0100
0000
1000
0000
0010
0100
0000
0110
0000
0000
,
0010
0000
1000
0000
0010
0000
0100
0000
0001
0000
1000
0100
0000
1000
0001
0000
,
0010
0000
0001
0000
0100
0000
0010
0000
1000
0000
0010
0100
0000
0001
0100
0000
,
0001
0000
1000
0000
0010
0000
0100
0000
0001
0000
0010
0100
0000
0100
1000
0000
,
0001
0000
1000
0000
0001
0000
0100
0000
0010
0000
1000
0000
0001
1000
0000
0000
,
0001
0000
0001
0000
1000
0000
1000
0000
0001
0000
0100
0010
0000
1000
0001
0000
,
0010
0000
0010
0000
0100
0000
0100
0000
0010
0000
0001
1000
0000
0010
0100
0000
,
0001
0000
0001
0100
0010
1000
0001
0100
,
0110
0000
0000
0000
1001
0000
0000
0000
0110
0000
1000
0000
0001
0000
0000
2001
,
0000
0000
0000
0000
3001
0000
0010
0000
0200
0000
0000
0000
2300
0000
0000
3002
,
0000
0103
1000
0100
0001
0100
1000
0000
,
0100
0000
0000
0000
1001
0000
0000
0000
0001
0000
1000
0100
0000
0010
0000
0100
,
1000
0000
1010
0000
0010
0100
0000
0100
0001
0000
1000
0000
1001
0000
0000
0000
,
1001
0001
0100
0000
1001
1000
0100
0000
,
0011
0001
1000
0000
1010
1000
0001
0000
,
0001
0100
1000
0100
0001
0010
1000
0010
,
0001
0000
1000
0000
0000
1010
0000
0000
0101
0000
0000
0000
0011
0000
0010
0000
,
0100
0000
1000
0010
0000
0100
0001
0000
2000
0000
0000
0000
3001
0000
0001
0000
,
1000
0000
0001
0010
0000
0100
1000
0000
1001
0000
0002
0000
0023
0000
0230
0000
,
0320
0230
2300
3002
0203
0302
2003
3002
,
2003
3020
0230
0302
,
0023
0230
2300
3001
,
0101
0000
1100
0000
0101
0001
0010
0100
,
1100
0000
1000
0010
0000
1000
0001
0000
1000
0000
0001
0100
0000
0001
1000
0000
,
1010
0000
0000
0010
0100
0000
0001
0000
0100
0000
0001
0000
1000
0000
0010
0000
,
1000
0000
0000
0110
0000
0000
0001
0000
0101
0000
0100
0000
0010
0000
1000
0000
,
1010
0011
1100
0101
,
1001
0000
0000
0001
0010
0000
0100
0000
0010
0000
0000
0100
1000
0000
0010
0000
,
0100
0000
0000
0001
0010
0000
0100
0000
0010
0000
0000
0001
0100
0000
1000
0000
,
0100
0001
0020
0000
0130
1000
0010
0100
,
0001
0000
1000
0100
0000
1000
0010
0000
0100
0000
0001
0010
0001
0000
1000
0100
,
1000
0000
0001
0010
0000
0001
1000
0000
0001
0000
1000
0100
0000
1000
0001
0000
,
0011
0000
0000
0010
0100
0000
1000
0000
0100
0000
1000
0000
0001
0000
0010
0000
,
0001
0000
0000
0110
0000
0000
1000
0000
1100
0000
0100
0000
0010
0000
0001
0000
,
0011
1010
0101
1100
,
1001
0000
0000
1000
0010
0000
0100
0000
0010
0000
0000
0100
0001
0000
0010
0000
,
0100
0000
0000
1000
0010
0000
0100
0000
0010
0000
0000
1000
0100
0000
0001
0000
,
0100
1000
0020
0000
0130
0001
0010
0100
,
1000
0000
0001
0100
0000
0001
0010
0000
0100
0000
1000
0010
1000
0000
0001
0100
,
0002
0000
0013
0100
1000
0001
0010
0100
,
1000
0000
0001
0000
0100
0010
0000
0100
1000
0000
0100
0001
1000
0001
1000
0000
;

//--------------- dance-single - ----------------
#NOTES:
     dance-single:
     :
     Challenge:
     15:
     0.305924,0.249029,0,0,0,193,193,0,0,0,0,0.305924,0.249029,0,0,0,193,193,0,0,0,0:
0000
0000
0000
0000
,
0000
0000
0000
0000
,
0001
0000
0000
0000
1000
0000
0000
0000
0001
0000
0100
0010
0000
0010
1000
0000
,
0100
0000
0000
0000
0010
0000
0000
0000
0100
0000
0010
0001
0000
0001
1000
0000
,
0010
0000
0000
0100
0001
0000
0010
0000
0100
0000
0010
0001
0000
1000
0010
0000
,
0001
0000
0010
0100
0010
0000
1000
0000
0001
0000
1000
0100
0000
0010
0001
0000
,
0010
0000
0100
1000
0010
0000
0100
0001
0010
0000
0100
1000
0000
0001
0010
0100
,
1000
0000
0001
0010
0100
0000
1000
0010
0100
0000
0010
1000
0000
0001
0100
0010
,
1000
0000
0000
0010
0100
0000
0001
0000
1000
0000
0000
0100
0010
0000
0001
0000
,
1000
0010
1000
0000
0010
0000
0100
0001
0100
0000
0010
0000
1000
0002
0000
0000
,
0013
0000
0100
1000
0001
0000
0100
0010
1000
0000
0100
0010
0000
0001
0100
0010
,
0100
0000
0000
0100
0001
0000
0010
0000
1000
0000
0010
0001
0000
0010
0100
1000
,
0001
0000
0000
1000
0010
1000
0010
0100
0001
0000
1000
0010
0100
0000
0001
0000
,
1000
0000
0100
0010
0001
0000
0010
0000
0100
0000
1000
0000
0001
0100
0000
0000
,
0110
0000
1000
0010
1000
0000
0001
0100
0001
0000
0010
0100
0000
0010
0001
0000
,
1000
0000
0010
0100
0010
0000
0001
0000
0010
0000
1000
0100
0000
0100
0001
0000
,
0100
0000
0000
1000
0010
0000
0100
0001
1000
0000
0001
0010
0100
0010
0001
0010
,
0100
0000
0100
1000
0010
0000
0100
0000
0001
0000
1001
0000
1000
0100
0000
0110
,
0000
0000
0001
0010
0100
0000
2000
0000
3002
0000
0000
0000
0023
0000
0000
0130
,
2000
0000
3020
0000
0130
1000
0100
0010
1000
0010
0100
1000
0100
0010
1000
0001
,
0010
0000
0100
0000
2001
0000
3002
0000
0023
0000
0130
1000
0100
0010
0001
0010
,
0100
0000
0110
0000
0100
1000
0000
0100
0001
0000
0100
0000
1000
0001
0000
0000
,
0001
0000
0010
0000
0110
0000
0100
0000
0110
0000
0000
0000
1001
0000
0000
0001
,
0100
0000
0010
0000
1000
0100
0000
0000
1001
0000
0000
0000
0110
0000
0000
1000
,
0001
0000
0100
0000
1000
0000
0100
0000
0001
0000
1000
0100
0010
0100
1000
0001
,
0010
0000
0110
0000
1000
0001
0000
0000
0101
0000
1000
0010
0100
0001
1000
0000
,
0010
0000
0001
0010
0000
0010
1000
0000
0200
0000
0000
0000
0310
0000
0100
1000
,
0010
0000
0100
0001
0000
0001
1000
0000
1001
0000
0002
0000
0023
0000
0230
0000
,
0320
0230
2300
3002
0203
0302
2003
3002
,
1003
0100
0010
0001
1000
0100
0010
0001
1000
0010
0100
0001
1000
0010
0100
0001
,
1000
0100
0010
0001
1000
0010
0100
0001
0010
0100
1000
0010
0001
0010
1000
0200
,
0010
0000
0001
0000
1300
0010
0100
0001
,
1001
0000
1000
0010
0100
0000
0001
0000
1000
0000
0001
0010
0100
0000
1000
0000
,
1010
0000
0000
0010
0100
0000
0001
1000
0001
1000
0000
0100
0010
0001
1000
0100
,
0010
0000
0000
0010
0001
0000
0100
0000
1000
0100
0010
0000
0110
0000
0011
0000
,
1010
0000
0010
1000
0100
0010
0100
1000
0010
0100
0010
0001
0010
0100
0001
0010
,
1000
0000
0000
1000
0010
0000
0001
0000
1000
0000
0010
0100
0010
0000
0100
0000
,
0001
0000
1000
0100
1000
0000
0100
0010
0100
0000
0010
0001
0010
0000
0100
0000
,
1100
0100
0020
0001
0130
1000
0010
0100
,
0002
0000
1003
0100
1000
0100
0020
0000
0130
1000
0100
1000
0001
0100
0001
0100
,
0010
0000
0000
0010
1000
0000
0100
0000
0001
0000
0100
1000
0010
0000
0100
0000
,
0001
1000
0001
1000
0010
0000
0100
0001
0100
0001
0000
1000
0100
0010
0100
1000
,
0010
0000
0000
0010
0100
0000
0001
0000
0101
0000
0100
0010
1000
0000
0001
0000
,
1000
0000
0001
0100
0001
0000
0100
0010
0100
0000
0010
1000
0020
0000
0000
1030
,
0002
0000
0000
0013
0100
0000
1000
0000
2000
0000
0000
3010
0100
0000
0001
0000
,
0001
0000
0010
0100
0010
0000
0001
0000
0100
0010
0100
0000
0001
0000
1000
0000
,
0100
0000
1000
0000
0001
0000
0100
0000
0001
0000
0000
1000
0100
0000
0010
0000
,
0001
1000
0001
0000
0100
0000
0010
1000
0010
1000
0001
0100
0001
0100
0010
1000
,
0002
0000
0000
0000
0013
0000
0100
1000
0100
0010
0001
0010
0100
1000
0010
0100
,
0001
0000
1000
0000
0100
0001
0000
0100
1000
0000
0001
0100
1000
0100
0010
0000
;
