#TITLE:模倣犯;
#SUBTITLE:;
#ARTIST:缶缶;
#TITLETRANSLIT:Mohouhan (A copycat crime);
#SUBTITLETRANSLIT:;
#ARTISTTRANSLIT:Kankan;
#GENRE:POP;
#CREDIT:;
#MUSIC:Mohouhan (A copycat crime).ogg;
#BANNER:Mohouhan (A copycat crime).png;
#BACKGROUND:Mohouhan (A copycat crime)-bg.png;
#CDTITLE:;
#SAMPLESTART:62.102;
#SAMPLELENGTH:15.000;
#SELECTABLE:YES;
#OFFSET:1.821;
#BPMS:0.000=130.000;
#STOPS:;
#LASTBEATHINT:1.718149;
#BGCHANGES:7.000=Mohouhan (A copycat crime).avi=1.000=0=0=0=StretchNoLoop====,
99999.000=-nosongbg-=1.000=0=0=0=StretchNoLoop====
;
#FGCHANGES:;

//--------------- dance-single - ----------------
#NOTES:
     dance-single:
     :
     Hard:
     12:
     0,0,0,0,0:
0000
0000
0000
0000
,
0000
0000
0000
0000
,
0000
0000
0000
0000
0000
0000
0000
0000
0000
0000
0001
0000
1000
0100
0000
2000
,
0000
0000
3010
0000
0100
0000
0002
0000
0000
0000
1003
0000
0100
0010
0000
0200
,
0000
0000
1300
0000
0001
0000
0200
0000
0000
0000
0310
0000
1000
0001
0000
0020
,
0000
0000
0130
0000
1000
0000
0020
0000
0000
0000
0130
0000
0001
1000
0000
0200
,
0000
0000
0310
0000
0001
0000
2000
0000
0000
0000
3010
0000
0100
0001
0000
0020
,
0000
0000
0130
0000
1000
0000
0002
0000
0000
0000
0103
0000
0010
1000
0000
0002
,
0000
0000
0013
0000
0100
0000
0020
0000
0000
0000
0031
0000
1000
0010
0000
0200
,
0000
0000
0301
0000
1000
0000
0020
0000
0000
0000
0130
0000
0001
0010
0000
0000
,
0011
0000
0000
0110
0000
0000
1100
0000
1000
0000
0100
0000
0001
0000
0100
0000
,
1000
0010
0100
0010
0000
0100
0001
0010
,
0100
0000
1000
0010
0000
0100
0001
0000
0000
0000
0010
0000
0100
0000
0000
0000
,
0100
1000
0001
0100
0000
0100
0010
0100
,
0001
0000
0000
0001
0000
0000
0010
0000
0000
0000
0001
0000
1000
0000
0000
0000
,
0010
0100
0010
0100
0000
0001
0010
0100
,
1000
0000
0001
0010
0000
0100
1000
0000
0000
0000
1000
0000
0010
0000
0000
0000
,
0010
0100
0001
0010
0000
0010
0100
1000
,
0001
0000
0000
0100
0000
0000
0100
0000
0010
0000
1000
0000
0001
0000
0000
0000
,
0001
0010
0100
1000
0000
1000
0010
0100
,
0001
0000
1000
0100
0000
0010
0001
0000
0000
0000
1000
0000
0010
0000
0000
0000
,
0010
0100
0001
1000
0000
1000
0001
0010
,
0110
0000
0000
1001
0000
0000
0110
0000
1000
0000
0010
0000
0100
0000
0000
0000
,
0100
0001
0010
1000
0000
1000
0010
0001
,
0100
0000
0010
1000
0000
0010
0100
0000
0001
0000
0010
0000
0100
0000
0000
0000
,
0100
1000
0001
0101
0000
0010
1000
0001
,
0010
0000
0000
0010
0000
0000
0100
0000
1000
0000
0001
0000
0001
1000
0000
0000
,
1000
0100
0010
0001
1000
0100
0010
0002
,
0000
1003
0100
0010
0001
0100
1000
0100
,
0001
0010
0100
1000
0001
0010
0100
1100
,
0000
1000
0100
0010
0001
0001
1000
1000
,
0001
0100
0010
1000
0001
0100
0010
2000
,
0000
3001
0100
0001
1000
0100
0001
0100
,
1000
0000
0010
0000
1000
0000
0010
0000
0100
0000
0001
0000
0100
0000
0001
1000
,
0001
0000
0000
0010
0000
0000
0100
0000
1000
0000
0001
0000
0110
0000
0000
0000
,
0001
0000
0100
0001
0000
1000
0100
1000
0100
0000
0010
0000
0100
0000
1000
0000
,
0001
0000
0000
0100
0000
0000
0010
0000
1000
0000
0100
0000
0010
0000
1000
0000
,
0010
0000
0001
0010
0000
0100
1000
0000
0010
0000
0100
0000
0001
0000
1000
0000
,
0010
0000
0000
0110
0000
0000
0100
0000
0001
0000
1000
0000
0100
0000
0010
0000
,
0001
0000
1000
0010
0000
0100
0001
0100
0001
0000
0010
0000
0100
0000
1000
0000
,
0010
0000
0000
0010
0000
0000
0100
0000
0001
0000
0010
0000
0100
0000
1000
0000
,
0001
0000
0000
0100
0000
0000
1000
0000
0100
0000
0001
0000
0010
0000
0100
0000
,
1000
0000
0000
1100
0000
0000
0001
0000
1000
0000
0010
0000
0100
0000
0001
0000
,
0101
0000
0001
1000
1100
0000
1000
0001
,
0011
0000
0000
0000
0001
0000
1000
0000
1010
0000
0000
0110
0000
0000
0101
0000
,
0001
0000
1000
0100
0001
0100
1000
0010
,
0000
0000
0100
0000
0001
1000
0001
1000
0001
0000
0010
0000
0100
0000
1000
0000
,
1100
0000
1000
0001
0101
0000
0100
0010
,
0110
0000
0000
0000
0001
0000
1000
0000
0000
0000
0001
0000
0010
0100
0000
1000
,
0020
0000
0000
0001
0000
0000
0130
0000
0001
0000
1000
0000
0100
0000
0010
0000
,
0002
0000
0000
0000
2000
0000
0000
0000
0003
0000
3001
0000
0001
0010
0000
0200
,
0000
0000
0310
0000
0001
0000
2000
0000
0000
0000
3010
0000
0100
0001
0000
0020
,
0000
0000
0130
0000
1000
0000
0002
0000
0000
0000
0103
0000
0010
0100
0000
0002
,
0000
0000
1003
0000
0100
0000
0020
0000
0000
0000
0130
0000
1000
0001
0000
1000
,
0001
0100
0020
0000
0000
0230
0302
0023
,
0230
0000
0000
0000
1300
0000
0002
0000
0000
0000
1003
0000
0100
0000
1000
0010
,
0000
0100
0001
0000
0010
0000
0200
0000
0000
0000
1300
0000
0001
0000
0100
0000
,
0020
0000
0000
0000
0100
0000
0230
0000
0000
0000
0301
0000
1000
0100
0000
1000
,
0001
0000
0000
0101
0000
0000
1010
0000
1000
0000
0001
0000
1000
0000
1000
0100
;

//--------------- dance-single - ----------------
#NOTES:
     dance-single:
     :
     Challenge:
     17:
     0.801972,0.919065,0.41278,0,0.853078,612,567,45,0,0,0,0.801972,0.919065,0.41278,0,0.853078,612,567,45,0,0,0:
0000
0000
0000
0000
,
0000
0000
0000
0000
,
0000
0000
0000
0000
0000
0000
0000
0000
0000
0000
0101
0000
0001
0010
0000
2100
,
0000
0000
3010
0000
0100
0000
0201
0000
0000
0000
0301
0000
1000
0100
0000
0021
,
0000
0000
0130
0000
1000
0000
2001
0000
0000
0000
3010
0000
1000
0010
0000
0102
,
0000
0000
1003
0000
0100
0000
0210
0000
0000
0000
1300
0000
0001
0100
0000
1020
,
0000
0000
1030
0000
0001
0000
0021
0000
0000
0000
0130
0000
1000
0010
0000
0100
,
0002
0000
0010
0000
0013
0000
2100
0000
0000
0000
3010
0000
0100
0001
0000
2100
,
0000
0000
3010
0000
0100
0000
0102
0000
0000
0000
0013
0000
0100
1000
0000
0001
,
0100
0000
1000
0000
0100
0000
0201
0000
0000
0000
0310
0000
1000
0001
0000
0000
,
0011
0000
0000
1100
0000
0000
1010
0000
0101
0000
0001
0010
0100
0010
0001
1000
,
0010
0000
0100
0000
0001
0000
0101
0000
0000
0001
0010
0000
0100
0000
1000
0010
,
0100
0000
0100
0001
0000
0001
1000
0000
0100
0000
0010
0100
1000
0000
0001
0000
,
0100
0000
1000
0000
0100
0000
1010
0000
0000
0001
0010
0000
0100
0000
1000
0000
,
0001
0000
0010
0100
0000
1000
0010
0000
0100
0000
0001
0010
0100
0000
0010
0001
,
1000
0000
0010
0000
0100
0000
0101
0000
0000
0001
1000
0000
0010
0000
0100
0001
,
0010
0000
0100
1000
0000
1000
0001
0000
0100
0000
0010
1000
0100
0010
0100
0000
,
1000
0001
0100
0101
0000
0001
0010
0100
,
1000
0000
0001
0100
0000
0010
0100
0000
1000
0001
0010
0000
0100
0010
0000
0010
,
0110
0000
0001
0000
1000
0000
0001
0000
0100
0000
1000
0000
0100
0010
0100
0000
,
0001
0000
0010
0100
0000
1000
0001
0000
0100
0000
1000
0100
0001
0000
0010
0000
,
0100
0000
1000
0000
0001
0000
0010
0000
0100
0000
1000
0001
0100
0000
0010
0000
,
1010
0000
0000
0110
0000
0000
0101
0000
0001
0000
1000
0100
0010
0000
1000
0010
,
0001
0100
1000
0100
0010
1000
0001
0010
,
0100
0000
1000
0100
0000
0010
0100
0000
1000
0000
0001
0100
1000
0000
0100
0000
,
0010
1000
0001
0011
0000
0010
0100
1000
,
0001
0000
0000
0000
0000
0000
0000
0000
0000
0000
0000
0000
0000
0000
0000
0000
0000
0000
1000
0000
0000
0000
0000
0000
0001
0000
0000
0100
0000
0000
0001
0000
0000
0100
0000
0000
0001
0000
0000
0000
1000
0000
0000
0000
0100
0000
0000
0000
0010
0000
0000
0000
0000
0000
0000
0000
0000
0000
0000
0000
0100
0000
0000
0000
0000
0000
0000
0000
0000
0000
0000
0000
0100
0000
0000
0000
0000
0000
1000
0000
0000
0000
0000
0000
0000
0000
0000
0000
0000
0000
1000
0000
0000
0000
0000
0000
,
0001
0010
0100
1000
0001
0010
0100
1000
0001
0010
0100
1000
0001
0010
2000
0000
,
0000
3010
0001
1000
0110
0001
0110
1000
,
0001
0100
0010
1000
0001
0100
0010
1000
0001
0010
0100
1000
0001
0000
0110
0000
,
0000
0000
1000
0100
0001
0000
0100
0000
1000
0010
0001
0000
0010
1000
0001
0000
,
1000
0100
0010
0001
1000
0100
0010
0001
1000
0100
0010
0001
1000
0010
0002
0000
,
0000
0000
0013
1000
0100
0000
0010
0000
1001
0000
0100
0000
1001
0000
0010
0000
,
0100
0000
0000
0000
0000
0000
0001
0000
0000
0000
0000
0000
0010
0000
0000
0000
0000
0000
0100
0000
0000
0000
0000
0000
1000
0000
0000
0000
0000
0000
0010
0000
0000
0000
0000
0000
0100
0000
0000
0000
0000
0000
0001
0000
0000
0000
0000
0000
0010
0000
0000
0000
0100
0000
0000
0000
1000
0000
0000
0000
0010
0000
0000
0000
0100
0000
0000
0000
0001
0000
0000
0000
0010
0000
0000
0100
0000
0000
1000
0000
0000
0100
0000
0000
1000
0000
0000
0100
0000
0000
1000
0000
0000
0100
0000
0000
,
2000
0000
0000
0010
0000
0000
0010
0000
3010
0100
0001
1000
1100
0000
0100
0010
,
0100
0000
1000
0010
0000
0100
0001
0000
0001
0010
0100
1000
0001
0100
1000
0001
,
0010
0000
0010
0100
0000
0001
0010
0000
0100
0000
1000
0001
0100
0000
0010
0000
,
1010
0000
1000
0100
0000
0010
0100
0000
0001
0100
1000
0010
0100
1000
0100
0001
,
0010
0000
0100
1000
0000
0010
0100
0000
0010
1000
0001
0000
0010
0000
0100
0010
,
1001
0000
0001
0100
0000
0010
0100
0000
1000
0100
0010
1000
0100
0001
1000
0010
,
0001
0000
0001
0100
0000
0010
1000
0000
0001
0010
0100
0000
0001
0100
1000
0000
,
0001
0000
0100
1000
0000
0001
0010
1000
0100
0010
1000
0001
0100
0000
0100
1000
,
0001
0000
0110
0000
0110
0000
0010
1000
0010
1000
0001
0000
1001
0000
1000
0100
,
0002
0000
0103
0000
0110
0000
0010
0000
2001
0000
3002
0000
0013
1000
0020
0000
,
0032
0000
0203
0000
1300
0100
0001
0010
2000
0000
3001
0100
0000
0100
1000
0000
,
0010
0000
0100
0001
1000
0000
0001
0010
0100
0001
0100
0010
0001
0100
0010
0001
,
1000
0000
1000
0100
0010
0001
0010
1000
0001
0000
0010
0000
0100
0000
1000
0000
,
1100
0000
0010
0000
0101
0000
0010
1000
0010
0000
0100
0000
0001
0010
0100
1000
,
0010
0000
0100
0000
0001
0000
0110
0000
0000
0000
1001
0000
0001
0100
0000
1000
,
0100
0000
0000
0000
0000
0000
0110
0000
0000
0000
0000
0000
1010
0000
0000
0000
0000
0000
0101
0000
0000
0000
0000
0000
0001
0000
0000
0010
0000
0000
0100
0000
0000
1000
0000
0000
0001
0000
0010
0000
0100
0000
1000
0000
0001
0000
0010
0000
,
0200
0000
0000
0000
0000
0000
0000
0000
0000
0000
1300
0000
0001
0010
0000
2100
,
0000
0000
0010
0000
3010
0000
0102
0000
0000
0000
0013
0000
0100
1000
0000
1000
,
0010
0000
0100
0000
0001
0000
2001
0000
0000
0000
3010
0000
0010
0100
0000
0001
,
0010
0000
0100
0000
1000
0000
0010
0000
0000
0000
0000
0000
0100
0000
0000
0000
0000
0000
0102
0000
0000
0000
0000
0000
0000
0000
0000
0000
0000
0000
1003
0000
0000
0000
0000
0000
0010
0000
0000
0100
0000
0000
0000
0000
0000
0100
0000
0000
,
0000
0001
0010
0000
0200
0000
1000
0000
1000
0000
0320
0000
0032
0000
0203
0000
,
0310
0000
1000
0000
0001
0000
1000
0000
0000
0000
0000
0000
0100
0000
0000
0000
0000
0000
0120
0000
0000
0000
0000
0000
0000
0000
0000
0000
0000
0000
0130
0000
0000
0000
0000
0000
1000
0000
0000
0001
0000
0000
0000
0000
0000
0021
0000
0000
,
0000
0000
0130
0000
1000
0000
0102
0000
0000
0000
0103
0000
0010
1000
0000
1000
,
0001
0000
0100
0000
0001
0000
0100
0000
0000
0000
0000
0000
0010
0000
0000
0000
0000
0000
0120
0000
0000
0000
0000
0000
0000
0000
0000
0000
0000
0000
1030
0000
0000
0000
0000
0000
0001
0000
0000
0010
0000
0000
0000
0000
0000
0010
0000
0000
,
0110
0000
0000
0000
0000
0000
0000
0000
0000
1100
0000
0000
0000
0000
0000
0000
0000
0000
1001
0000
0000
0000
0000
0000
0001
0000
0010
0000
0100
0000
1000
0000
0000
0000
0000
0000
0010
0000
0000
0000
0000
0000
0010
0000
0000
0100
0000
0000
;
