#TITLE:メビウス;
#SUBTITLE:;
#ARTIST:柊キライ feat.めいちゃん;
#TITLETRANSLIT:Mobius;
#SUBTITLETRANSLIT:;
#ARTISTTRANSLIT:Hiiragi Kirai feat.Meychan;
#GENRE:POP;
#CREDIT:;
#MUSIC:Mobius.ogg;
#BANNER:Mobius.png;
#BACKGROUND:Mobius-bg.png;
#CDTITLE:;
#SAMPLESTART:61.739;
#SAMPLELENGTH:12.000;
#SELECTABLE:YES;
#OFFSET:-0.025;
#BPMS:0.000=140.000;
#STOPS:;
#BGCHANGES:1.500=Mobius.avi=1.000=0=0=0=StretchNoLoop====,
99999.000=-nosongbg-=1.000=0=0=0=StretchNoLoop====
;
#FGCHANGES:;

//--------------- dance-single - ----------------
#NOTES:
     dance-single:
     :
     Medium:
     12:
     0,0,0,0,0:
0000
0000
0000
0000
,
0000
0000
0000
0000
,
2000
0000
0000
3100
0020
0000
0000
0031
,
0200
0000
0000
0310
2000
0000
0000
3100
,
0010
0001
0010
0100
0010
1000
0010
0001
,
0011
0000
1100
0000
1000
0010
0100
0110
,
0000
0210
0000
0301
1000
0000
0001
0000
,
0010
0100
0000
0100
1000
0001
0000
0100
,
0000
1001
0000
0001
1000
0010
0000
0100
,
0001
1000
0000
0001
1000
1100
0000
0000
,
1000
0000
0001
0100
0001
0000
1000
0100
,
1000
0000
0001
0000
0100
0000
0010
1000
,
0001
0000
0010
0000
0010
0000
0100
1000
,
0001
0000
1000
0000
0001
0100
0010
0100
,
1001
0000
0001
0010
0100
0000
1000
0010
,
0100
0000
1000
0000
0100
0000
0001
0010
,
0100
0000
0010
0000
0100
1000
0100
0010
,
0001
0000
1000
0000
0001
0100
0010
0100
,
1001
0000
1000
0001
0100
0000
0010
1000
,
0100
0000
0010
0000
0001
0100
0010
0100
,
1000
0100
0001
0010
,
0100
1000
0010
0100
0001
1000
0100
0010
,
0011
0001
0010
0100
1000
0001
0010
0100
,
1000
0001
0100
1000
0001
0010
1000
0100
,
0010
0000
0010
0000
0100
1000
0010
0000
,
0100
0000
1001
0000
1000
0001
0010
0100
,
1100
0011
1010
0101
,
0110
0000
0000
0000
0110
0000
0000
0100
0010
0000
1000
0000
1001
0000
0000
0000
,
0001
0100
1000
0100
0001
1000
0001
1000
,
0011
0000
0101
0000
0100
0001
0010
0100
,
1000
0100
0001
0100
1000
0001
1000
0001
,
1010
0000
1100
0000
0100
1000
0010
0100
,
0001
0010
1000
0010
0001
0100
0010
0100
,
0110
0000
1001
0000
1000
0001
0010
0100
,
1100
0000
0101
0000
1100
0000
0101
1000
,
0010
0100
0001
0010
1000
0010
0001
0100
,
0010
0000
1010
0000
0100
0001
0011
0000
,
1001
0000
0000
1000
0010
0000
0000
0100
0001
0000
0010
0000
0100
0000
0010
0000
,
0001
1000
1010
0000
1000
0010
0100
0001
,
0010
0100
0011
0000
0001
0010
0100
0000
,
1000
0000
0000
0010
0100
0000
0001
0000
0010
0000
0000
0100
1000
0000
0100
0000
,
0010
0010
0001
0001
1000
0010
0100
0010
,
1010
0000
1000
0010
0001
0000
1000
0100
,
0001
0011
0000
1010
0000
1100
0001
0101
,
1010
0000
1001
0000
0001
0010
0100
1000
,
0010
1010
0000
0011
0000
0101
1000
1100
,
0011
0000
1010
0000
0001
1000
0010
0100
,
0001
0110
0000
1001
0000
1010
0100
0101
,
1001
0000
1001
0000
0001
0010
0100
1000
,
1010
0000
0010
0100
0101
0000
0001
1000
,
1001
0000
1001
0000
0010
0100
0001
0010
,
2000
0000
3002
0000
0103
1000
0020
0000
,
0032
0000
2003
0000
3100
0001
0020
0000
,
0130
1000
0100
0001
0100
0010
0100
1000
,
1001
0000
1001
0000
2002
0000
0000
3003
,
1000
0100
0010
0100
1000
0000
0001
0000
,
0100
0010
0000
0100
0001
1000
0000
0001
,
0100
0010
0100
0001
0010
0000
0100
0000
,
1000
0010
0000
0100
0001
0010
0100
1001
,
0000
1001
0000
0001
1000
0000
0010
0000
,
0100
0001
0000
0010
0100
1000
0000
0001
,
0100
0010
1000
0001
1000
0001
0010
0100
,
1000
0100
1000
0001
0100
0020
0000
0000
,
0030
0000
0000
0000
;

//--------------- dance-single - ----------------
#NOTES:
     dance-single:
     :
     Hard:
     15:
     0,0,0,0,0:
0000
0000
0000
0000
,
0000
0000
0000
0000
,
1002
0000
0000
0000
0000
0000
0003
0000
1000
0100
0000
0100
0020
0000
0000
0000
0000
0000
0000
0000
0130
1000
0000
1000
,
0020
0000
0000
0000
0000
0000
0000
0000
0130
0001
0000
0001
2000
0000
0000
0000
0000
0000
0000
0000
0000
3100
0000
1000
,
0001
0000
0000
0100
0000
0001
0010
0000
0000
0010
0000
0100
1000
0000
0000
1000
0000
0001
0100
0000
0000
0010
0000
0000
,
1001
0001
0110
0100
1001
1000
0110
1001
,
0000
0000
0000
2001
0000
0000
0000
0000
0000
3001
0000
0100
0010
0000
0000
0000
0000
0000
1010
0000
0000
0100
0000
0000
,
0001
0000
1000
0100
0000
0000
1000
0000
0000
1100
0000
0000
1000
0000
0001
0100
0000
0000
0001
0000
0000
0101
0000
0000
,
0010
0000
0000
1001
0000
0000
0001
0000
0010
0000
0100
0000
1000
0000
0000
1001
0000
0000
1000
0000
0010
0000
0100
0000
,
0001
0000
0000
1001
0000
0000
0001
0000
0010
0000
1000
0000
0010
0000
0000
0110
0000
0000
0000
0000
0000
0000
0000
0000
,
1001
0000
0000
0001
0000
0000
1000
0000
0000
0010
0000
0100
0000
0000
0000
0100
0000
0000
0001
0000
0000
1000
0000
0100
,
0000
0010
0001
0100
0010
0100
1000
0100
,
0001
0000
0000
0000
0000
0001
0010
0000
0000
0100
0000
0000
0010
0000
0010
0001
0000
0000
1000
0000
0000
0010
0000
0000
,
0100
0010
0001
0010
0100
1010
0110
0101
,
1001
0000
0000
1000
0000
0000
0001
0000
0000
0010
0000
0100
0000
0000
0000
0100
0000
0000
1000
0000
0000
0001
0000
0100
,
0000
0010
1000
0100
0010
0100
0001
0100
,
1000
0000
0000
0001
0000
0100
0000
0000
0100
0010
0000
0000
0100
0000
0000
1000
0000
0000
0100
0000
0000
0010
0000
0000
,
0100
0001
0010
0100
1000
0011
0110
1100
,
1001
0000
0000
0001
0000
0000
0100
0000
0000
0001
0000
1000
0000
0000
0000
1000
0000
0000
0100
0000
0000
1000
0000
0001
,
0000
0000
0000
0010
0000
0000
0100
0000
0000
1000
0000
0000
0001
0000
0100
0010
0000
0000
1000
0000
0000
0001
0000
0000
,
0010
0000
0000
0000
0000
0010
0100
0000
0000
0100
0000
0000
2000
0000
0000
0010
0000
0000
3002
0000
0000
0010
0000
0000
,
0203
0001
0320
0100
1030
1100
1001
0011
,
0000
0000
0000
0110
0000
0000
1000
0000
0000
0001
0000
0100
0000
0000
0000
0110
0000
0000
0001
0000
0000
1000
0000
0100
,
0000
0000
0010
0200
0000
0000
1000
0000
0000
2300
0000
0000
0010
0000
0000
3020
0000
0000
0100
0000
0000
0230
0000
0000
,
0302
0000
0000
1003
0000
0100
0000
0000
0000
0100
0000
0000
0020
0000
0000
0001
0000
0000
0230
0000
0000
0010
0000
0000
,
2300
0010
0002
3003
1000
0001
1000
1001
,
0011
0000
0000
0001
0000
1000
0010
0000
0100
0010
0000
0000
1010
0000
0000
1000
0000
0001
0010
0000
0100
0010
0000
0000
,
0110
0000
0000
0000
0000
0000
0110
0000
0000
0000
0000
0100
0010
0000
0000
0002
0000
0000
2000
0000
0000
3003
0000
0000
,
0100
1010
0100
0011
0100
1001
1001
1001
,
1000
0000
0001
0100
0000
0000
0001
0000
1000
0100
0000
0000
0020
0000
0000
0032
0000
0000
2003
0000
0000
3020
0000
0000
,
0130
1010
0100
0011
0100
1001
1001
1001
,
1000
0000
0010
0100
0000
0000
0001
0000
0010
0100
0000
0100
2000
0000
0000
3002
0000
0000
0203
0000
0000
2300
0000
0000
,
3100
0000
0000
0101
0000
0000
0010
0000
0000
1100
0000
0000
1000
0000
0001
0100
0000
0000
0110
0000
0000
0110
0000
0000
,
0010
0000
0000
1000
0000
0100
0001
0000
0000
0100
0000
0000
2000
0000
0000
3002
0000
0000
0023
0000
0000
0230
0000
0000
,
1300
1001
0001
1001
1000
1001
0110
1001
,
0001
0000
0000
1000
0000
0100
0010
0000
0000
0100
0000
0010
0100
0000
0100
1000
0000
0001
0100
0001
0100
0001
0100
0001
,
1000
0000
0000
0100
0000
0000
0010
0000
0000
0100
0000
0000
1000
0000
0000
0000
0000
0000
0001
0000
0000
0000
0100
0000
0000
0000
0000
0000
0100
0000
0010
0000
0000
0000
0000
0000
0110
0000
0000
0000
0000
0000
0010
0000
0000
0000
0000
0000
,
1000
0000
0000
0000
0001
0000
0000
0000
0001
0000
0000
0000
0010
0000
0000
0000
0100
0000
0000
0000
0100
0000
0000
0000
0010
0000
0000
0000
0001
0000
0000
0000
0000
0100
0000
0000
0010
0000
0000
0000
0000
0000
1010
0000
0000
0000
0000
0000
,
0101
0000
1010
0000
0101
0000
1000
0100
1000
0001
0100
0001
1000
0000
0011
0000
,
1100
0000
0000
0000
0000
0000
0011
0000
0000
0000
0000
0000
1100
0000
0000
0000
0000
0000
0001
0000
0000
0000
0000
0000
0100
0000
0000
0000
0001
0000
0000
0000
0000
0001
0000
0000
1000
0000
0000
0000
0000
0000
0100
0000
0000
0000
0000
0000
,
0010
0000
0010
0000
0000
0001
1000
0000
0000
0010
0000
0000
0100
0000
0100
0000
0000
0001
1000
0000
0000
0100
0000
0000
,
0010
0001
0010
0100
0010
0001
0010
0100
1000
0010
0100
0010
1000
0001
0000
0000
,
1001
0000
0001
0100
0010
0100
0010
1000
0001
0010
0000
0010
1000
0000
1000
0010
,
0002
1000
0010
1000
0010
1000
1000
1003
,
1010
0100
0011
0100
1001
0100
0010
0100
,
0010
2001
0010
0001
0010
0001
0001
3001
,
0011
0100
1010
0100
1002
2003
3020
0130
,
0001
0101
1000
1100
0001
1001
0110
1001
,
0010
0110
0100
0110
0020
2030
3200
0302
,
1003
1010
0010
0011
0001
0101
1010
1001
,
0001
0000
0100
0000
1000
0000
0100
0000
0010
1000
0100
0010
1000
0000
0001
0000
,
0100
0000
0100
0000
1000
0000
0010
0100
0000
0000
0110
0000
0010
0000
1010
0000
,
1000
0000
0001
0000
0101
0000
0001
1000
0000
0000
0100
0000
0010
0000
0001
0000
,
0100
1100
0100
0101
0010
1010
0010
0011
,
1001
0000
1001
0000
2002
0000
0000
3003
,
1001
0001
0010
0100
2000
0000
3001
0100
,
0010
0000
1000
0002
0000
0000
0000
0000
0000
0013
0000
0000
0100
0000
1000
0002
0000
0000
0000
0000
0000
0103
0000
0000
,
0010
0010
1000
0100
0001
0000
0001
0100
,
1000
0000
0010
0100
0000
0000
0101
0000
0000
0101
0000
0000
1100
0000
0000
1100
0000
0000
0110
0000
0000
1001
0000
0000
,
0000
0000
0000
2002
0000
0000
3003
0000
0000
0001
0000
0010
1000
0000
0000
0000
0000
0000
0010
0000
0000
0001
0000
0000
,
0100
0000
0100
1000
0000
0000
0100
0000
0000
0001
0000
0000
0010
0000
0010
1000
0000
0000
0010
0000
0000
0001
0000
0000
,
0100
0000
0000
0010
0000
0000
1000
0000
0001
0000
0010
0000
1000
0000
0000
1010
0000
0000
0010
0000
0100
0000
1000
0000
,
0001
0000
0000
0101
0000
0000
0100
0000
1000
0000
0001
0000
0010
0000
0000
0220
0000
0000
0000
0000
0000
0000
0000
0000
,
0330
0000
0000
0000
;

//--------------- dance-single - ----------------
#NOTES:
     dance-single:
     :
     Challenge:
     18:
     0.96114,1.178372,0.486471,0,0.995888,733,680,53,0,0,0,0.96114,1.178372,0.486471,0,0.995888,733,680,53,0,0,0:
0000
0000
0000
0000
,
0000
0000
0000
0000
,
2002
0000
0000
0000
0000
0000
3003
0000
0001
0100
0000
0100
0020
0000
0000
0000
0000
0000
0030
0000
0010
1000
0000
1000
,
0002
0000
0000
0000
0000
0003
0000
0000
0001
0010
0000
0010
0200
0000
0000
0000
0000
0000
0000
0300
0000
0100
0000
1000
,
0001
0000
0000
0100
0000
0001
0010
0000
0100
0010
0000
0100
1000
0000
0001
0100
0000
0010
0100
0000
0010
1000
0000
0001
,
0100
1010
0110
0101
0110
1100
1001
1001
,
0000
0000
0000
0110
0000
0000
0000
0000
0000
1010
0000
0100
0001
0000
0010
0000
0000
0000
0110
0000
0000
0100
0000
1000
,
0001
0000
0001
0100
0000
0000
0010
0000
0000
0110
0000
0000
0100
0000
0001
1000
0000
0000
0100
0000
0000
0001
0000
0000
,
0100
0000
0000
1100
0000
0000
1002
0000
0100
0000
0013
0000
2100
0000
0000
3001
0000
0000
2001
0000
0100
0000
3010
0000
,
0102
0000
0000
1003
0000
0000
0210
0000
0001
0000
0310
0000
1010
0000
0000
1001
0000
0000
0000
0000
0000
0000
0000
0000
,
1001
0000
0000
0100
0000
0000
1000
0000
0000
0010
0000
0100
0000
0000
0100
0002
0000
0000
1000
0000
0000
0013
0000
0100
,
0000
0000
0100
1000
0000
0000
1010
0000
0000
0001
0000
0000
0101
0000
0000
1000
0000
0000
1100
0000
0000
0100
0000
0000
,
0010
0000
0000
0100
0000
0000
0001
0000
0000
1000
0000
0000
0010
0000
0001
1000
0000
0000
0010
0000
0000
0100
0000
0000
,
1000
0000
0000
0100
0000
0000
0010
0000
0000
0100
0000
0000
0001
0000
0010
0100
0000
0000
1100
0000
0000
0110
0000
0000
,
0011
0000
0000
1000
0000
0000
0001
0000
0000
1000
0000
0010
0000
0000
0010
0100
0000
0000
0001
0000
0000
1000
0000
0100
,
0000
0000
0100
0010
0000
0000
0011
0000
0000
1000
0000
0000
1100
0000
0000
0010
0000
0000
1010
0000
0000
1000
0000
0000
,
0101
0000
0000
0001
0000
0100
0000
0000
0100
1000
0000
0000
0100
0000
0100
0001
0000
0000
0010
0000
0000
1000
0000
0010
,
0000
0000
0010
0100
0000
0000
1000
0000
0000
0010
0000
0100
0010
0000
0100
0001
0000
0000
0011
0000
0000
0110
0000
0000
,
1100
0000
0000
1000
0000
0001
0100
0000
0000
0010
0000
1000
0000
0000
1000
0100
0000
0010
0100
0000
0000
1000
0000
0010
,
0000
0000
0100
0010
0000
0010
1000
0000
0000
0010
0000
0000
0100
0000
0001
0010
0000
0010
0100
0000
0000
0010
0000
0000
,
0110
0000
0000
0100
0000
1000
0001
0000
0000
0100
0000
0000
0001
0000
1000
0100
0000
0000
0010
0000
0000
0001
0000
0000
,
1000
0000
0010
0100
0000
0000
0010
0000
0000
0100
0000
0000
1010
0000
0100
0001
0000
0000
0101
0000
0000
0110
0000
0000
,
1010
0000
0000
0010
0000
0100
0001
0000
0000
0010
0000
0100
0000
0000
0001
0100
0000
0000
1000
0000
0000
0010
0000
0100
,
0000
0000
0001
0020
0000
0000
0100
0000
0000
0230
0000
0000
1000
0000
0310
0001
0000
0000
0010
0000
0000
0100
0000
0000
,
0001
0000
0000
1000
0000
0100
0010
0000
0000
0100
0000
0000
0010
0000
0010
0001
0000
0000
1000
0000
0000
0010
0000
0000
,
0100
0000
0010
0100
0000
0000
0002
0000
0000
1003
0000
0010
0100
0000
0100
0001
0000
0000
1000
0000
0000
1001
0000
0000
,
1000
0010
0100
0010
0100
0010
1000
0100
0010
0001
1000
0100
0010
0100
0010
0100
0010
0001
0100
0010
1000
0001
0100
0010
,
0100
0000
0000
0000
0000
0000
0000
0000
0000
0000
0000
0000
0000
0000
0000
0000
0000
0000
0000
0000
0000
0000
0000
0000
0110
0000
0000
0000
0000
0000
0000
0000
0000
0000
0000
0000
0000
0000
0000
0000
0000
0000
0000
0000
0100
0000
0000
0000
0010
0000
0000
0000
0000
0000
0000
0000
0000
0000
0000
0000
1000
0000
0000
0000
0000
0000
0000
0000
0000
0000
0000
0000
0001
0000
0000
0000
0000
0000
0000
0000
0000
0000
0000
0000
0010
0000
0000
0100
0000
0000
0010
0000
0000
0100
0000
0000
,
0010
0000
0000
1001
0000
0000
0100
0000
0000
1001
0000
0100
0010
0000
0000
1001
0000
0000
0011
0000
0000
1100
0000
0000
,
0100
0000
0010
0001
0000
0000
0100
0000
0010
1000
0000
1000
0002
0000
0000
0023
0000
0000
0230
0000
0000
2300
0000
0000
,
3001
1010
0001
1010
0001
1010
0101
1001
,
1000
0000
0010
0100
0000
0000
0001
0000
0010
0100
0000
0100
2000
0000
0000
3002
0000
0000
0023
0000
0000
0230
0000
0000
,
1300
0000
0000
1010
0000
0100
0001
0000
0000
0011
0000
0100
1000
0000
0001
0100
0000
0000
0110
0000
0000
1001
0000
0000
,
0100
0000
0000
0001
0000
0010
0100
0000
0000
0010
0000
0001
0100
0000
0010
0200
0000
0000
2300
0000
0000
3200
0000
0000
,
0301
0000
0000
1001
0000
0100
0001
0000
0000
1001
0000
0010
1000
0000
0000
0101
0000
0000
1010
0000
0000
0101
0000
0000
,
0001
0000
0000
1000
0000
0100
0010
0000
0000
0001
0000
0100
0010
0000
0010
1000
0001
1000
0001
0100
0001
0100
0010
1000
,
0000
0000
1000
0001
0000
0100
0010
0000
0100
0001
0010
0001
1000
0000
1000
0100
0000
0010
0100
0000
0100
1000
0000
1000
,
0001
0000
0011
0000
0101
0000
0100
0000
1010
0000
0110
0000
0001
0000
0010
0100
0010
0100
1000
0000
1000
0001
0000
0100
,
0010
0000
0000
0110
0000
0010
1000
0000
0000
0110
0000
0100
0001
0000
0001
0010
0000
0010
1000
0000
1000
0010
0000
0010
,
0001
0000
0000
0011
0000
0001
1000
0000
0000
0110
0000
0000
0100
0001
0100
0001
1000
0010
1000
0001
0100
0010
0100
0010
,
1000
0000
1000
0100
0000
0100
0010
0000
0010
0001
0000
0001
0100
0000
0100
0010
0000
0010
1000
0000
1000
0001
0000
0100
,
1000
0000
0100
0010
0000
1000
0001
0010
0001
0010
0001
1000
0100
0010
0001
0010
0100
1000
0001
0000
0001
0100
0000
0100
,
0010
0000
0000
1001
0000
0100
0010
0000
0010
0100
0000
0000
0001
0010
0100
1000
0001
0100
0001
0100
0001
1000
0100
0010
,
0001
0000
0000
0011
0000
0001
0100
0000
0000
1010
0000
1000
0100
0000
0100
0001
0000
1000
0010
0000
0010
0001
0000
1000
,
0001
0000
0100
0010
0100
0010
1000
0000
0000
0100
0010
0100
0010
0001
1000
0010
0000
0001
0010
0000
1000
0010
0000
0010
,
0100
0000
0000
0101
0000
0001
0010
0000
0000
1100
0000
1000
0010
0000
0010
0001
0000
1000
0100
0000
0100
0001
0000
1000
,
0001
0000
0100
0001
0100
0001
1000
0000
0000
1000
0100
1000
0001
1000
0100
1000
0001
1000
0010
1000
0001
1000
0100
1000
,
0001
0000
0000
0101
0000
0001
1000
0000
0000
1100
0000
1000
0001
0000
0001
1000
0000
1000
0010
0000
0010
0100
0001
0010
,
0100
0000
0000
0110
0000
1000
0001
0000
0000
0100
0000
0001
0100
0001
1000
0001
0010
0001
1000
0001
0100
0001
1000
0001
,
0010
0000
0000
1100
0000
1000
0100
0000
0100
0001
0000
0001
0100
0000
0100
1000
0000
1000
0010
0000
0010
0001
0000
0001
,
0010
0000
0000
0110
0000
0000
0001
0000
0000
1010
0000
0000
0100
0000
0000
1001
0000
0100
0010
0000
0100
0001
0000
0100
,
1000
0000
0000
0000
0000
0000
0100
0000
0000
0000
0000
0000
0001
0000
0000
0000
0000
0000
0010
0000
0000
0100
0000
0000
0000
0000
0000
0000
0100
0000
1000
0000
0000
0000
0000
0000
1000
0000
0001
0000
1000
0000
0010
0000
0000
0000
0010
0000
,
0100
0000
0000
0000
0000
0000
0100
0000
0000
0000
0010
0000
0100
0000
0000
0000
0000
0000
0100
0000
0000
0001
0000
0000
0000
0000
0000
0000
0010
0000
0100
0000
0000
0000
0001
0000
0100
0000
0000
0000
0010
0000
0100
0000
0000
0000
1000
0000
,
0100
0000
0000
1100
0000
0001
0010
0000
0000
0110
0000
0000
0010
0000
0100
1000
0000
1000
0001
0000
0001
0100
0000
0100
,
0010
0000
0110
0000
2002
0000
0000
3003
,
1001
0000
0001
0100
0000
0100
0010
0000
0010
1000
0000
1000
0002
0000
0000
0100
0000
0000
0013
0000
0000
0110
0000
0100
,
1000
0000
1000
0010
0000
0000
0110
0000
0100
0001
0000
0001
0010
0000
0010
0100
0000
0000
0110
0000
0100
1000
0000
0001
,
0100
0000
0000
1010
0000
0000
0101
0000
0001
1000
0000
1000
0100
0000
0000
0110
0000
0010
0001
0000
0001
0100
0000
0000
,
0110
0000
0010
1000
0000
1000
0100
0000
0100
0010
0000
0000
1100
0000
0000
0101
0000
0000
1100
0000
0000
0101
0000
0000
,
0000
0000
0000
1002
0000
0000
0103
0000
0100
0010
0000
1000
0010
0000
0010
0100
0000
0000
1001
0000
0001
0010
0000
0010
,
0100
0000
0100
0002
0000
0000
0203
0000
0000
2300
0000
0000
3010
0000
0010
0002
0000
0000
0013
0000
0000
0110
0000
0000
,
0101
0000
0001
0010
0000
0000
0011
0000
0100
1000
0100
0010
0001
0000
0000
0011
0000
0000
1010
0000
0100
0001
0100
0010
,
1000
0000
0000
1020
0000
0000
0230
0000
1300
0100
0001
0010
0200
0000
0000
2000
0000
0000
0000
0000
0000
0000
0000
0000
,
3300
0000
0000
0000
;
