#TITLE:ミックスナッツ;
#SUBTITLE:;
#ARTIST:Official髭男dism;
#TITLETRANSLIT:Mixed Nuts;
#SUBTITLETRANSLIT:;
#ARTISTTRANSLIT:Official HIGE DANdism;
#GENRE:Anime;
#CREDIT:;
#MUSIC:Mixed Nuts.ogg;
#BANNER:Mixed Nuts.png;
#BACKGROUND:Mixed Nuts-bg.png;
#CDTITLE:;
#SAMPLESTART:51.001;
#SAMPLELENGTH:13.400;
#SELECTABLE:YES;
#OFFSET:0.999;
#BPMS:0.000=150.000;
#STOPS:;
#BGCHANGES:2.500=Mixed Nuts.avi=1.000=0=0=0=StretchNoLoop====,
99999.000=-nosongbg-=1.000=0=0=0=StretchNoLoop====
;
#FGCHANGES:;

//--------------- dance-single - ----------------
#NOTES:
     dance-single:
     :
     Medium:
     12:
     0,0,0,0,0:
0000
0000
0000
0000
,
0001
0100
0000
0001
1000
0001
0000
0010
,
0100
1000
0000
0001
0100
0001
0000
1000
,
0100
0010
0100
1000
0010
0100
0010
1000
,
1100
0011
0101
1010
,
1000
0000
1010
0000
0000
0101
0000
0000
0011
0000
0000
1100
0000
0000
0100
0000
,
1000
0001
0001
1000
1000
0010
0100
0000
,
1001
0000
0001
1000
0010
0000
0010
1000
,
0002
0000
0023
0000
0130
1000
0010
0001
,
0010
1010
1100
0011
,
1001
0000
1000
0010
0100
0000
0010
1000
,
0001
0000
0001
0010
0100
0000
0100
1000
,
0010
0000
0010
0100
0001
0000
0001
0100
,
1000
0000
1000
0100
0001
0000
0010
0100
,
0001
0100
1000
0010
0000
0100
1001
0000
,
0110
0001
0001
1000
0100
0010
0001
0010
,
0100
0000
1000
0001
1000
0000
0010
0100
,
0101
0000
1001
0000
1000
0100
0020
0000
,
0032
0000
0013
0100
1000
0001
0100
0010
,
1000
0000
1000
0100
0010
0000
0010
0001
,
1000
0000
1000
0010
0001
1000
0100
0001
,
2000
0000
3100
0010
0000
0001
1000
0001
,
0101
0000
1010
0000
1000
0100
0100
0001
,
0100
0000
0100
0000
1000
0001
0000
0101
0000
0000
1000
0000
0010
0000
0010
0000
,
0100
0000
0100
0000
0001
0010
0000
1100
0000
0000
1000
0000
0001
0000
0100
0000
,
0100
0000
1000
0000
0100
0010
0000
0110
0000
0000
0001
0000
0100
0000
0010
0000
,
0100
0000
1000
0000
0100
0000
0001
0010
0000
0100
0000
0010
0000
0001
1000
0000
,
0100
0000
0100
0000
0001
0100
0000
1100
0000
0000
0001
0000
1000
0000
0010
0000
,
0100
0000
0100
0000
0001
0100
0000
1010
0000
0000
0100
0000
0010
0000
0100
0000
,
0000
2000
3200
0320
0032
0203
0320
2030
,
3002
0000
0013
0100
0010
0000
0001
1000
,
0001
0000
0000
0001
0000
0000
1000
0000
0000
1000
0000
0000
0010
0000
0100
0000
,
0010
1000
1001
0000
0001
0010
0100
2100
,
0000
3001
0100
0001
1000
0000
0010
0100
,
0000
0100
0001
0000
1000
0100
0010
0001
,
0011
0000
1100
0000
1001
0001
0100
0010
,
0110
0000
1010
0000
0101
0001
0010
0100
,
1100
0000
1000
0000
0001
0100
0000
1010
0000
0000
0010
0000
1000
0000
0100
0000
,
0010
0000
0100
0000
1000
0001
0000
0110
0000
0000
0000
0000
0100
0000
0001
0000
,
0010
0000
0010
0100
0000
0100
1000
0001
,
0101
0000
0100
0010
0200
0000
0301
1000
,
0000
0100
0010
0100
1000
0000
0001
0100
,
0000
0100
1000
0000
1000
0100
0001
0010
,
1100
0000
1010
0000
0101
0001
1000
0001
,
1100
0000
1010
0000
0011
0001
1000
0010
,
0100
0001
0010
0001
0100
0010
1000
0100
,
1000
0001
0100
0101
0000
0100
0010
1001
,
0000
0001
0001
0010
0100
1000
0001
0100
,
2000
0000
3001
0010
1000
0100
0010
0001
,
2000
0000
0001
3001
0020
0000
0100
0130
,
1000
0010
0100
0002
0000
0013
0100
1000
,
0010
0001
1000
0100
0001
0001
1000
1000
,
0001
0010
0011
0000
1000
0010
1010
0100
,
0001
0000
0010
0000
0000
0011
0000
0000
0100
0000
0000
1100
0000
0000
1000
0000
,
0001
1000
0001
0100
0010
0100
1001
0000
;

//--------------- dance-single - ----------------
#NOTES:
     dance-single:
     :
     Hard:
     15:
     0,0,0,0,0:
0000
0000
0000
0000
,
0001
0100
0001
1000
0001
1000
0100
1000
,
0010
1000
0001
0100
0001
0010
0100
1000
,
0001
0100
1000
0100
0001
0010
0001
0010
,
1000
0010
0001
1000
0100
0010
0001
1000
,
1001
0000
1001
0000
0001
0100
0000
0010
0100
0010
0000
1000
0001
0010
0000
0100
,
1000
0000
0001
0100
0001
0000
1000
0100
1000
0000
0010
0100
0001
1000
0000
0000
,
1001
0001
0001
1000
0010
0100
0001
0010
,
0100
0000
1000
0001
0000
1000
0100
0000
1000
0000
0001
1000
0000
0001
0100
0000
,
0010
1000
1100
0000
1000
0001
0101
0000
,
0100
0000
0010
1000
0000
0010
0100
0000
0001
0000
0010
0100
0000
0010
0001
0000
,
1100
0000
0000
0110
0000
0000
0001
0000
1000
0000
0001
0000
0100
0000
1000
0000
,
0100
0000
0001
1000
0001
0000
0010
0000
0100
0000
0100
1000
0001
0000
0100
0000
,
0101
0000
0000
0010
1000
0000
0100
0000
0001
0000
0100
0010
0100
0000
1000
0000
,
0001
0000
0000
0001
0100
0000
0010
0000
1000
0000
1000
0100
0010
0001
0010
0100
,
1000
0000
0010
0000
0010
0000
0100
0000
0001
0000
1000
0001
0000
1000
0100
0000
,
0010
0000
0001
0100
0010
0000
0100
0001
0010
0000
0000
0010
0100
0000
0010
0100
,
1000
0000
0001
0000
0101
0000
0000
0000
1010
0000
0010
0000
0100
0000
0001
0010
,
0001
0000
0010
0100
0010
0000
0100
1000
0000
1000
0001
0000
0100
0000
0010
1000
,
0001
0000
0001
0010
0000
0010
0100
0000
1000
0000
0010
0100
0010
0000
0100
0001
,
1000
0000
1000
0010
0000
0010
0100
0001
1000
0000
0001
0000
0010
0000
0100
1000
,
0020
0000
0000
0000
0130
0000
0001
0000
1000
0000
0001
0010
0100
1000
0001
0000
,
1001
0000
1000
0010
0000
0010
0100
0000
0001
0000
0010
0100
0010
0100
1000
0010
,
0100
0000
0101
0000
0001
0010
0000
1100
0000
0000
0010
0100
0010
0000
0100
0000
,
0101
0000
0001
1000
0010
0100
0000
0110
0000
0000
1000
0000
0001
0000
0010
0000
,
1100
0000
0001
0100
0010
1000
0000
1010
0000
0000
1001
0000
0001
0000
0010
0000
,
0100
0000
1000
0010
0100
0000
0100
0001
0000
0101
0000
0011
0000
0000
0110
0000
,
0100
1000
0100
0000
0010
0001
0000
0110
0000
0000
0100
0000
1000
0010
0100
0000
,
0101
0000
0001
1000
0001
1000
0000
1100
0000
0000
0100
0000
0110
0000
0001
0000
,
0000
0002
0023
0230
2300
3020
0230
0302
,
0103
0000
1000
0000
0100
0001
0000
0001
0010
0000
0010
0100
1000
0000
0010
0000
,
0101
0000
0000
0011
0000
0000
1100
0000
0000
1010
0000
0000
1001
0000
0110
0000
,
0010
1000
0001
1000
0001
0000
0000
0000
0011
0000
0010
0000
0100
0000
2100
0000
,
0000
0000
3001
0000
0100
0000
0001
0000
1000
0010
0000
0100
0010
0000
0100
0001
,
1000
0000
0100
0000
0010
0000
0100
0000
1000
0000
1000
0010
0000
0100
0001
0010
,
0100
0000
1100
0000
1000
0100
0010
0000
0011
0000
0001
0100
0000
1000
0100
0000
,
0010
0000
1000
0100
0000
0001
0100
0000
1100
0000
1000
0010
0100
0010
0100
0010
,
1000
0000
1010
0000
0100
0001
0000
0011
0000
0000
0010
0000
0100
0000
1000
0000
,
1100
0000
0011
0000
0100
1000
0000
0120
0000
0000
0000
0000
0130
0000
0001
0000
,
1000
0000
0001
0010
0000
0010
0100
0000
1100
0000
1000
0010
0100
0000
0010
1000
,
0001
0000
0001
0010
0001
0010
0100
1000
0020
0000
0000
0000
0130
0000
0010
0000
,
0100
0000
0001
0000
1000
0100
0000
0010
0100
0000
1000
0100
0010
0000
0100
1000
,
0001
0000
0100
0000
1000
0000
0100
0000
0001
0000
0001
0100
0000
0010
1000
0010
,
0100
0000
0110
0000
0100
0001
0000
0100
0010
0000
0100
1000
0000
0100
0001
0010
,
0100
0000
0010
1000
0000
0010
0100
0000
0010
0001
0000
1000
0010
0100
0001
1000
,
0010
0000
0010
0000
0100
0000
0001
0000
1000
0000
1000
0100
0010
0000
0100
0000
,
1100
0001
1000
0101
0000
0101
1100
1001
,
0000
0000
0001
0010
0001
0000
0010
0100
0010
0000
0100
1000
0100
0000
1000
0001
,
1000
0000
0010
0100
0010
0000
0100
0001
1000
0001
1000
0100
0010
0001
1000
0100
,
0020
0000
0000
0000
0001
0000
0031
1000
0200
0000
0000
0000
0010
0000
0310
0001
,
1000
0010
0100
0200
0000
0301
1000
0100
,
0010
0000
0001
0100
0001
0000
1000
0100
1000
0000
0001
0100
0000
0001
1000
0000
,
0010
0110
0110
0000
0100
1001
1001
0001
,
0010
0000
0100
0000
1000
0010
0000
0010
0100
0000
0100
0001
0000
0001
1000
0000
,
1001
0000
0001
0100
0010
0000
1000
0100
0010
0100
0010
0000
1001
0000
0000
0000
;

//--------------- dance-single - ----------------
#NOTES:
     dance-single:
     :
     Challenge:
     18:
     0.683421,0.51655,0,0,0,431,431,0,0,0,0,0.683421,0.51655,0,0,0,431,431,0,0,0,0:
0000
0000
0000
0000
,
0101
0000
0000
0000
0000
0110
0000
0000
0000
0000
0000
1010
0000
0000
0000
0000
1100
0000
0000
0000
0000
0101
0000
0000
0000
0000
0000
0110
0000
0000
0000
0000
,
0000
0011
0000
0000
0000
0000
1001
0000
0000
0000
0000
0000
1100
0000
0000
0000
0000
1010
0000
0000
0000
0000
0101
0000
0000
0000
0000
0000
1001
0000
0000
0000
,
0011
0000
0000
0000
0000
0010
0000
0000
0000
0100
0000
0000
0010
0000
0000
0000
0001
0000
0000
0000
0100
0000
0000
0000
0001
0000
0010
0000
0100
0000
0010
0000
,
0001
0000
0000
1000
0000
0000
0010
0000
0100
0000
0001
0000
2000
0000
0000
0000
0000
0000
0001
0000
0000
0000
0000
0000
0100
0000
0000
0000
0000
0000
0010
0000
0000
0000
0000
0000
0100
0000
0000
0000
0000
0000
3001
0000
0000
0000
0000
0000
,
1001
0000
1001
0000
0001
1000
0100
0100
0001
0100
0100
1000
0010
0010
0001
1000
,
0001
0000
0100
0000
0001
0000
0100
0000
0100
0000
1000
0000
0100
0000
1000
0000
0100
0000
0100
0000
0001
0000
1000
0000
0010
0000
0000
0100
0000
0000
0000
0000
0000
0100
0000
0000
0001
0000
0000
1001
0000
0000
0000
0000
0000
0000
0000
0000
,
1001
0001
1000
0010
0100
0101
0001
0010
,
0100
0000
1000
0010
0000
0010
0100
0000
1000
0000
0100
0001
0010
0000
0100
0000
,
1000
0000
0010
0100
0000
0000
0101
0000
0001
0000
0010
0000
0100
0000
1000
0001
,
0100
0000
0000
0000
0000
0000
0001
0000
0100
0000
0001
0000
0100
0000
0010
0000
0100
0000
0010
0000
0000
1000
0000
0000
0010
0000
0000
0100
0000
0000
0001
0000
0000
1000
0000
0000
0100
0000
0010
0000
0100
0000
0010
0000
0000
0000
0000
0000
,
0011
0000
0000
1100
0000
0000
1000
0000
0001
0000
0101
0000
0100
0000
0010
0000
,
1010
0000
0010
0000
1000
0001
0010
0000
0100
0000
1000
0010
0100
0000
0100
0001
,
1000
0000
1000
0100
0000
0000
0110
0000
0001
0000
1000
0010
0002
0000
0023
0000
,
1030
0000
0010
0000
1000
0000
0010
0000
0100
0000
0010
0000
1000
0000
0100
0000
0010
0000
0001
0000
0010
0000
0100
0000
1000
0000
0000
0000
0000
0000
1000
0000
0000
0100
0000
0000
0010
0000
0000
0100
0000
0000
1000
0000
0000
0001
0000
0000
,
0100
0000
0010
0000
0010
1000
0000
1000
0100
0000
0100
0001
0000
1000
0010
0001
,
0100
0000
0010
0000
0100
0001
1000
0001
1000
0000
0100
0010
0100
0000
0100
1000
,
0001
0100
0001
0000
1001
0000
1000
0010
0100
0010
1000
0001
0010
0000
0100
1000
,
0010
0000
0010
0000
0100
0001
0010
0100
0000
0100
1000
0000
1000
0010
0001
1000
,
0200
0000
0301
0010
0100
1000
0010
0001
1000
0100
0001
0010
0001
0100
1000
0001
,
0010
0000
0010
1000
0100
0000
0100
0001
1000
0000
1000
0010
0100
0010
0001
0010
,
0100
0000
1000
0001
1000
0001
0100
0000
0010
1000
0010
1000
0001
0010
0100
0000
,
1100
0000
0001
0100
0000
0100
0010
0100
0001
0100
1000
0100
0001
0010
0100
1000
,
1100
0000
0000
0000
0000
0000
0100
0000
0000
0000
0000
0000
1000
0000
0000
0001
0000
0000
0000
0000
0000
0101
0000
0000
0000
0000
0000
0000
0000
0000
0001
0000
0100
0000
0010
0000
0100
0000
0001
0000
0100
0000
0010
0000
0000
1000
0000
0000
,
1001
0000
1000
0100
1000
0100
0010
0011
0000
0000
0011
0000
1100
0000
1000
0100
,
0110
0000
0000
0000
0000
0000
0001
0000
0010
0000
0100
0000
1000
0000
0000
0010
0000
0000
0000
0000
0000
0110
0000
0000
0000
0000
0000
0000
0000
0000
1001
0000
0000
0000
0000
0000
0001
0000
0000
0000
0000
0000
0100
0000
0000
0000
0000
0000
,
0010
1000
0100
0010
0001
0010
0100
0110
0000
0011
0000
1100
0000
0000
1000
0010
,
0100
0010
0100
0001
0010
0000
0100
1100
0000
0000
1000
0010
0100
0001
0010
0000
,
0110
0000
0100
1000
0000
1000
0010
0110
0000
0001
0010
0000
1100
0000
1000
0001
,
0010
0200
2300
3002
0203
2300
3200
0302
,
0013
0100
0010
0000
0100
1000
0000
1000
0001
0000
0100
0010
0100
0000
0001
0000
,
1001
0000
1000
0100
0000
0100
0001
0000
1000
0010
0000
0010
0001
1000
0010
0000
,
0010
1000
0001
1000
0001
0000
0000
0000
1001
0000
1100
0000
1001
0000
0102
0000
,
0000
0000
0000
0000
0000
0000
0103
0000
0000
0000
0000
0000
0010
0000
0000
1000
0000
0000
0100
0000
0000
0000
0000
0000
0100
0000
0000
0010
0000
0000
0000
0000
0000
0010
0000
0000
0001
0000
1000
0000
0100
0000
1000
0000
0100
0000
1000
0000
,
0010
0000
0110
0000
0100
0001
1000
0000
1000
0010
0100
0010
0001
0010
1000
0100
,
0010
0000
0110
0000
0100
1000
0001
0100
0101
0000
0001
0010
0100
1000
0001
0100
,
2000
0000
3001
0010
1000
0100
0010
0000
0110
0000
0100
1000
0001
1000
0001
1000
,
0110
0000
0000
0000
0000
0000
0101
0000
0000
0000
0000
0000
0001
0000
0000
0010
0000
0000
0000
0000
0000
1100
0000
0000
0000
0000
0000
0000
0000
0000
1000
0000
0100
0000
0010
0000
0001
0000
0010
0000
0100
0000
1000
0000
0000
0000
0000
0000
,
1010
0000
0101
0001
0100
0010
0000
1002
0000
0000
0010
0000
1003
0000
1000
0100
,
0020
0000
0001
0000
0130
1000
0010
0000
0110
0000
0100
0001
0010
0100
1000
0010
,
0100
0000
0000
0000
0000
0000
0100
0000
0000
1000
0000
0000
0100
0000
0000
0001
0000
0000
0010
0000
0000
0100
0000
0000
1000
0000
0001
0000
0100
0000
0100
0000
0100
0000
0001
0000
1000
0000
0100
0000
0100
0000
0100
0000
1000
0000
0001
0000
,
0010
0000
0010
0100
1000
0100
0010
0000
0010
0001
1000
0010
0100
0001
1000
0100
,
0010
0000
0110
0000
0100
1000
0001
0000
0001
0100
0000
0100
1000
0001
0010
0100
,
0001
0000
0011
0000
0100
1000
0020
0000
1000
0000
0130
0010
0001
0010
1000
0100
,
0010
0000
0010
1000
0010
0001
0010
0000
0011
0000
0001
0010
0100
1000
0010
0100
,
0101
0000
1010
0000
1000
0010
0000
0010
0002
0000
1003
0100
0001
0010
0100
0000
,
1100
0000
1001
0000
0001
0100
0000
0120
0000
0000
1000
0000
0100
0000
1030
0001
,
0010
0000
0100
0000
1000
0001
0000
0001
0100
0000
0110
0000
0010
1000
0100
0010
,
1000
0000
0000
0010
0000
0000
0100
0000
0000
1000
0000
0000
0010
0000
0000
0001
0000
0000
0010
0000
0000
0100
0000
0000
0001
0000
0010
0000
0100
0000
1000
0000
0001
0000
0010
0000
0100
0000
1000
0000
0001
0000
0010
0000
0100
0000
1000
0000
,
0002
0000
0000
0000
1000
0000
1003
0010
0200
0000
0000
0000
0010
0000
0310
1000
,
0002
0000
0000
0000
0010
0000
0013
0000
0100
0000
1000
0000
0001
0000
0100
0010
,
0100
0000
0010
1000
0001
0000
0010
0100
0010
0000
0100
1000
0001
1000
0001
0100
,
0010
0000
0110
0000
0110
0000
0000
1000
0001
0000
0011
0000
0100
1000
0000
0000
,
1000
0000
0001
1000
0100
0100
0001
1000
0010
0010
0001
0100
0100
1000
0001
0100
,
0001
1000
0100
1000
0001
0100
0100
1000
0001
0100
0001
0100
0001
1000
0100
0100
0001
0000
1001
0000
0000
0000
0000
0000
;
