#TITLE:Midnight Dancer;
#SUBTITLE:;
#ARTIST:増田俊樹;
#TITLETRANSLIT:Midnight Dancer;
#SUBTITLETRANSLIT:;
#ARTISTTRANSLIT:Toshiki Masuda;
#GENRE:ANIME;
#CREDIT:;
#MUSIC:Midnight Dancer.ogg;
#BANNER:Midnight Dancer.png;
#BACKGROUND:Midnight Dancer-bg.png;
#CDTITLE:;
#SAMPLESTART:49.687;
#SAMPLELENGTH:13.577;
#SELECTABLE:YES;
#OFFSET:1.116;
#BPMS:0.000=137.000;
#STOPS:;
#LASTBEATHINT:0.264867;
#BGCHANGES:2.500=Midnight Dancer.avi=1.000=0=0=0=StretchNoLoop====,
99999.000=-nosongbg-=1.000=0=0=0=StretchNoLoop====
;
#FGCHANGES:;

//--------------- dance-single - ----------------
#NOTES:
     dance-single:
     :
     Medium:
     12:
     0,0,0,0,0:
0000
0000
0000
0000
,
0000
0000
0000
0000
,
0000
0000
0000
0000
,
0001
0000
0000
1000
0000
0001
0000
0100
0000
0010
0000
1000
0000
0000
0001
0010
,
0000
0000
0000
0000
0000
0000
0000
0000
1001
0000
0000
1001
0000
0000
0000
0000
,
0002
0000
0000
0000
0203
0000
0000
0000
0320
0000
0000
0000
2030
0000
0000
3001
,
0000
0000
0000
0000
1000
0000
0001
0010
0000
0000
0000
0000
0100
0000
1000
0000
,
0010
0000
0000
0010
0000
0000
0100
0000
0001
0000
0000
0001
0000
0000
1000
0000
,
0200
0000
0000
0000
0010
0310
0000
0000
,
1001
0000
0001
0000
0100
0000
0001
0100
,
0001
0000
1000
0000
0100
0000
1000
0100
,
1000
0000
0001
0100
0001
0000
1000
0100
,
1000
0000
0001
0000
0100
0000
0000
0010
0000
1000
0000
0100
0000
0010
0000
0000
,
0011
0000
0000
0000
0001
0000
0000
1000
0000
0100
0000
0000
1000
0000
0001
0000
,
0000
1000
0000
0010
0000
0000
0100
0000
0000
0001
0000
1000
0000
0100
0000
0010
,
0000
0000
0100
0000
0000
0010
0000
0100
0000
0000
1000
0000
0001
0000
0000
0100
,
0000
0100
0000
0000
1000
0000
0000
0001
0000
0001
0000
0000
0010
0000
0100
0000
,
1100
0000
0000
0001
0000
0010
0000
0100
0000
0010
0000
0001
0000
1000
0000
0000
,
1010
0000
0000
1000
0000
0010
0000
0100
0000
0010
0000
1000
0000
0001
0000
0000
,
1000
0100
0010
0001
0020
0000
0230
0000
,
1300
0000
0001
0000
0000
0100
0000
0000
0020
0000
0000
0000
2030
0000
0000
0000
,
3001
0000
0011
0000
0100
1000
0001
0100
,
0001
0000
0000
0010
0000
0000
0100
0000
0100
0000
0000
0000
1000
0000
0000
0000
,
0001
0000
0000
0000
0100
0000
0010
0000
0100
0000
0000
0001
0000
0000
0001
0000
,
2000
0000
3200
0000
0302
0000
0103
1000
,
1000
0000
0000
0010
0000
0000
0100
0000
0001
0000
1000
0000
0001
0000
0000
0000
,
0001
0000
0000
0010
0000
0000
0010
0000
0100
0000
1000
0000
0100
0000
2000
0000
,
0000
0000
0100
0000
0000
0001
0000
0000
0010
0000
0000
0000
3001
0000
0010
0000
,
0000
0100
1000
0001
1001
0000
1001
0000
,
0001
0000
1000
0000
0010
0000
0100
0001
0000
0001
1000
0000
0100
0000
0010
0000
,
0100
0000
0000
1000
0000
0000
0010
0000
0100
0000
0000
0000
0001
0000
0010
0000
,
1000
0000
0000
0000
0001
0000
0100
1000
0000
1000
0010
0000
0100
0000
0001
0000
,
0010
0000
0100
1000
1100
0000
0011
0000
,
0001
0000
1000
0000
0010
0000
0100
0001
0000
0001
0010
0000
0100
0000
1000
0000
,
0010
0000
0000
0010
0000
0000
0100
0000
0001
0000
0000
0001
0000
0000
1000
0000
,
1100
0000
0000
0001
0000
0000
1000
0000
0000
0001
0100
0001
,
1000
0000
0100
0000
1000
0000
0001
0000
0100
0000
0001
0000
0010
0000
0000
0000
0000
0000
0100
0000
0000
1000
0000
0000
,
0010
0000
0000
0000
1001
0000
0001
0000
0100
0000
0000
0010
0000
0000
1000
0000
,
0100
0000
0010
0001
0000
0001
0000
0100
0000
0100
0010
0000
1000
0000
0001
0000
,
0020
0230
2300
3002
,
1003
0000
1100
0000
0000
0101
0000
0000
1001
0000
0000
0000
0000
0000
0000
0000
,
0001
0000
0000
1000
0000
0100
0000
1000
0000
0001
0100
0000
0001
1000
0000
1100
,
0000
0000
0001
0000
0000
0100
0000
0010
0000
1000
0100
0000
1000
0001
0000
0011
,
0000
0000
1000
0000
0000
0010
0000
0100
0000
0001
0010
0000
0100
1000
0000
0000
,
0001
0000
0000
0100
0000
0000
0100
0000
0010
0000
0000
1001
0000
0000
0000
0000
,
2000
0000
0000
0000
3200
0000
0000
0000
0302
0000
0000
0000
0203
0000
0000
1300
,
0000
0000
0000
0000
0010
0000
0100
0002
0000
0000
0000
0000
1003
0000
0100
0000
,
1000
0000
0000
1000
0000
0000
0010
0000
0100
0000
0000
0100
0000
0000
0001
0000
,
1000
0000
0000
1000
0000
0000
0100
0000
0001
0000
0000
0100
0000
0000
1000
0000
,
0001
0000
0000
0100
0000
0000
0010
0000
0200
0000
0000
0000
0302
0000
0000
0000
,
2003
0000
0000
0000
0000
0000
0000
0000
3020
0000
0000
0100
0000
0000
0130
0000
;

//--------------- dance-single - ----------------
#NOTES:
     dance-single:
     :
     Hard:
     15:
     0,0,0,0,0:
0000
0000
0000
0000
,
0000
0000
0000
0000
,
0000
0000
0000
0000
,
0001
0010
0100
1000
0000
0010
0000
0100
0000
0001
0010
0100
0000
0000
1000
0001
,
0000
0000
0000
0000
0000
0000
0000
0000
0001
1000
0000
0110
0000
0000
0000
0000
,
0002
0000
0100
0000
2003
0000
0010
0000
3200
0000
0010
0000
1300
0000
0001
0100
,
0000
0000
0010
0000
1000
0000
0001
0010
0000
0100
0000
0010
0001
0000
1000
0010
,
0100
0000
0000
1000
0000
0000
0100
0000
0001
0000
0000
0010
0000
0000
0100
0000
,
1000
0000
0000
0000
0001
0100
0001
0100
0010
0000
1010
0000
0000
0000
0000
0000
,
1001
0000
0001
0000
1000
0000
0001
0101
,
0001
0000
1000
0000
0001
0000
1000
1100
,
1000
0000
0001
0101
0001
0000
1000
1100
,
1000
0100
0010
0001
1000
0000
0010
0100
0000
0001
0000
0010
0000
0100
1000
0000
,
1001
0000
0100
0000
0100
0001
0000
0010
0000
0100
1000
0000
0001
1000
0010
0010
,
0000
1000
0000
1000
0001
0000
0001
0010
0000
0010
0100
1000
0000
0010
0000
0100
,
0000
0001
1000
0000
0001
0010
0000
0100
0000
0010
0001
0000
0100
0000
0100
0010
,
0000
0010
1000
0000
0001
0010
0000
0001
0000
0010
0100
0000
1000
0000
0010
0000
,
0110
0000
0100
0001
0000
1000
0000
0010
0000
0100
0001
0010
0000
0100
1000
0000
,
1001
0000
0001
0100
0000
0010
0000
0100
0000
0001
0100
0010
0100
0001
1000
0000
,
0100
0000
0010
0000
0100
0000
1000
0000
0001
0010
0001
0010
0100
1000
0100
1000
,
0001
0100
0010
0000
0000
1010
0000
0000
0102
0000
0000
0000
2003
0000
0000
0000
,
3001
0000
1000
0100
0010
0001
0000
0000
1000
0100
0010
0001
0000
0000
0100
0000
,
0010
0000
1000
0000
1000
0010
0000
0100
0000
0010
0000
1000
0000
0001
0010
0200
,
0000
0000
0310
0001
1000
0000
0000
0000
1000
0000
0010
0000
1000
0000
0010
0000
,
0100
0000
0002
0000
0023
0000
0230
0000
2300
0000
0000
3001
0100
0001
0100
0000
,
1010
0000
0000
0101
0000
0000
1010
0000
1000
0100
0010
0001
1000
0000
0100
0000
,
0011
0000
0000
1100
0000
0000
0011
0000
1000
0010
0100
0001
1000
0000
0020
0000
,
0000
0000
0230
0000
0000
0302
0000
0000
0023
0000
0000
0230
0000
0000
2300
0000
,
0000
0000
3001
0010
0100
0010
0001
0010
0100
0000
0000
0000
1001
0000
0000
0000
,
0001
0100
1000
0100
0010
0000
0100
0001
0000
0001
0010
0000
0100
0000
1000
0010
,
0100
0000
0000
0101
0000
0000
0010
0000
1001
0000
0000
0000
0001
0000
0010
0100
,
0010
0000
0001
0000
0001
0100
0010
1000
0000
1000
0010
0000
0010
0100
0002
0000
,
0013
0000
0000
0000
0110
0000
0100
1000
0010
0000
0100
0000
0110
0000
0010
0000
,
1000
0010
0001
0010
0100
0000
0010
1000
0000
1000
0001
0000
0010
0000
0100
0000
,
1100
0000
0000
1001
0000
0000
0101
0000
1010
0000
0000
0110
0000
0000
0101
0000
,
1001
0000
0000
0001
0010
0100
1000
0000
0000
1000
0100
1000
,
0010
0000
0100
0000
0001
0000
1000
0000
0001
0000
0010
0000
0100
0000
0000
0000
0000
0000
1000
0000
0000
0100
0000
0000
,
0010
0000
0000
0000
1001
0000
0010
0000
0100
0000
0001
0010
0000
0100
1000
0000
,
1010
0000
0100
0001
0000
0001
0010
0100
1000
0000
1000
0010
0000
0000
0100
0001
,
2000
0001
3200
0010
2300
0010
3002
0103
,
1001
0000
0010
0000
1000
0001
0010
0100
1000
0000
1000
0010
0000
0010
0100
0000
,
0001
0000
0010
0100
0000
1000
0000
0001
0000
0100
0010
0100
1000
0100
0000
0110
,
0000
0000
0100
0001
0000
0010
0000
0100
0000
1000
0100
0010
0000
0001
0010
0100
,
0001
0000
0001
0100
0000
1000
0000
0010
0000
0100
1000
0100
0000
0100
0001
0000
,
0011
0000
0000
1100
0000
0000
1000
0100
0010
0000
0000
1001
0000
0000
0000
0000
,
0002
0000
1000
0000
0203
0000
1000
0000
0320
0000
1000
0000
0130
0000
0001
0010
,
0000
0000
0100
0000
0010
0000
0001
1000
0000
0010
0000
1000
0010
0000
0100
0001
,
0010
0000
0100
1000
0000
1000
0010
0000
0100
0000
0100
0001
0000
0000
0010
0001
,
0100
0000
0010
1000
0000
1000
0100
0000
0010
0000
0010
0001
0000
0000
1000
0010
,
0001
0000
1000
0100
0000
0100
0001
0000
0020
0000
0000
0000
0230
0000
0000
0000
,
2300
0000
0000
0000
0000
0000
0000
0000
3020
0000
0000
0100
0000
0000
0130
0000
;

//--------------- dance-single - ----------------
#NOTES:
     dance-single:
     :
     Challenge:
     17:
     0.535688,0.40539,0,0,0,400,400,0,0,0,0,0.535688,0.40539,0,0,0,400,400,0,0,0,0:
0000
0000
0000
0000
,
0001
0000
0100
0001
0000
0010
0000
0100
0000
1000
0001
1000
0000
0010
0100
0010
,
0110
0000
0100
0001
0000
0011
0000
0110
0000
0100
1000
0010
0100
0001
0010
0100
,
0010
0100
1000
0001
0000
0100
0000
1000
0100
0010
0100
0001
1000
0100
0010
0110
,
0000
0000
0000
0000
0000
0000
0000
0000
0000
0000
0000
0000
0000
0000
0000
0000
0000
0000
1000
0000
0100
0000
0010
0000
0001
0000
0000
1000
0000
0000
0100
0000
0000
0010
0000
0000
0000
0000
0000
0010
0000
0000
0100
0000
0000
1000
0000
0000
,
0001
0000
0100
0010
0100
0000
0001
0000
0010
0100
0000
0100
1000
0000
0001
0100
,
0010
0000
0010
0100
0001
0010
0100
0010
1000
0010
0000
0010
0001
0000
0001
1000
,
0010
0000
0100
0001
0000
1000
0100
0000
0010
0000
0100
1000
0000
0001
0100
0000
,
0010
0000
0100
0000
0001
1000
0001
0000
0010
0000
0100
0000
1000
0000
0100
0000
0010
0000
0000
0000
0110
0000
0000
0000
0000
0000
0000
0000
0000
0000
0000
0000
,
1001
0000
0000
1000
0010
0000
0000
0100
0001
0000
0000
0010
0100
0000
1100
0000
,
1001
0000
0000
0001
0010
0000
0000
0100
1000
0000
0000
0001
0100
0000
0101
0000
,
1010
0000
0000
0100
0001
0000
1100
0000
1001
0000
0000
0001
0100
0000
0110
0000
,
0001
0010
0100
1000
0001
0010
0100
1000
0000
1010
0000
0110
0000
0100
0001
0000
,
0011
0000
0010
0100
0010
0001
0000
1000
0000
0001
0100
0001
0000
0100
0010
0010
,
0000
1000
0000
0100
1000
0000
0001
0100
0000
0010
1000
0010
0000
0110
0000
0101
,
0000
0001
0100
0010
1000
0001
0000
0010
0100
0010
1000
0010
0001
0100
1000
0002
,
0000
0000
0010
0000
0023
0000
0000
0000
1000
0000
1030
0000
0000
0000
1100
0000
0000
0000
0100
0010
0100
0000
0000
0000
1100
0000
0000
0000
1010
0000
0000
0000
,
0101
0000
0100
0010
0000
1000
0000
0010
0000
0100
0001
0010
0000
0100
1100
0000
,
1001
0000
0001
0100
0000
0010
0000
1000
0000
0100
0010
0100
1000
0001
0101
0000
,
0110
0000
0000
0000
0000
0000
0010
0000
0000
1000
0000
0000
0001
0000
0010
0000
0100
0000
1000
0000
0001
0000
0010
0000
0100
0000
0000
1000
0000
0000
0010
0000
0000
1000
0000
0000
0100
0000
0000
0010
0000
0000
0001
0000
0000
0100
0000
0000
,
0010
0001
1000
0000
1000
0100
0000
0100
0002
0000
0000
0000
2003
0000
0000
0000
,
3001
0000
1000
0100
0100
0001
0000
0000
0001
0100
0100
1000
0000
0000
0100
0000
,
0010
0000
0001
0000
1000
0010
0000
0101
0000
1010
0000
0110
0000
0100
0001
0010
,
2000
0000
3001
0100
0020
0000
0032
0000
0203
0000
1300
0100
0001
0000
0010
0000
,
0011
0000
0100
1000
0010
0200
0000
0000
0320
0000
0000
1030
0100
0010
1000
0010
,
0100
0000
0000
0000
0000
0000
1000
0000
0000
0010
0000
0000
0000
0000
0000
1000
0000
0000
0001
0000
0000
0000
0000
0000
0010
0000
0100
0000
0010
0000
0001
0000
0000
0100
0000
0000
0010
0000
0000
1000
0000
0000
0001
0000
0000
0010
0000
0000
,
0100
0000
0000
0000
0000
0000
0010
0000
0000
0001
0000
0000
0000
0000
0000
1000
0000
0000
0010
0000
0000
0000
0000
0000
1000
0000
0010
0000
1000
0000
0100
0000
0000
0010
0000
0000
0100
0000
0000
1000
0000
0000
0020
0000
0000
0000
0000
0000
,
0000
0000
0230
0000
0301
0020
0000
0100
2030
0000
3020
0000
0230
0000
0302
0000
,
0013
0000
0000
0100
0000
0000
1000
0000
0100
0000
0010
0000
0001
0000
0000
1000
0000
0000
0010
0000
0000
0000
0000
0000
0110
0000
0000
0000
0000
0000
0000
0000
0000
0000
0000
0000
1001
0000
0000
0000
0000
0000
0000
0000
0000
0000
0000
0000
,
0001
0100
1000
0100
0010
0000
1000
0100
0000
0100
0001
0000
0101
0000
1100
0000
,
1000
0000
0010
1000
0010
0100
0000
0101
0000
1001
0000
1100
0000
1000
0100
0010
,
0001
0000
0000
0000
0000
0000
1000
0000
0010
0000
1000
0000
0010
0000
0000
0100
0000
0000
0001
0000
0000
0000
0000
0000
0010
0000
0000
0100
0000
0000
1000
0000
0000
0000
0000
0000
0001
0000
0000
0100
0000
0000
0010
0000
0000
0000
0000
0000
,
0001
0000
0010
1000
0000
1000
0100
0000
0010
0100
0000
1000
0000
0001
0100
0010
,
0001
0010
0100
0001
1000
0000
1000
0100
0000
0001
0100
0000
0100
1000
0010
0100
,
0001
0000
0001
0010
0000
0010
1000
0000
1010
0000
0000
0011
0000
0000
0001
1000
,
0010
0000
0000
0000
0000
0000
0010
0000
0000
0100
0000
0000
0001
0000
0000
0000
0010
0000
0000
0000
0100
0000
0000
0000
1100
0000
0000
0000
0000
0000
1001
0000
0000
0000
0000
0000
1000
0000
0000
0000
0010
0000
0000
0000
0100
0000
0000
0000
,
0101
0000
0000
0000
1010
0000
0000
0000
0110
0000
0000
0000
1100
0000
0000
0000
0011
0000
0000
0000
0110
0000
0000
0000
1001
0000
0000
0000
0000
0000
0000
0000
0000
0000
0000
0000
0001
0000
0000
0100
0000
0000
0001
0000
0000
0000
0000
0000
,
1000
0000
0100
0000
1001
0000
0010
0000
0100
0000
0001
0010
0000
0100
1000
0000
,
1010
0000
0101
0101
0000
0011
0000
0110
0000
1100
1100
0000
0001
0100
0010
1000
,
0010
0000
0100
0001
0010
0000
0010
0001
0100
0000
0010
1000
0100
0000
0100
1000
,
0010
0000
0000
0000
0110
0000
0000
0000
0100
0000
0001
0000
0000
0000
0001
0000
1000
0000
0000
0000
1000
0100
0010
0001
2000
0000
0000
0000
0000
0000
0000
0000
,
3001
0000
0010
0100
0000
1000
0000
0001
0000
0100
0010
1000
0001
0011
0000
1100
,
0000
0000
1000
0010
0000
0110
0000
0101
0000
0001
0010
0100
0000
0100
1000
0001
,
1001
0000
0101
0101
0000
1001
0000
1010
0000
0101
0001
0010
1000
0001
0100
1000
,
1010
0000
0000
0000
0000
0000
0010
0000
0000
0101
0000
0000
0000
0000
0000
0010
0000
0000
0100
0000
0000
1000
0000
0000
0001
0000
0010
0000
0100
0000
0010
0000
0001
0000
1000
0000
0010
0000
0000
0100
0000
0000
0001
0000
0000
1000
0000
0000
,
1010
0000
0010
0100
0010
0000
1000
0000
0001
0010
0000
0010
1000
0000
0001
0000
,
0100
0000
0100
1000
0010
0001
0000
0001
1000
0000
0100
0001
0010
0100
1000
0001
,
0100
0000
0100
0010
0000
0010
1000
0000
1100
0000
0010
0001
0000
0001
1000
0100
,
0011
0000
0100
1000
0000
1000
0010
0000
0101
0000
0010
1000
0000
0000
1000
0100
,
0010
0000
1000
0010
0000
0010
0001
0000
0100
0000
0000
1000
0100
0000
0010
0000
,
2002
0000
0000
0000
0000
0000
3000
0000
0013
0000
0000
0011
0000
0000
1100
0000
;
