#TITLE:メンタルチェンソー;
#SUBTITLE:;
#ARTIST:P丸様。;
#TITLETRANSLIT:Mental Chainsaw;
#SUBTITLETRANSLIT:;
#ARTISTTRANSLIT:Pmaru-sama;
#GENRE:POP;
#CREDIT:;
#MUSIC:Mental Chainsaw.ogg;
#BANNER:Mental Chainsaw.png;
#BACKGROUND:Mental Chainsaw-bg.png;
#CDTITLE:;
#SAMPLESTART:50.931;
#SAMPLELENGTH:10.372;
#SELECTABLE:YES;
#OFFSET:1.250;
#BPMS:0.000=188.000
,128.000=94.000
,128.500=188.000
,135.500=94.000
,136.000=188.000
,143.000=94.000
,143.500=188.000
,252.500=94.000
,253.500=188.000
,273.500=94.000
,275.500=188.000
,338.500=94.000
,339.500=188.000
;
#STOPS:154.500=0.160
,155.000=0.160
,155.500=0.160
,260.000=0.160
,260.500=0.160
,261.000=0.160
,270.500=0.160
,271.000=0.160
,277.500=0.319
,326.500=0.160
,327.000=0.160
,333.500=0.160
,334.000=0.160
;
#LASTBEATHINT:0.783333;
#BGCHANGES:4.750=Mental Chainsaw.avi=1.000=0=0=0=StretchNoLoop====,
99999.000=-nosongbg-=1.000=0=0=0=StretchNoLoop====
;
#FGCHANGES:;

//--------------- dance-single - ----------------
#NOTES:
     dance-single:
     :
     Medium:
     12:
     0,0,0,0,0:
0000
0000
0000
0000
,
0000
0000
0000
0000
,
1000
0010
0100
0000
0001
0010
0100
0000
,
1000
0001
1000
0001
1000
0000
0110
0000
,
0011
0000
0000
0000
1100
0000
0000
0000
1000
0000
0000
0010
0000
0000
0100
0000
,
0000
0001
1000
0000
0010
0100
0010
0000
,
1010
0000
0000
0000
0101
0000
0000
0000
0001
0000
0000
0010
0000
0000
0100
0000
,
0000
1000
0001
0000
0100
0010
0100
0000
,
1001
0000
0000
0000
0110
0000
0000
0000
0100
0000
0000
0001
0000
0000
1000
0000
,
0000
0100
0010
0000
0001
1000
0001
0000
,
1001
0000
0000
0000
0110
0000
0000
0000
0010
0000
0000
1000
0000
0000
0001
0000
,
0000
0010
0100
0000
1000
0001
1000
0000
,
0010
0000
1001
0000
1000
0100
0010
0001
,
0000
1000
0010
0100
0002
0000
0013
0000
,
0100
0000
0100
1000
0001
0000
0001
0010
,
0000
0100
0001
0100
2000
0000
3010
0000
,
0100
0000
1001
0000
0001
0100
0010
1000
,
0000
0001
0010
0100
2000
0000
3010
0000
,
0100
0001
0000
0100
1000
0000
0100
0010
,
0000
0100
0001
1000
0001
0000
0010
0000
,
1100
0000
0000
0000
0011
0000
0000
0000
0001
0000
0000
0010
0000
0000
0100
0000
,
0000
1000
0010
0000
0100
0001
1000
0000
,
1010
0000
0000
0000
0101
0000
0000
0000
0001
0000
0000
0010
0000
0000
0100
0000
,
0000
1000
0010
0000
0100
0001
1000
0000
,
0100
0000
1001
0000
0001
0010
0100
1000
,
0000
0001
0100
0010
2000
0000
3001
0000
,
0010
0000
0010
0100
1000
0000
0001
0100
,
0000
0010
1000
0010
0100
0000
0001
0000
,
1000
0000
1001
0000
0001
0010
1000
0001
,
0000
0001
0100
0000
0100
1000
0001
0000
,
0001
0100
0000
1000
0100
0000
0010
0100
,
0000
0010
1000
0001
1000
0000
0010
0000
,
0200
0300
0000
0000
0000
0000
0000
0000
0000
0000
0000
0000
0000
0000
0000
0000
0000
0000
0000
0000
0000
0000
0000
0000
0200
0300
0000
0000
0000
0000
0000
0000
0000
0000
0000
0000
0000
0000
0000
0000
0000
0000
0000
0000
0000
0000
0000
0000
0000
0000
0000
0000
0000
0000
0000
0000
0000
0000
0000
0000
0000
0000
0000
0000
0000
0000
0000
0000
0000
0000
0000
0000
0100
0000
0000
0000
0000
0000
0000
0000
0000
0000
0000
0000
0000
0000
0000
0000
0000
0000
0000
0000
0000
0000
0000
0000
0100
0000
0000
0000
0000
0000
0000
0000
0000
0000
0000
0000
0000
0000
0000
0000
0000
0000
0000
0000
0000
0000
0000
0000
0000
0000
0000
0000
0000
0000
0000
0000
0000
0000
0000
0000
0000
0000
0000
0000
0000
0000
0000
0000
0000
0000
0000
0000
0100
0000
0000
0000
0000
0000
0000
0000
0000
0000
0000
0000
0000
0000
0000
0000
0000
0000
0000
0000
0000
0000
0000
0000
0000
0000
0000
0000
0000
0000
0000
0000
0000
0000
0000
0000
0000
0000
0000
0000
0000
0000
0000
0000
0000
0000
0000
0000
,
0001
0000
0000
0000
0000
0000
0000
0000
0000
0000
0000
0000
0000
0000
0000
0000
0000
0000
0000
0000
0000
0000
0000
0000
0010
0000
0000
0000
0000
0000
0000
0000
0000
0000
0000
0000
0000
0000
0000
0000
0000
0000
0000
0000
0000
0000
0000
0000
0100
0000
0000
0000
0000
0000
0000
0000
0000
0000
0000
0000
0000
0000
0000
0000
0000
0000
0000
0000
0000
0000
0000
0000
1000
0000
0000
0000
0000
0000
0000
0000
0000
0000
0000
0000
0000
0000
0000
0000
0000
0000
0000
0000
0000
0000
0000
0000
0000
0000
0000
0000
0000
0000
0000
0000
0000
0000
0000
0000
0000
0000
0000
0000
0000
0000
0000
0000
0000
0000
0000
0000
0001
0000
0000
0000
0000
0000
0000
0000
0000
0000
0000
0000
0000
0000
0000
0000
0000
0000
0000
0000
0000
0000
0000
0000
0000
0000
0000
0000
0000
0000
0000
0000
0000
0000
0000
0000
0000
0000
0000
0000
0000
0000
0000
0000
0000
0000
0000
0000
0200
0300
0000
0000
0000
0000
0000
0000
0000
0000
0000
0000
0000
0000
0000
0000
0000
0000
0000
0000
0000
0000
0000
0000
,
0200
0300
0000
0000
0000
0000
0000
0000
0000
0000
0000
0000
0000
0000
0000
0000
0000
0000
0000
0000
0000
0000
0000
0000
0000
0000
0000
0000
0000
0000
0000
0000
0000
0000
0000
0000
0000
0000
0000
0000
0000
0000
0000
0000
0000
0000
0000
0000
0100
0000
0000
0000
0000
0000
0000
0000
0000
0000
0000
0000
0000
0000
0000
0000
0000
0000
0000
0000
0000
0000
0000
0000
0100
0000
0000
0000
0000
0000
0000
0000
0000
0000
0000
0000
0000
0000
0000
0000
0000
0000
0000
0000
0000
0000
0000
0000
0000
0000
0000
0000
0000
0000
0000
0000
0000
0000
0000
0000
0000
0000
0000
0000
0000
0000
0000
0000
0000
0000
0000
0000
0100
0000
0000
0000
0000
0000
0000
0000
0000
0000
0000
0000
0000
0000
0000
0000
0000
0000
0000
0000
0000
0000
0000
0000
0000
0000
0000
0000
0000
0000
0000
0000
0000
0000
0000
0000
0000
0000
0000
0000
0000
0000
0000
0000
0000
0000
0000
0000
1000
0000
0000
0000
0000
0000
0000
0000
0000
0000
0000
0000
0000
0000
0000
0000
0000
0000
0000
0000
0000
0000
0000
0000
,
0001
0000
0000
0000
0000
0000
0000
0000
0000
0000
0000
0000
0000
0000
0000
0000
0000
0000
0000
0000
0000
0000
0000
0000
1000
0000
0000
0000
0000
0000
0000
0000
0000
0000
0000
0000
0000
0000
0000
0000
0000
0000
0000
0000
0000
0000
0000
0000
0001
0000
0000
0000
0000
0000
0000
0000
0000
0000
0000
0000
0000
0000
0000
0000
0000
0000
0000
0000
0000
0000
0000
0000
0000
0000
0000
0000
0000
0000
0000
0000
0000
0000
0000
0000
0000
0000
0000
0000
0000
0000
0000
0000
0000
0000
0000
0000
0010
0000
0000
0000
0000
0000
0000
0000
0000
0000
0000
0000
0000
0000
0000
0000
0000
0000
0000
0000
0000
0000
0000
0000
0000
0000
0000
0000
0000
0000
0000
0000
0000
0000
0000
0000
0000
0000
0000
0000
0000
0000
0000
0000
0000
0000
0000
0000
0200
0300
0000
0000
0000
0000
0000
0000
0000
0000
0000
0000
0000
0000
0000
0000
0000
0000
0000
0000
0000
0000
0000
0000
0200
0300
0000
0000
0000
0000
0000
0000
0000
0000
0000
0000
0000
0000
0000
0000
0000
0000
0000
0000
0000
0000
0000
0000
,
0000
0100
0100
0000
0100
0000
0100
0010
,
0100
0010
0000
0001
0000
1000
0000
1000
,
0000
0000
0000
0000
0000
0000
0000
0000
0000
0000
0000
0000
0000
0000
0000
0000
0000
0000
0000
0000
0000
0000
0000
0000
0001
0000
0000
0000
0000
0000
0000
0000
0000
0000
0000
0000
0000
0000
0000
0000
0000
0000
0000
0000
0000
0000
0000
0000
0000
0000
0000
0000
0000
0000
0000
0000
0000
0000
0000
0000
0000
0000
0000
0000
0000
0000
0000
0000
0000
0000
0000
0000
0001
0000
0000
0000
0000
0000
0000
0000
0000
0000
0000
0000
0000
0000
0000
0000
0000
0000
0000
0000
0000
0000
0000
0000
0000
0000
0000
0000
0000
0000
0000
0000
0000
0000
0000
0000
0000
0000
0000
0000
0000
0000
0000
0000
0000
0000
0000
0000
2000
3000
0000
0000
0000
0000
0000
0000
0000
0000
0000
0000
0000
0000
0000
0000
0000
0000
0000
0000
0000
0000
0000
0000
0020
0030
0000
0000
0000
0000
0000
0000
0000
0000
0000
0000
0000
0000
0000
0000
0000
0000
0000
0000
0000
0000
0000
0000
0200
0300
0000
0000
0000
0000
0000
0000
0000
0000
0000
0000
0000
0000
0000
0000
0000
0000
0000
0000
0000
0000
0000
0000
,
0000
0001
0001
1000
1000
0001
0020
0100
,
0130
0000
0110
0000
1001
0000
1000
0010
,
0200
0000
1300
0100
0001
0100
0001
1000
,
0100
0020
0000
1030
0010
0001
0010
0001
,
1000
0020
0000
0031
0010
1000
0010
1000
,
0001
0000
0110
0000
1001
0000
0001
0010
,
0200
0000
0301
0100
1000
0100
1000
0001
,
0100
0020
0000
0031
0010
1000
0010
1000
,
0001
0020
0000
0130
1000
0100
1000
0000
,
0110
0101
1001
1100
,
1001
0011
1001
1010
,
1001
0000
1000
0000
1000
0000
0001
0001
,
0000
0010
0000
0010
0000
0100
1000
0000
,
0110
1010
1001
0011
,
1001
1100
1001
0101
,
1001
0000
0001
0000
0001
0000
1000
1000
,
0000
0010
0000
0010
0000
0100
0001
0000
,
0101
0000
0001
0100
0010
0100
0001
0100
,
1000
0100
0001
0100
0010
0100
0001
0000
,
1001
0000
0010
0000
0010
0000
0100
0100
,
0000
1000
0000
1000
0000
0001
0100
0000
,
0110
0000
1000
0100
0010
0100
1000
0100
,
0001
0100
1000
0100
0010
0100
1000
0000
,
1001
0000
0010
0000
0010
0000
1000
1000
,
0000
0002
0000
1003
0100
1000
0100
1000
,
0001
0001
1000
1000
,
0002
0003
0000
0000
0000
0000
0000
0000
0000
0000
0000
0000
0000
0000
0000
0000
0000
0000
0000
0000
0000
0000
0000
0000
2000
3000
0000
0000
0000
0000
0000
0000
0000
0000
0000
0000
0000
0000
0000
0000
0000
0000
0000
0000
0000
0000
0000
0000
0002
0003
0000
0000
0000
0000
0000
0000
0000
0000
0000
0000
0000
0000
0000
0000
0000
0000
0000
0000
0000
0000
0000
0000
0000
0000
0000
0000
0000
0000
0000
0000
0000
0000
0000
0000
0000
0000
0000
0000
0000
0000
0000
0000
0000
0000
0000
0000
0001
0000
0000
0000
0000
0000
0000
0000
0000
0000
0000
0000
0000
0000
0000
0000
0000
0000
0000
0000
0000
0000
0000
0000
0010
0000
0000
0000
0000
0000
0000
0000
0000
0000
0000
0000
0000
0000
0000
0000
0000
0000
0000
0000
0000
0000
0000
0000
0100
0000
0000
0000
0000
0000
0000
0000
0000
0000
0000
0000
0000
0000
0000
0000
0000
0000
0000
0000
0000
0000
0000
0000
0010
0000
0000
0000
0000
0000
0000
0000
0000
0000
0000
0000
0000
0000
0000
0000
0000
0000
0000
0000
0000
0000
0000
0000
,
0100
1000
0000
0001
1000
0100
0100
0001
,
0100
0000
0000
0000
0000
0000
0000
0000
0000
0000
0000
0000
0000
0000
0000
0000
0000
0000
0000
0000
0000
0000
0000
0000
0100
0000
0000
0000
0000
0000
0000
0000
0000
0000
0000
0000
0000
0000
0000
0000
0000
0000
0000
0000
0000
0000
0000
0000
1000
0000
0000
0000
0000
0000
0000
0000
0000
0000
0000
0000
0000
0000
0000
0000
0000
0000
0000
0000
0000
0000
0000
0000
0100
0000
0000
0000
0000
0000
0000
0000
0000
0000
0000
0000
0000
0000
0000
0000
0000
0000
0000
0000
0000
0000
0000
0000
0100
0000
0000
0000
0000
0000
0000
0000
0000
0000
0000
0000
0000
0000
0000
0000
0000
0000
0000
0000
0000
0000
0000
0000
0002
0003
0000
0000
0000
0000
0000
0000
0000
0000
0000
0000
0000
0000
0000
0000
0000
0000
0000
0000
0000
0000
0000
0000
2000
3000
0000
0000
0000
0000
0000
0000
0000
0000
0000
0000
0000
0000
0000
0000
0000
0000
0000
0000
0000
0000
0000
0000
0002
0000
0000
0000
0000
0000
0000
0000
0000
0000
0000
0000
0000
0000
0000
0000
0000
0000
0000
0000
0000
0000
0000
0000
,
0100
0000
0103
0000
0000
0000
0002
0000
1003
0000
0010
0000
0100
0001
1000
0000
,
0100
1000
0100
2000
3001
0100
0001
0100
,
0001
0100
0010
1000
0200
0000
0310
0001
,
0010
0002
1000
1003
0000
0110
0000
1001
,
0000
1000
0100
0020
0000
1030
0010
0001
,
0010
0001
1000
0010
0200
0000
1300
0100
,
0001
0100
0001
1000
0200
0000
0310
0001
,
0010
0002
1000
1003
0000
0100
0000
0100
,
0000
0100
0100
0000
0100
0000
0001
0010
,
0100
1000
0000
1010
0000
0100
0000
0100
,
0000
0100
0100
0000
0100
0000
0001
1000
,
0001
1000
0000
0110
0000
0100
0000
0100
,
0000
0100
0100
0000
0100
0000
1000
0100
,
0010
0000
0000
0000
0000
0000
0000
0000
0000
0000
0000
0000
0000
0000
0000
0000
0000
0000
0000
0000
0000
0000
0000
0000
0001
0000
0000
0000
0000
0000
0000
0000
0000
0000
0000
0000
0000
0000
0000
0000
0000
0000
0000
0000
0000
0000
0000
0000
0000
0000
0000
0000
0000
0000
0000
0000
0000
0000
0000
0000
0000
0000
0000
0000
0000
0000
0000
0000
0000
0000
0000
0000
0011
0000
0000
0000
0000
0000
0000
0000
0000
0000
0000
0000
0000
0000
0000
0000
0000
0000
0000
0000
0000
0000
0000
0000
0000
0000
0000
0000
0000
0000
0000
0000
0000
0000
0000
0000
0000
0000
0000
0000
0000
0000
0000
0000
0000
0000
0000
0000
0200
0300
0000
0000
0000
0000
0000
0000
0000
0000
0000
0000
0000
0000
0000
0000
0000
0000
0000
0000
0000
0000
0000
0000
0200
0300
0000
0000
0000
0000
0000
0000
0000
0000
0000
0000
0000
0000
0000
0000
0000
0000
0000
0000
0000
0000
0000
0000
0100
0000
0000
0000
0000
0000
0000
0000
0000
0000
0000
0000
0000
0000
0000
0000
0000
0000
0000
0000
0000
0000
0000
0000
,
0100
0000
0110
0000
1000
0001
1000
0001
,
0000
0000
0000
0000
0000
0000
0000
0000
0000
0000
0000
0000
0000
0000
0000
0000
0000
0000
0000
0000
0000
0000
0000
0000
1000
0000
0000
0000
0000
0000
0000
0000
0000
0000
0000
0000
0000
0000
0000
0000
0000
0000
0000
0000
0000
0000
0000
0000
0000
0000
0000
0000
0000
0000
0000
0000
0000
0000
0000
0000
0000
0000
0000
0000
0000
0000
0000
0000
0000
0000
0000
0000
0200
0300
0000
0000
0000
0000
0000
0000
0000
0000
0000
0000
0000
0000
0000
0000
0000
0000
0000
0000
0000
0000
0000
0000
0200
0300
0000
0000
0000
0000
0000
0000
0000
0000
0000
0000
0000
0000
0000
0000
0000
0000
0000
0000
0000
0000
0000
0000
0100
0000
0000
0000
0000
0000
0000
0000
0000
0000
0000
0000
0000
0000
0000
0000
0000
0000
0000
0000
0000
0000
0000
0000
0100
0000
0000
0000
0000
0000
0000
0000
0000
0000
0000
0000
0000
0000
0000
0000
0000
0000
0000
0000
0000
0000
0000
0000
0000
0000
0000
0000
0000
0000
0000
0000
0000
0000
0000
0000
0000
0000
0000
0000
0000
0000
0000
0000
0000
0000
0000
0000
,
0110
0000
1000
0001
1000
0002
0013
0011
,
0000
0000
1100
0000
0000
0000
1000
0000
0000
0010
0000
0000
0100
0000
0000
0000
,
0001
1000
0000
0001
0100
0010
0000
1010
,
0000
0000
0101
0000
0000
0000
0001
0000
0000
0010
0000
0000
0100
0000
0000
0000
,
1000
0001
0000
1000
0100
0010
0000
1001
,
0000
0000
0110
0000
0000
0000
0100
0000
0000
0001
0000
0000
1000
0000
0000
0000
,
0100
0010
0000
0100
1000
0001
0000
1001
,
0000
0000
0110
0000
0000
0000
0010
0000
0000
1000
0000
0000
0001
0000
0000
0000
,
0010
0100
0000
0010
0001
1000
0000
0010
,
0000
0000
0100
0000
0000
0000
0001
0000
0000
1000
0000
0000
0100
0000
0000
0000
,
0010
0100
0010
0100
0000
0000
0000
0000
;

//--------------- dance-single - ----------------
#NOTES:
     dance-single:
     :
     Hard:
     15:
     0,0,0,0,0:
0000
0000
0000
0000
,
0000
0000
0000
0000
,
1000
0100
0010
1000
0001
0100
1000
0010
,
0100
1000
0100
0001
1001
0000
1100
0000
,
1000
0100
1000
0000
0010
0000
0100
0000
0002
0000
0000
1000
0000
0000
0013
0000
,
0000
0000
0100
0010
0100
0000
1000
0000
0001
1000
0001
0000
0100
0000
0000
0000
,
0100
0001
0100
0000
0010
0000
1000
0000
0200
0000
0000
0010
0000
0000
1300
0000
,
0000
0000
0001
0100
0001
0000
0010
0000
0100
1000
0100
0000
0010
0000
0000
0000
,
0001
0100
0001
0000
1000
0000
0010
0000
0200
0000
0000
1000
0000
0000
0310
0000
,
0000
0000
0100
0001
0100
0000
0010
0000
1000
0100
1000
0000
0001
0000
0000
0000
,
0010
0100
0010
0000
1000
0000
0010
0000
0002
0000
0000
1000
0000
0000
0103
0000
,
0000
0000
0010
1000
0010
0000
0100
0000
0001
0010
0001
0000
0100
0000
0000
0000
,
0010
0000
1001
0000
1000
0100
0010
0001
,
0000
0001
0010
0100
2000
0000
3001
0000
,
0001
0000
0010
0100
1000
0000
0010
0000
1000
0100
0010
0000
0001
0000
0100
0000
,
0000
0100
0001
0100
0010
0000
1001
0000
,
0100
0000
0000
0000
1001
0000
0000
0000
1000
0000
0001
0100
0001
0000
0010
0000
,
0000
0100
1000
0100
0020
0000
0031
0000
,
1000
1100
0000
0001
0101
0000
1000
1100
,
0000
0000
0010
0100
0010
0000
1000
0000
0001
0000
0000
0000
0010
0000
0000
0000
,
0100
1000
0100
0000
0010
0000
0001
0000
0200
0000
0000
1000
0000
0000
0310
0000
,
0000
0000
0100
0001
0100
0000
0010
0000
1000
0100
1000
0000
0100
0000
0000
0000
,
0010
0001
0010
0000
0100
0000
1000
0000
0020
0000
0000
1000
0000
0000
0130
0000
,
0000
0000
0001
1000
0001
0000
0010
0000
0100
1000
0100
0000
0010
0000
0000
0000
,
0100
0000
1001
0000
0001
0010
0100
1000
,
0000
1000
0100
0010
0002
0000
1003
0000
,
1000
0000
0010
0100
0001
0000
0010
0000
0100
0000
0010
0001
0100
0000
2000
0000
,
0000
0000
3100
0001
0010
0000
0100
0000
1000
0000
0000
0000
1001
0000
0000
0000
,
0100
0000
0000
0000
1001
0000
0000
0000
0001
0010
0001
0010
0100
0000
1000
0000
,
0000
0000
0010
0000
0100
0000
0001
0100
0001
0000
1000
0000
0100
0000
0000
0000
,
1000
1010
0000
0001
0011
0000
1000
1010
,
0000
0001
1000
0001
0010
0000
0100
0000
,
2020
3030
0000
0000
0000
0000
0000
0000
0000
0000
0000
0000
0000
0000
0000
0000
0000
0000
0000
0000
0000
0000
0000
0000
0120
0000
0000
0000
0000
0000
0000
0000
0000
0000
0000
0000
0000
0000
0000
0000
0000
0000
0000
0000
0000
0000
0000
0000
0000
0000
0000
0000
0000
0000
0000
0000
0000
0000
0000
0000
0000
0000
0000
0000
0000
0000
0000
0000
0000
0000
0000
0000
0100
0000
0000
0000
0000
0000
0000
0000
0000
0000
0000
0000
0000
0000
0000
0000
0000
0000
0000
0000
0000
0000
0000
0000
0100
0000
0000
0000
0000
0000
0000
0000
0000
0000
0000
0000
0030
0000
0000
0000
0000
0000
0000
0000
0000
0000
0000
0000
0000
0000
0000
0000
0000
0000
0000
0000
0000
0000
0000
0000
0000
0000
0000
0000
0000
0000
0000
0000
0000
0000
0000
0000
0101
0000
0000
0000
0000
0000
0000
0000
0000
0000
0000
0000
0000
0000
0000
0000
0000
0000
0000
0000
0000
0000
0000
0000
0000
0000
0000
0000
0000
0000
0000
0000
0000
0000
0000
0000
0000
0000
0000
0000
0000
0000
0000
0000
0000
0000
0000
0000
,
0001
0000
0000
0000
0000
0000
0000
0000
0000
0000
0000
0000
0000
0000
0000
0000
0000
0000
0000
0000
0000
0000
0000
0000
0010
0000
0000
0000
0000
0000
0000
0000
0000
0000
0000
0000
0000
0000
0000
0000
0000
0000
0000
0000
0000
0000
0000
0000
0100
0000
0000
0000
0000
0000
0000
0000
0000
0000
0000
0000
0000
0000
0000
0000
0000
0000
0000
0000
0000
0000
0000
0000
1000
0000
0000
0000
0000
0000
0000
0000
0000
0000
0000
0000
0000
0000
0000
0000
0000
0000
0000
0000
0000
0000
0000
0000
0000
0000
0000
0000
0000
0000
0000
0000
0000
0000
0000
0000
0000
0000
0000
0000
0000
0000
0000
0000
0000
0000
0000
0000
1100
0000
0000
0000
0000
0000
0000
0000
0000
0000
0000
0000
0000
0000
0000
0000
0000
0000
0000
0000
0000
0000
0000
0000
0000
0000
0000
0000
0000
0000
0000
0000
0000
0000
0000
0000
0000
0000
0000
0000
0000
0000
0000
0000
0000
0000
0000
0000
0202
0303
0000
0000
0000
0000
0000
0000
0000
0000
0000
0000
0000
0000
0000
0000
0000
0000
0000
0000
0000
0000
0000
0000
,
0120
0000
0100
0130
0000
1100
0000
1000
,
0001
0000
0000
0000
0000
0000
0000
0000
0000
0000
0000
0000
0000
0000
0000
0000
0000
0000
0000
0000
0000
0000
0000
0000
1000
0000
0000
0000
0000
0000
0000
0000
0000
0000
0000
0000
0000
0000
0000
0000
0000
0000
0000
0000
0000
0000
0000
0000
0001
0000
0000
0000
0000
0000
0000
0000
0000
0000
0000
0000
0000
0000
0000
0000
0000
0000
0000
0000
0000
0000
0000
0000
0000
0000
0000
0000
0000
0000
0000
0000
0000
0000
0000
0000
0000
0000
0000
0000
0000
0000
0000
0000
0000
0000
0000
0000
0010
0000
0000
0000
0000
0000
0000
0000
0000
0000
0000
0000
0000
0000
0000
0000
0000
0000
0000
0000
0000
0000
0000
0000
0000
0000
0000
0000
0000
0000
0000
0000
0000
0000
0000
0000
0000
0000
0000
0000
0000
0000
0000
0000
0000
0000
0000
0000
2200
3300
0000
0000
0000
0000
0000
0000
0000
0000
0000
0000
0000
0000
0000
0000
0000
0000
0000
0000
0000
0000
0000
0000
0202
0300
0000
0000
0000
0000
0000
0000
0000
0000
0000
0000
0000
0000
0000
0000
0000
0000
0000
0000
0000
0000
0000
0000
,
0000
0100
0103
0000
0110
0000
0100
0010
,
0100
0010
0000
1000
0000
0001
0100
0001
,
0001
0000
0000
0000
0000
0000
0000
0000
0000
0000
0000
0000
0000
0000
0000
0000
0000
0000
0000
0000
0000
0000
0000
0000
1000
0000
0000
0000
0000
0000
0000
0000
0000
0000
0000
0000
0000
0000
0000
0000
0000
0000
0000
0000
0000
0000
0000
0000
0100
0000
0000
0000
0000
0000
0000
0000
0000
0000
0000
0000
0000
0000
0000
0000
0000
0000
0000
0000
0000
0000
0000
0000
1000
0000
0000
0000
0000
0000
0000
0000
0000
0000
0000
0000
0000
0000
0000
0000
0000
0000
0000
0000
0000
0000
0000
0000
1000
0000
0000
0000
0000
0000
0000
0000
0000
0000
0000
0000
0000
0000
0000
0000
0000
0000
0000
0000
0000
0000
0000
0000
0002
0003
0000
0000
0000
0000
0000
0000
0000
0000
0000
0000
0000
0000
0000
0000
0000
0000
0000
0000
0000
0000
0000
0000
0020
0030
0000
0000
0000
0000
0000
0000
0000
0000
0000
0000
0000
0000
0000
0000
0000
0000
0000
0000
0000
0000
0000
0000
0200
0300
0000
0000
0000
0000
0000
0000
0000
0000
0000
0000
0000
0000
0000
0000
0000
0000
0000
0000
0000
0000
0000
0000
,
1000
0001
0100
0001
0100
0010
2000
0001
,
3001
0000
0000
0000
0110
0000
0000
0000
1000
0000
0001
0000
0010
0100
0010
0000
,
0001
1000
1100
0100
1100
1000
1100
0100
,
0010
0002
0000
0103
0101
0001
0101
0100
,
0001
2000
0000
3100
1100
1000
1200
0010
,
0310
0000
0000
0000
0101
0000
0000
0000
0100
0000
0001
0000
0010
0100
0010
0000
,
0001
1000
1010
0010
1010
1000
1010
0010
,
1000
0002
0000
0013
0011
0001
0011
0010
,
0001
2000
0000
3001
0100
0001
0100
0000
,
0110
0000
1000
0010
1000
0100
1000
0010
,
1000
0100
1000
0010
1000
0100
0110
0000
,
2001
0000
0010
0000
0010
0000
0100
0100
,
0000
0001
0000
0001
0000
0010
3100
0000
,
1001
0000
0001
0010
0001
0100
0001
0010
,
0001
0100
0001
0010
0001
0100
0110
0000
,
1002
0000
0010
0000
0010
0000
0100
0100
,
0000
1000
0000
1000
0000
0010
0103
0000
,
1001
0000
0001
0100
1000
0100
0001
0100
,
1000
0100
0001
0100
1000
0100
0001
0000
,
0120
0000
1000
0000
1000
0000
0001
0001
,
0000
0100
0000
0100
0000
1000
0031
0000
,
0110
0000
1000
0100
0001
0100
1000
0100
,
0001
0100
1000
0100
0001
0100
1000
0000
,
0120
0000
0001
0000
0001
0000
1000
1000
,
0000
0000
0230
0000
0000
0000
0301
0000
1000
0100
1000
0100
1000
0100
1000
0100
,
1000
0000
0000
0000
0001
0000
0100
0001
0100
0000
0000
0000
0010
0000
1000
0000
,
0002
0003
0000
0000
0000
0000
0000
0000
0000
0000
0000
0000
0000
0000
0000
0000
0000
0000
0000
0000
0000
0000
0000
0000
2000
3000
0000
0000
0000
0000
0000
0000
0000
0000
0000
0000
0000
0000
0000
0000
0000
0000
0000
0000
0000
0000
0000
0000
2002
3003
0000
0000
0000
0000
0000
0000
0000
0000
0000
0000
0000
0000
0000
0000
0000
0000
0000
0000
0000
0000
0000
0000
0000
0000
0000
0000
0000
0000
0000
0000
0000
0000
0000
0000
0000
0000
0000
0000
0000
0000
0000
0000
0000
0000
0000
0000
1000
0000
0000
0000
0000
0000
0000
0000
0000
0000
0000
0000
0000
0000
0000
0000
0000
0000
0000
0000
0000
0000
0000
0000
0100
0000
0000
0000
0000
0000
0000
0000
0000
0000
0000
0000
0000
0000
0000
0000
0000
0000
0000
0000
0000
0000
0000
0000
0010
0000
0000
0000
0000
0000
0000
0000
0000
0000
0000
0000
0000
0000
0000
0000
0000
0000
0000
0000
0000
0000
0000
0000
0100
0000
0000
0000
0000
0000
0000
0000
0000
0000
0000
0000
0000
0000
0000
0000
0000
0000
0000
0000
0000
0000
0000
0000
,
1000
0001
0000
0001
0100
0110
0010
0110
,
0100
0000
0000
0000
0000
0000
0000
0000
0000
0000
0000
0000
0000
0000
0000
0000
0000
0000
0000
0000
0000
0000
0000
0000
0110
0000
0000
0000
0000
0000
0000
0000
0000
0000
0000
0000
0000
0000
0000
0000
0000
0000
0000
0000
0000
0000
0000
0000
0010
0000
0000
0000
0000
0000
0000
0000
0000
0000
0000
0000
0000
0000
0000
0000
0000
0000
0000
0000
0000
0000
0000
0000
0110
0000
0000
0000
0000
0000
0000
0000
0000
0000
0000
0000
0000
0000
0000
0000
0000
0000
0000
0000
0000
0000
0000
0000
0100
0000
0000
0000
0000
0000
0000
0000
0000
0000
0000
0000
0000
0000
0000
0000
0000
0000
0000
0000
0000
0000
0000
0000
0220
0330
0000
0000
0000
0000
0000
0000
0000
0000
0000
0000
0000
0000
0000
0000
0000
0000
0000
0000
0000
0000
0000
0000
0220
0330
0000
0000
0000
0000
0000
0000
0000
0000
0000
0000
0000
0000
0000
0000
0000
0000
0000
0000
0000
0000
0000
0000
2001
0000
0000
0000
0000
0000
0000
0000
0000
0000
0000
0000
0000
0000
0000
0000
0000
0000
0000
0000
0000
0000
0000
0000
,
0001
0000
3001
0000
0100
0000
0002
0000
1003
0100
1000
0001
0100
0010
2000
0000
,
3001
1000
0001
2000
3010
0100
0010
0100
,
0010
0100
0001
1000
1002
0000
1003
0010
,
1000
0020
0100
0130
0000
1010
0000
0101
,
0001
0000
1000
0100
1000
0000
0010
0000
0100
0001
0100
0000
0001
0100
0001
0000
,
0100
0001
0100
0000
0001
0000
1000
0000
0002
0000
0000
0000
1003
0100
1000
0000
,
0100
1000
0100
0000
1000
0000
1000
0000
0002
0000
0000
0000
1003
0000
0010
0000
,
1000
0020
0100
0130
0000
0101
0000
2100
,
0000
0100
3100
0000
0110
0000
0001
0010
,
0100
1100
0000
1010
0000
1100
0000
0102
,
0000
0100
0103
0000
0110
0000
0010
1000
,
0001
0010
0000
1001
0000
0101
0000
2100
,
0000
0100
3100
0000
0110
0000
0001
0010
,
0100
0000
0000
0000
0000
0000
0000
0000
0000
0000
0000
0000
0000
0000
0000
0000
0000
0000
0000
0000
0000
0000
0000
0000
1000
0000
0000
0000
0000
0000
0000
0000
0000
0000
0000
0000
0000
0000
0000
0000
0000
0000
0000
0000
0000
0000
0000
0000
0000
0000
0000
0000
0000
0000
0000
0000
0000
0000
0000
0000
0000
0000
0000
0000
0000
0000
0000
0000
0000
0000
0000
0000
0011
0000
0000
0000
0000
0000
0000
0000
0000
0000
0000
0000
0000
0000
0000
0000
0000
0000
0000
0000
0000
0000
0000
0000
0000
0000
0000
0000
0000
0000
0000
0000
0000
0000
0000
0000
0000
0000
0000
0000
0000
0000
0000
0000
0000
0000
0000
0000
0200
0300
0000
0000
0000
0000
0000
0000
0000
0000
0000
0000
0000
0000
0000
0000
0000
0000
0000
0000
0000
0000
0000
0000
0200
0300
0000
0000
0000
0000
0000
0000
0000
0000
0000
0000
0000
0000
0000
0000
0000
0000
0000
0000
0000
0000
0000
0000
0100
0000
0000
0000
0000
0000
0000
0000
0000
0000
0000
0000
0000
0000
0000
0000
0000
0000
0000
0000
0000
0000
0000
0000
,
0100
0000
0110
0000
1000
0001
1000
0001
,
0000
0000
0000
0000
0000
0000
0000
0000
0000
0000
0000
0000
0000
0000
0000
0000
0000
0000
0000
0000
0000
0000
0000
0000
1000
0000
0000
0000
0000
0000
0000
0000
0000
0000
0000
0000
0000
0000
0000
0000
0000
0000
0000
0000
0000
0000
0000
0000
0001
0000
0000
0000
0000
0000
0000
0000
0000
0000
0000
0000
0000
0000
0000
0000
0000
0000
0000
0000
0000
0000
0000
0000
0200
0300
0000
0000
0000
0000
0000
0000
0000
0000
0000
0000
0000
0000
0000
0000
0000
0000
0000
0000
0000
0000
0000
0000
0200
0300
0000
0000
0000
0000
0000
0000
0000
0000
0000
0000
0000
0000
0000
0000
0000
0000
0000
0000
0000
0000
0000
0000
0100
0000
0000
0000
0000
0000
0000
0000
0000
0000
0000
0000
0000
0000
0000
0000
0000
0000
0000
0000
0000
0000
0000
0000
0100
0000
0000
0000
0000
0000
0000
0000
0000
0000
0000
0000
0000
0000
0000
0000
0000
0000
0000
0000
0000
0000
0000
0000
0000
0000
0000
0000
0000
0000
0000
0000
0000
0000
0000
0000
0000
0000
0000
0000
0000
0000
0000
0000
0000
0000
0000
0000
,
0110
0000
0000
0000
1000
0000
0001
0000
1000
0000
0002
0000
0013
0000
0100
1000
,
0100
0000
0010
0000
0100
0000
2000
0000
0000
0001
0000
0000
3010
0000
0000
0000
,
0100
0010
0100
0000
0001
0000
1000
0001
1000
0000
0100
0000
0000
0000
0100
1000
,
0100
0000
0010
0000
0001
0000
0200
0000
0000
0010
0000
0000
0301
0000
0000
0000
,
1000
0100
1000
0000
0010
0000
0100
0001
0100
0000
0010
0000
0000
0000
1000
0100
,
1000
0000
0001
0000
0010
0000
0200
0000
0000
0001
0000
0000
0310
0000
0000
0000
,
0100
1000
0100
0000
0010
0000
0001
0100
0001
0000
1000
0000
0000
0000
0010
0100
,
0010
0000
0001
0000
0010
0000
2000
0000
0000
0001
0000
0000
3100
0000
0000
0000
,
0010
0001
0010
0000
0100
0000
1000
0010
1000
0000
0001
0000
0000
0000
0010
0100
,
0010
0000
0001
0000
1000
0000
0020
0000
0000
1000
0000
0000
0130
0000
0000
0000
,
0100
0001
0010
0000
0100
0000
0110
0000
0000
0000
0000
0000
0000
0000
0000
0000
;

//--------------- dance-single - ----------------
#NOTES:
     dance-single:
     :
     Challenge:
     17:
     0.872882,0.661936,0,0,0,765,765,0,0,0,0,0.872882,0.661936,0,0,0,765,765,0,0,0,0:
0000
0000
0000
0000
,
0000
0000
0000
0000
,
1000
0000
0001
0010
0100
0000
0010
0000
0001
0000
1000
0010
0100
0000
0010
0000
,
1000
0000
0001
0010
0100
0010
0001
0010
0100
0000
0010
0001
1000
0000
0000
0000
,
0001
0010
0100
0000
1000
0000
0001
0000
0100
0000
0100
0001
0000
0000
0011
0000
,
0010
0000
0100
1000
0010
0000
0100
0000
0010
1000
0100
0000
0110
0000
0000
0000
,
1000
0010
0100
0000
0001
0000
1000
0000
0100
0000
0100
1000
0000
0000
1010
0000
,
0010
0000
0100
0001
0010
0000
0100
0000
0010
0001
0100
0000
0110
0000
0000
0000
,
0001
0100
0010
0000
1000
0000
0001
0000
0010
0000
0010
0001
0000
0000
0101
0000
,
0100
0000
0010
1000
0100
0000
0010
0000
0100
1000
0010
0000
0110
0000
0000
0000
,
1000
0100
0010
0000
0001
0000
1000
0000
0010
0000
0010
1000
0000
0000
1100
0000
,
0100
0000
0010
0001
0100
0000
0010
0000
0100
0001
0010
0000
0110
0000
0000
0000
,
0110
0000
1001
0000
1100
0101
0011
1010
,
0000
0000
1000
0010
0100
0000
0001
0000
0101
0000
0000
0000
1010
0000
0000
0000
,
0010
0000
0100
0001
0100
0000
0010
1000
0001
1000
0001
0000
0010
0000
0110
0000
,
0000
0000
0100
1000
0001
0000
0010
0000
0011
0000
0000
0000
1100
0000
0000
0000
,
0110
0000
0000
0000
1001
0000
0000
0000
0001
0000
1000
0010
0100
0000
0101
0000
,
0000
0000
0010
0000
1000
0001
0010
0000
0011
0000
0000
0000
1100
0000
0000
0000
,
1010
1001
0000
0101
1001
0000
0110
1001
,
1000
0000
0010
0100
0010
0000
1000
0000
0001
0010
0001
0010
0100
0010
0100
1000
,
0001
0100
0010
0000
1010
0000
1000
0000
0001
0000
0001
0010
0000
0000
1100
0000
,
1000
0000
0001
0100
0001
0000
1000
0000
0001
0010
0001
0000
0100
0000
0000
0000
,
0010
1000
0100
0000
0010
0000
0100
0000
1000
0000
1000
0010
0000
0000
0101
0000
,
0001
0000
1000
0100
1000
0000
0010
0000
1000
0010
1000
0000
0110
0000
0000
0000
,
0110
0000
1001
0000
0101
1100
1010
0011
,
0000
0000
0001
0010
0100
0000
1000
0000
1100
0000
0000
0000
0011
0000
0000
0000
,
1000
0000
0001
0100
0001
0000
1000
0000
0010
0100
0010
0100
0001
1000
0100
0000
,
0000
0000
0010
0001
0100
0000
0010
0000
1010
0000
0000
0000
0101
0000
0000
0000
,
0110
0000
0000
0000
1001
0000
0000
0000
0001
0010
0100
1000
0001
0000
0101
0000
,
0000
0000
0001
0000
1000
0010
0100
0001
1000
0000
0001
0000
0011
0000
0000
0000
,
0101
1001
0000
1010
1001
0000
0110
1001
,
0000
0001
1000
0001
0010
0000
0100
0000
,
2200
3300
0000
0000
0000
0000
0000
0000
0000
0000
0000
0000
0000
0000
0000
0000
0000
0000
0000
0000
0000
0000
0000
0000
0220
0330
0000
0000
0000
0000
0000
0000
0000
0000
0000
0000
0000
0000
0000
0000
0000
0000
0000
0000
0000
0000
0000
0000
0000
0000
0000
0000
0000
0000
0000
0000
0000
0000
0000
0000
0000
0000
0000
0000
0000
0000
0000
0000
0000
0000
0000
0000
0101
0000
0000
0000
0000
0000
0000
0000
0000
0000
0000
0000
0000
0000
0000
0000
0000
0000
0000
0000
0000
0000
0000
0000
0101
0000
0000
0000
0000
0000
0000
0000
0000
0000
0000
0000
0000
0000
0000
0000
0000
0000
0000
0000
0000
0000
0000
0000
0000
0000
0000
0000
0000
0000
0000
0000
0000
0000
0000
0000
0000
0000
0000
0000
0000
0000
0000
0000
0000
0000
0000
0000
0110
0000
0000
0000
0000
0000
0000
0000
0000
0000
0000
0000
0000
0000
0000
0000
0000
0000
0000
0000
0000
0000
0000
0000
0000
0000
0000
0000
0000
0000
0000
0000
0000
0000
0000
0000
0000
0000
0000
0000
0000
0000
0000
0000
0000
0000
0000
0000
,
0001
0000
0000
0000
0000
0000
0000
0000
0000
0000
0000
0000
0000
0000
0000
0000
0000
0000
0000
0000
0000
0000
0000
0000
0010
0000
0000
0000
0000
0000
0000
0000
0000
0000
0000
0000
0000
0000
0000
0000
0000
0000
0000
0000
0000
0000
0000
0000
0100
0000
0000
0000
0000
0000
0000
0000
0000
0000
0000
0000
0000
0000
0000
0000
0000
0000
0000
0000
0000
0000
0000
0000
0010
0000
0000
0000
0000
0000
0000
0000
0000
0000
0000
0000
0000
0000
0000
0000
0000
0000
0000
0000
0000
0000
0000
0000
0001
0000
0000
0000
0000
0000
0000
0000
0000
0000
0000
0000
0000
0000
0000
0000
0000
0000
0000
0000
0000
0000
0000
0000
1000
0000
0000
0000
0000
0000
0000
0000
0000
0000
0000
0000
0000
0000
0000
0000
0000
0000
0000
0000
0000
0000
0000
0000
0000
0000
0000
0000
0000
0000
0000
0000
0000
0000
0000
0000
0000
0000
0000
0000
0000
0000
0000
0000
0000
0000
0000
0000
0220
0330
0000
0000
0000
0000
0000
0000
0000
0000
0000
0000
0000
0000
0000
0000
0000
0000
0000
0000
0000
0000
0000
0000
,
0202
0303
0000
0000
0000
0000
0000
0000
0000
0000
0000
0000
0000
0000
0000
0000
0000
0000
0000
0000
0000
0000
0000
0000
0000
0000
0000
0000
0000
0000
0000
0000
0000
0000
0000
0000
0000
0000
0000
0000
0000
0000
0000
0000
0000
0000
0000
0000
1100
0000
0000
0000
0000
0000
0000
0000
0000
0000
0000
0000
0000
0000
0000
0000
0000
0000
0000
0000
0000
0000
0000
0000
1100
0000
0000
0000
0000
0000
0000
0000
0000
0000
0000
0000
0000
0000
0000
0000
0000
0000
0000
0000
0000
0000
0000
0000
0000
0000
0000
0000
0000
0000
0000
0000
0000
0000
0000
0000
0000
0000
0000
0000
0000
0000
0000
0000
0000
0000
0000
0000
0110
0000
0000
0000
0000
0000
0000
0000
0000
0000
0000
0000
0000
0000
0000
0000
0000
0000
0000
0000
0000
0000
0000
0000
0000
0000
0000
0000
0000
0000
0000
0000
0000
0000
0000
0000
0000
0000
0000
0000
0000
0000
0000
0000
0000
0000
0000
0000
1000
0000
0000
0000
0000
0000
0000
0000
0000
0000
0000
0000
0000
0000
0000
0000
0000
0000
0000
0000
0000
0000
0000
0000
,
0001
0000
0000
0000
0000
0000
0000
0000
0000
0000
0000
0000
0000
0000
0000
0000
0000
0000
0000
0000
0000
0000
0000
0000
1000
0000
0000
0000
0000
0000
0000
0000
0000
0000
0000
0000
0000
0000
0000
0000
0000
0000
0000
0000
0000
0000
0000
0000
0001
0000
0000
0000
0000
0000
0000
0000
0000
0000
0000
0000
0000
0000
0000
0000
0000
0000
0000
0000
0000
0000
0000
0000
0100
0000
0000
0000
0000
0000
0000
0000
0000
0000
0000
0000
0000
0000
0000
0000
0000
0000
0000
0000
0000
0000
0000
0000
0010
0000
0000
0000
0000
0000
0000
0000
0000
0000
0000
0000
0000
0000
0000
0000
0000
0000
0000
0000
0000
0000
0000
0000
0100
0000
0000
0000
0000
0000
0000
0000
0000
0000
0000
0000
0000
0000
0000
0000
0000
0000
0000
0000
0000
0000
0000
0000
0220
0330
0000
0000
0000
0000
0000
0000
0000
0000
0000
0000
0000
0000
0000
0000
0000
0000
0000
0000
0000
0000
0000
0000
0202
0303
0000
0000
0000
0000
0000
0000
0000
0000
0000
0000
0000
0000
0000
0000
0000
0000
0000
0000
0000
0000
0000
0000
,
0000
1100
1100
0000
0110
0000
1000
0001
,
0100
0000
0001
0000
0010
0000
0100
0000
1000
0000
0010
0000
0100
0001
0100
0000
,
0010
0000
0000
0000
0000
0000
0000
0000
0000
0000
0000
0000
1000
0000
0000
0000
0000
0000
0000
0000
0000
0000
0000
0000
0010
0000
0000
0000
0000
0000
0000
0000
0000
0000
0000
0000
0000
0000
0000
0000
0000
0000
0000
0000
0000
0000
0000
0000
0100
0000
0000
0000
0000
0000
0000
0000
0000
0000
0000
0000
0000
0000
0000
0000
0000
0000
0000
0000
0000
0000
0000
0000
0010
0000
0000
0000
0000
0000
0000
0000
0000
0000
0000
0000
0000
0000
0000
0000
0000
0000
0000
0000
0000
0000
0000
0000
1000
0000
0000
0000
0000
0000
0000
0000
0000
0000
0000
0000
0001
0000
0000
0000
0000
0000
0000
0000
0000
0000
0000
0000
2000
3000
0000
0000
0000
0000
0000
0000
0000
0000
0000
0000
0000
0000
0000
0000
0000
0000
0000
0000
0000
0000
0000
0000
0200
0300
0000
0000
0000
0000
0000
0000
0000
0000
0000
0000
0000
0000
0000
0000
0000
0000
0000
0000
0000
0000
0000
0000
0020
0030
0000
0000
0000
0000
0000
0000
0000
0000
0000
0000
0000
0000
0000
0000
0000
0000
0000
0000
0000
0000
0000
0000
,
0001
0000
1000
0100
1000
0000
0001
0010
0001
0000
1000
0100
2000
0000
0010
0000
,
3010
0000
0100
0000
0102
0000
0000
0000
1003
0000
0001
0010
0100
0000
0010
0100
,
1000
0000
0001
0100
0010
0100
0001
0100
0010
0100
0001
0100
0010
0000
1000
0000
,
1000
0000
0020
0000
0000
0000
0130
0001
1000
0001
0100
0001
1000
0000
0010
0000
,
0010
0000
0200
0000
0000
0000
0301
0010
0100
0010
0001
0010
0200
0000
0010
0000
,
0310
0000
0001
0000
0021
0000
0000
0000
0130
0000
1000
0100
0010
0000
0100
0010
,
0001
0000
0010
0100
1000
0100
0010
0100
1000
0100
0010
0100
1000
0000
0001
0000
,
0001
0000
0200
0000
0000
0000
0310
1000
0001
1000
0010
1000
0001
0000
0100
0000
,
0010
0110
0000
1010
1010
0101
0101
0000
,
1001
0000
1100
0010
1010
0100
0110
1000
,
1001
0010
0110
0001
0101
0010
0011
0000
,
1001
0000
0011
0000
0011
0000
1100
1100
,
0000
1010
0000
1010
0000
0101
0101
0000
,
1001
0000
0101
0010
0011
0100
0110
0001
,
1001
0010
0110
1000
1100
0010
1010
0000
,
1001
0000
1010
0000
1010
0000
0101
0101
,
0000
0011
0000
0011
0000
1100
1100
0000
,
1001
0000
0000
0000
0001
0000
1000
0010
1000
0000
0001
1000
0001
0000
1000
0100
,
1000
0000
0001
0010
0001
0000
1000
0001
1000
0000
0001
0100
0001
0000
0000
0000
,
1001
0000
0110
0000
0110
0000
0101
0101
,
0000
1010
0000
1010
0000
0011
0011
0000
,
0110
0000
0000
0000
0001
0100
0010
0100
0001
0100
0010
0100
0001
0010
0100
0010
,
0001
0010
0100
1000
0010
0100
0010
1000
0010
0100
0010
1000
0001
0000
0000
0000
,
0011
0000
1100
0000
1100
0000
0110
0110
,
0000
0000
0000
0000
0000
0000
0000
0000
0000
0000
0000
0000
0000
0000
0000
0000
0000
0000
0000
0000
0000
0000
0000
0000
2002
3003
0000
0000
0000
0000
0000
0000
0000
0000
0000
0000
0000
0000
0000
0000
0000
0000
0000
0000
0000
0000
0000
0000
0000
0000
0000
0000
0000
0000
0000
0000
0000
0000
0000
0000
0000
0000
0000
0000
0000
0000
0000
0000
0000
0000
0000
0000
2000
0000
0000
0000
0000
0000
0000
0000
0000
0000
0000
0000
0000
0000
0000
0000
0000
0000
0000
0000
0000
0000
0000
0000
3001
0000
0000
0000
0000
0000
0000
0000
0000
0000
0000
0000
0010
0000
0000
0000
0000
0000
0000
0000
0000
0000
0000
0000
0100
0000
0000
0000
0000
0000
0000
0000
0000
0000
0000
0000
0010
0000
0000
0000
0000
0000
0000
0000
0000
0000
0000
0000
0001
0000
0000
0000
0000
0000
0000
0000
0000
0000
0000
0000
0010
0000
0000
0000
0000
0000
0000
0000
0000
0000
0000
0000
0100
0000
0000
0000
0000
0000
0000
0000
0000
0000
0000
0000
0010
0000
0000
0000
0000
0000
0000
0000
0000
0000
0000
0000
,
0001
0000
0100
0000
1000
0000
0100
0001
0010
0000
1000
0000
0010
0000
0001
0000
,
0200
0300
0000
0000
0000
0000
0000
0000
0000
0000
0000
0000
0000
0000
0000
0000
0000
0000
0000
0000
0000
0000
0000
0000
0020
0030
0000
0000
0000
0000
0000
0000
0000
0000
0000
0000
0000
0000
0000
0000
0000
0000
0000
0000
0000
0000
0000
0000
0220
0330
0000
0000
0000
0000
0000
0000
0000
0000
0000
0000
0000
0000
0000
0000
0000
0000
0000
0000
0000
0000
0000
0000
0000
0000
0000
0000
0000
0000
0000
0000
0000
0000
0000
0000
0000
0000
0000
0000
0000
0000
0000
0000
0000
0000
0000
0000
1000
0000
0000
0000
0000
0000
0000
0000
0000
0000
0000
0000
0000
0000
0000
0000
0000
0000
0000
0000
0000
0000
0000
0000
0010
0000
0000
0000
0000
0000
0000
0000
0000
0000
0000
0000
0000
0000
0000
0000
0000
0000
0000
0000
0000
0000
0000
0000
1000
0000
0000
0000
0000
0000
0000
0000
0000
0000
0000
0000
0000
0000
0000
0000
0000
0000
0000
0000
0000
0000
0000
0000
0001
0000
0000
0000
0000
0000
0000
0000
0000
0000
0000
0000
0000
0000
0000
0000
0000
0000
0000
0000
0000
0000
0000
0000
,
0010
0000
0100
0000
1000
0010
0100
0000
0010
0000
0102
0000
0013
0000
2100
0000
,
3010
0000
0000
0000
0000
0000
0000
0000
0000
0000
0000
0000
0000
0000
0000
0000
0000
0000
0000
0000
0000
0000
0000
0000
0102
0000
0000
0000
0000
0000
0000
0000
0000
0000
0000
0000
0000
0000
0000
0000
0000
0000
0000
0000
0000
0000
0000
0000
0013
0000
0000
0000
0000
0000
0000
0000
0000
0000
0000
0000
0000
0000
0000
0000
0000
0000
0000
0000
0000
0000
0000
0000
2100
0000
0000
0000
0000
0000
0000
0000
0000
0000
0000
0000
0000
0000
0000
0000
0000
0000
0000
0000
0000
0000
0000
0000
3010
0000
0000
0000
0000
0000
0000
0000
0000
0000
0000
0000
0000
0000
0000
0000
0000
0000
0000
0000
0000
0000
0000
0000
0202
0303
0000
0000
0000
0000
0000
0000
0000
0000
0000
0000
0000
0000
0000
0000
0000
0000
0000
0000
0000
0000
0000
0000
2200
3300
0000
0000
0000
0000
0000
0000
0000
0000
0000
0000
0000
0000
0000
0000
0000
0000
0000
0000
0000
0000
0000
0000
2001
0000
0000
0000
0000
0000
0000
0000
0000
0000
0000
0000
0000
0000
0000
0000
0000
0000
0000
0000
0000
0000
0000
0000
,
0010
0000
0000
0000
3010
0000
0000
0000
0100
0000
0000
0000
0002
0000
0000
0000
1003
0000
0010
0000
0100
0010
0100
0000
0001
0000
1000
0100
0010
0000
0100
0000
,
1000
0100
0010
0100
1000
0100
0020
0000
0031
0100
0010
0100
0001
0100
0010
0100
,
0001
0100
0010
0000
1000
0000
0001
0000
1020
0000
0000
0000
1030
0010
0100
0010
,
1000
0010
0200
0000
0001
0000
0301
0000
0010
0000
0110
0000
0000
0000
1001
0000
,
1000
0100
0010
0000
0001
0010
0100
0000
1000
0000
0001
0100
0010
0100
0001
0100
,
1000
0100
0010
0000
1000
0000
0100
0000
0020
0000
0000
0000
0031
0010
0100
0010
,
0001
0010
1000
0010
0100
0000
1000
0000
0010
0000
0000
0000
0110
0000
0101
0000
,
0110
2010
0001
3001
0000
0101
0010
1100
,
0001
0000
0110
0000
0110
0000
1000
0000
0101
0000
0001
0000
0010
0100
0010
0000
,
0100
1000
0010
0000
0100
0010
0100
0000
0001
0000
1100
0000
0010
0000
0101
0000
,
1000
0000
0110
0000
0110
0000
0001
0000
1100
0000
1000
0000
0001
0100
0010
0000
,
0100
1000
0100
0001
0000
0110
1000
0110
,
0001
0000
0110
0000
0110
0000
1000
0000
0110
0000
0000
0000
0001
0010
0100
0000
,
0010
0000
0000
0000
0000
0000
0000
0000
0000
0000
0000
0000
0000
0000
0000
0000
0000
0000
0000
0000
0000
0000
0000
0000
0001
0000
0000
0000
0000
0000
0000
0000
0000
0000
0000
0000
0100
0000
0000
0000
0000
0000
0000
0000
0000
0000
0000
0000
1000
0000
0000
0000
0000
0000
0000
0000
0000
0000
0000
0000
0100
0000
0000
0000
0000
0000
0000
0000
0000
0000
0000
0000
0001
0000
0000
0000
0000
0000
0000
0000
0000
0000
0000
0000
0000
0000
0000
0000
0000
0000
0000
0000
0000
0000
0000
0000
0010
0000
0000
0000
0000
0000
0000
0000
0000
0000
0000
0000
0000
0000
0000
0000
0000
0000
0000
0000
0000
0000
0000
0000
2200
3300
0000
0000
0000
0000
0000
0000
0000
0000
0000
0000
0000
0000
0000
0000
0000
0000
0000
0000
0000
0000
0000
0000
0202
0303
0000
0000
0000
0000
0000
0000
0000
0000
0000
0000
0000
0000
0000
0000
0000
0000
0000
0000
0000
0000
0000
0000
1100
0000
0000
0000
0000
0000
0000
0000
0000
0000
0000
0000
0000
0000
0000
0000
0000
0000
0000
0000
0000
0000
0000
0000
,
0101
0000
0110
0000
1000
0001
1000
0001
,
0100
0000
0000
0000
0000
0000
0000
0000
0000
0000
0000
0000
0010
0000
0000
0000
0000
0000
0000
0000
0000
0000
0000
0000
0100
0000
0000
0000
0000
0000
0000
0000
0000
0000
0000
0000
0000
0000
0000
0000
0000
0000
0000
0000
0000
0000
0000
0000
0001
0000
0000
0000
0000
0000
0000
0000
0000
0000
0000
0000
0000
0000
0000
0000
0000
0000
0000
0000
0000
0000
0000
0000
0202
0303
0000
0000
0000
0000
0000
0000
0000
0000
0000
0000
0000
0000
0000
0000
0000
0000
0000
0000
0000
0000
0000
0000
2200
3300
0000
0000
0000
0000
0000
0000
0000
0000
0000
0000
0000
0000
0000
0000
0000
0000
0000
0000
0000
0000
0000
0000
0101
0000
0000
0000
0000
0000
0000
0000
0000
0000
0000
0000
0000
0000
0000
0000
0000
0000
0000
0000
0000
0000
0000
0000
1100
0000
0000
0000
0000
0000
0000
0000
0000
0000
0000
0000
0000
0000
0000
0000
0000
0000
0000
0000
0000
0000
0000
0000
0000
0000
0000
0000
0000
0000
0000
0000
0000
0000
0000
0000
0000
0000
0000
0000
0000
0000
0000
0000
0000
0000
0000
0000
,
0110
0000
0000
0000
0000
0000
0000
0000
0000
0000
0000
0000
1000
0000
0000
0000
0000
0000
0001
0000
0000
0000
0000
0000
1000
0000
0000
0000
0000
0000
0002
0000
0000
1003
0100
0010
0001
0000
0000
0000
0000
0000
1000
0000
0000
0100
0000
0000
,
1000
0000
0010
0000
0100
0000
0001
0000
0001
1000
0000
0000
1100
0000
1000
0000
,
0001
0010
0100
0000
0001
0000
0100
0010
0001
0000
1000
0000
0000
0000
0001
0100
,
0001
0000
0010
0000
0100
0000
1000
0000
1000
0001
0000
0000
0101
0000
0001
0000
,
1000
0010
0100
0000
1000
0000
0100
0010
1000
0000
1001
0000
0000
0000
0001
0010
,
0100
0000
0010
0000
0001
0000
1000
0000
1000
0010
0000
0000
0110
0000
0100
0000
,
0010
1000
0100
0000
0010
0000
0100
1000
0010
0000
0110
0000
0000
0000
0100
0001
,
0010
0000
0100
0000
1000
0000
0001
0000
0001
0100
0000
0000
0110
0000
0010
0000
,
0100
0001
0010
0000
0100
0000
0010
0001
0100
0000
0001
0000
0000
0000
1000
0001
,
0100
0000
0010
0000
1000
0000
0001
0000
0001
0010
0000
0000
1100
0000
0000
0000
,
1000
0001
0100
0000
0101
0000
1100
0000
0000
0000
0000
0000
0000
0000
0000
0000
;
