#TITLE:炉心融解;
#SUBTITLE:DIVELA REMIX feat. 鏡音リン・鏡音レン;
#ARTIST:iroha(sasaki) Remixed by DIVELA;
#TITLETRANSLIT:Meltdown;
#SUBTITLETRANSLIT:(DIVELA REMIX) [feat. Kagamine Rin and Len];
#ARTISTTRANSLIT:iroha(sasaki) Remixed by DIVELA;
#GENRE:POP;
#CREDIT:;
#MUSIC:Meltdown (DIVELA REMIX) [feat. Kagamine Rin and Len].ogg;
#BANNER:Meltdown (DIVELA REMIX) [feat. Kagamine Rin and Len].png;
#BACKGROUND:Meltdown (DIVELA REMIX) [feat. Kagamine Rin and Len]-bg.png;
#CDTITLE:;
#SAMPLESTART:68.667;
#SAMPLELENGTH:10.667;
#SELECTABLE:YES;
#OFFSET:-0.010;
#BPMS:0.000=180.000;
#STOPS:;
#BGCHANGES:;
#FGCHANGES:;

//--------------- dance-single - ----------------
#NOTES:
     dance-single:
     :
     Medium:
     13:
     0,0,0,0,0:
0000
0000
0000
0000
,
0000
0000
0000
0000
,
0000
0000
0000
0000
,
0000
0000
0000
0000
,
0000
0000
0000
0000
,
0000
0000
0000
0000
,
0000
0000
0000
0000
,
0000
0000
0000
0000
,
0000
0000
0000
0000
,
0000
0000
1000
0001
2000
0000
3020
0000
,
0130
0000
0001
0000
1000
0100
0000
1000
0100
0000
0010
0000
0100
0000
1000
0000
,
0010
0100
0001
0100
1000
0100
0001
0000
,
0001
0000
1000
0000
0001
0100
0001
0000
1000
0000
0010
0000
0100
0000
0001
0000
,
1000
0100
0010
0100
1000
0010
0100
0000
,
0100
0000
0001
0000
1000
0010
0000
1000
0010
0000
0100
0000
0001
0000
0010
0000
,
0100
0001
1000
0010
0100
1000
0010
0000
,
0100
0000
0001
0010
0000
0001
1000
0000
0100
0000
1000
0010
0000
1000
0001
0000
,
0100
0001
1000
0001
1000
0010
0100
0000
,
0001
0000
1000
0000
0001
0100
0000
0001
0100
0000
0010
0000
0100
0000
0001
0000
,
0010
0100
1000
0100
0001
0100
1000
0000
,
1000
0000
0001
0000
1000
0100
1000
0000
0001
0000
0010
0000
0100
0000
1000
0000
,
0001
0100
0010
0100
0001
0010
0100
0000
,
0100
0000
1000
0000
0001
0010
0000
0001
0010
0000
0100
0000
1000
0000
0010
0000
,
0100
1000
0001
0010
0100
0001
0010
0000
,
0100
0000
1000
0010
0000
1000
0001
0000
0100
0000
0001
0010
0000
0001
1000
0000
,
0100
1000
0001
1000
0001
0010
0110
0000
,
1000
0001
1000
0000
0010
0100
0010
0000
,
0100
0001
0010
0100
0010
0100
1000
0001
,
1000
0000
0010
0100
0010
0000
0100
0001
,
1000
0100
0010
0001
1000
0000
0001
1000
,
0001
0000
0010
0100
0010
0000
0001
1000
,
0001
0100
0010
0100
0001
0010
0100
1000
,
0001
0000
1000
0010
0100
0000
0001
0010
,
0100
1000
0001
0100
0001
1000
0100
0010
,
0001
0000
0001
0100
1000
0100
0001
0100
,
1000
0000
0100
0001
0010
0001
0100
0001
,
0010
0000
1000
0010
0001
0010
1000
0010
,
0001
0000
0001
0001
1000
1000
0001
1000
,
0001
0000
1000
0100
0001
0100
1000
0100
,
0001
0000
0100
1000
0010
1000
0100
1000
,
0010
0000
0001
0010
1000
0010
0001
0010
,
1000
0000
0001
0000
1000
0000
0001
0100
,
0001
0010
0100
1000
0001
0010
0100
1000
,
0001
0100
1000
0100
0000
0001
1000
0000
,
1000
0100
0010
0001
1000
0100
0010
0001
,
2000
0000
3020
0000
0031
1000
0100
0001
,
0010
0000
0100
1000
0001
0010
0100
1000
,
0010
0100
0001
0010
0000
0100
1000
0010
,
0100
0000
0110
0000
0010
1000
0100
0010
,
0000
0001
2000
0002
0000
0000
0000
0000
,
0000
3003
0000
0000
,
0000
0000
1010
1100
,
0101
0000
0011
0000
1001
0000
0001
0100
,
0000
1000
0000
0100
0001
0000
1000
0000
,
0001
0100
0010
0100
0001
0000
0001
0010
,
0000
0010
0100
1000
0000
1000
0010
0001
,
0010
1000
0100
0010
0002
0000
0010
0013
,
0000
0100
1000
0010
0100
1000
0001
0010
,
0100
0001
0010
1000
0001
0100
0001
1000
,
0010
0001
0100
0000
0011
0000
0101
0000
,
1100
0000
1010
0000
1001
0000
1000
0100
,
0000
0001
0000
0100
1000
0000
0001
0000
,
1000
0100
0010
0100
1000
0000
1000
0010
,
0000
0010
0100
0001
0000
0001
0010
1000
,
0010
0001
0100
0010
2000
0000
0010
3010
,
0000
0100
0001
0010
0100
0001
1000
0010
,
0100
1000
0010
0001
1000
0100
1000
0001
,
0010
0000
1000
0000
0100
0000
0000
0000
0010
0000
0001
0000
1000
0100
0000
1000
,
0001
0100
0001
0010
0001
1000
0100
0010
,
1000
0000
0010
0000
0001
0000
1000
0000
0001
0000
0100
0010
0100
0000
0001
0000
,
1000
0100
0010
0100
1000
0001
0100
1000
,
0001
0000
0010
0000
1000
0000
0100
0000
0010
0000
0001
0000
1000
0100
0000
1000
,
0001
0100
0010
0100
0001
1000
0100
0010
,
0001
0000
0010
0000
1000
0000
0010
0000
0001
0000
1000
0010
0000
0100
0010
0000
,
1000
0000
0001
0010
0000
0100
0010
0000
0001
0000
0100
0000
0010
0000
1000
0000
,
0001
0000
0100
0000
1000
0000
0100
0000
0010
0000
1000
0000
0001
0100
0000
0001
,
1000
0100
1000
0010
1000
0001
0100
0010
,
0001
0000
0010
0000
1000
0000
0001
0000
1000
0000
0100
0010
0100
0000
1000
0000
,
0001
0100
0010
0100
0001
1000
0100
0001
,
1000
0000
0010
0000
0001
0000
0100
0000
0010
0000
1000
0000
0001
0100
0000
0001
,
1000
0100
0010
0100
1000
0001
0100
0010
,
1000
0000
0010
0000
0001
0000
0010
0000
1000
0000
0001
0010
0000
0100
0010
0000
,
0001
0000
1000
0010
0000
0100
0010
0000
1000
0000
0001
0000
0010
0100
0010
0000
,
1000
0000
0010
0001
0000
1000
0001
0000
0000
0000
0000
0000
0000
0000
0000
0000
;

//--------------- dance-single - ----------------
#NOTES:
     dance-single:
     :
     Hard:
     15:
     0,0,0,0,0:
0000
0000
0000
0000
,
0000
0000
0000
0000
,
0001
1000
0001
1000
,
0001
1000
0001
1000
,
0001
1000
0001
1000
,
0001
1000
0001
1000
,
0001
1000
0001
1000
,
0001
1000
0001
1000
,
0000
0000
0000
0000
,
0000
0000
0001
0100
0002
0000
0203
0000
,
0310
0000
1000
0000
0001
0010
0000
0001
0010
0000
0100
1000
0000
0000
0100
0000
,
0010
0000
0001
0000
1000
0010
0000
1000
0010
0000
0100
0001
0000
0100
0001
0000
,
1000
0000
0001
0100
0000
0001
1000
0000
0100
0000
1000
0100
0000
1000
0001
0000
,
1000
0000
0100
0000
0010
0001
0000
0001
0100
0000
0100
0010
0000
0010
1000
0000
,
0100
0000
1000
0000
0001
0100
0000
0001
0100
0000
0010
1000
0000
0000
0010
0000
,
0100
0000
0001
0000
1000
0100
0000
1000
0100
0000
0010
0001
0000
0010
0001
0000
,
1000
0000
0001
0010
0000
0001
1000
0000
0010
0000
1000
0010
0000
1000
0001
0000
,
1000
0000
0010
0000
0100
0001
0000
0001
0010
0000
0010
0100
0000
0100
1000
0000
,
0001
0000
1000
0000
0001
0100
0000
0010
0100
0000
1000
0100
0000
0001
1000
0000
,
0100
0000
0010
0000
0001
0010
0000
0100
0010
0000
1000
0010
0000
0001
1000
0000
,
0010
0000
1000
0100
1000
0000
0001
0100
0001
0000
1000
0010
0000
0100
0001
0000
,
1000
0000
0001
0000
1000
0010
0000
1000
0001
0000
0100
0010
0000
0100
0001
0000
,
1000
0000
0001
0000
1000
0100
0000
0010
0100
0000
0001
0100
0000
1000
0001
0000
,
0100
0000
0010
0000
1000
0010
0000
0100
0010
0000
0001
0010
0000
1000
0001
0000
,
0010
0000
0001
0100
0001
0000
1000
0100
1000
0000
0001
0010
0000
0100
1000
0000
,
0001
0000
1000
0000
0001
0010
0000
0001
1000
0000
0100
0010
0000
0100
1000
0000
,
1001
0001
1000
0100
0010
0100
1000
0001
,
1000
0100
1000
0000
0100
0010
0100
0000
1000
0100
1000
0000
0001
0010
0001
0000
,
1000
0001
0100
0010
1000
0100
0010
0001
,
0010
0000
0100
0000
0010
0000
0001
0000
1000
0010
1000
0000
0001
0100
0001
0100
,
0010
1000
0001
0010
0100
0010
0001
1000
,
0001
0100
0001
0000
0100
0010
0100
0000
0001
0100
0001
0000
1000
0010
1000
0000
,
0010
0100
0001
0010
1000
0001
0100
1000
,
0010
0000
0001
0000
1000
0000
0100
0000
0001
0010
0001
0000
1000
0100
1000
0100
,
0010
0001
0100
0001
0010
0001
0100
0001
,
0010
0100
1000
0100
0001
0100
1000
0100
,
0001
0100
1000
0010
0001
0010
1000
0010
,
0100
0100
0001
0001
1000
1000
0100
0010
,
0100
1000
0010
1000
0100
1000
0010
1000
,
0100
0010
0001
0010
1000
0010
0001
0010
,
1000
0010
0001
0100
1000
0100
0001
0100
,
0010
0010
1000
1000
0001
0001
0010
0001
,
1000
0100
0010
0001
1000
0100
0010
0001
,
1000
0001
0010
0100
2000
0000
0100
0000
,
3001
0100
0010
1000
0001
0100
0010
1000
,
0001
1000
0010
0100
0001
1000
0010
0100
,
0001
0010
0100
1000
0001
0010
0100
1000
,
0001
1000
0100
0010
0000
0010
0001
1000
,
0001
0000
0011
0000
1001
1000
0100
0010
,
0000
0001
2000
0002
0000
0000
0000
0000
,
0000
3003
0000
0000
,
0001
0000
1000
0000
0010
0100
0010
0000
1000
0000
0001
0000
1000
0100
1000
0000
,
0001
0000
0010
0000
0100
1000
0100
0000
1000
0000
0010
0000
0100
0001
0100
0000
,
0010
0000
1000
0000
0001
0100
0001
0100
0010
0000
1000
0000
0100
0010
0100
0000
,
1000
0000
0001
0000
0100
0010
0100
0000
0001
0000
1000
0000
0001
0010
0100
0000
,
1000
0100
0010
0000
0001
0010
0100
0000
1000
0000
0001
0000
1000
0010
1000
0000
,
0001
0000
0100
0000
0010
1000
0010
0000
0100
0000
0001
0000
1000
0100
1000
0000
,
0001
0010
0100
1000
0001
0000
1000
0000
0001
0000
0100
0000
0001
0000
0100
0000
,
0010
1000
0010
1000
0001
0010
0001
0010
,
0100
0000
1000
0000
0100
0000
1000
0000
0001
0000
1000
0000
0001
0100
0001
0000
,
1000
0000
0010
0000
0100
0001
0100
0000
0001
0000
0010
0000
0100
1000
0100
0000
,
0010
0000
0001
0000
1000
0100
1000
0100
0010
0000
0001
0000
0100
0010
0100
0000
,
0001
0000
1000
0000
0100
0010
0100
0000
1000
0000
0001
0000
1000
0010
0100
0000
,
0001
0100
0010
0000
1000
0010
0100
0000
0001
0000
1000
0000
0001
0010
0001
0000
,
1000
0000
0100
0000
0010
0001
0010
0000
0100
0000
1000
0000
0001
0100
0001
0000
,
1000
0010
0100
0001
1000
0000
0010
0000
1010
0000
1000
0000
0001
0000
0100
0000
,
1010
1000
0100
0010
0011
0001
1000
0100
,
0011
0000
0001
0000
1001
0000
1000
0000
0010
0000
0100
0000
0001
0100
0000
0001
,
1000
0000
0010
0100
0000
0000
0010
0000
0100
0000
0001
0000
1000
0100
0000
1000
,
0001
0000
0100
0001
0000
0010
0001
0000
1000
0000
0001
0010
0000
0001
1000
0000
,
0010
0000
1000
0010
0000
1000
0001
0000
1000
0000
0010
0000
0100
0001
0000
0001
,
0010
0000
0010
0100
0000
0100
1000
0000
0010
0000
1000
0000
0001
0010
0000
0001
,
1000
0000
0100
1000
0000
0000
0100
0000
0010
0000
0001
0000
1000
0010
0000
1000
,
0001
0000
0100
0001
0000
0010
0001
0000
1000
0000
0001
0100
0000
0001
1000
0000
,
0100
0000
1000
0100
0000
1000
0001
0000
1000
0000
0100
0000
0010
0001
0000
0001
,
0100
0000
0100
0010
0000
0010
1000
0000
0001
0000
1000
0000
0001
0010
0000
0100
,
0010
0000
1000
0010
0000
0001
1000
0000
0010
0000
0100
0000
0001
0100
0000
0010
,
0100
0000
1000
0100
0000
0001
1000
0000
0100
0000
0010
0001
0010
0000
0100
1000
,
0100
0000
0010
0001
0000
1000
0001
0000
1000
0000
0001
0000
1000
0100
0000
1000
,
0001
0000
0010
0100
0000
0010
0001
0000
1000
0000
0001
0000
1000
0010
0000
0100
,
0010
0000
0001
0010
0000
1000
0001
0000
0010
0000
0100
0000
1000
0100
0000
0010
,
0100
0000
0001
0100
0000
1000
0001
0000
0100
0000
0010
1000
0010
0000
0100
0001
,
0100
0000
0010
1000
0000
0001
1000
0000
0001
0000
1000
0000
0001
0100
0000
0001
,
1000
0000
0010
0100
0000
0001
1000
0000
0000
0000
0000
0000
0000
0000
0000
0000
;

//--------------- dance-single - ----------------
#NOTES:
     dance-single:
     :
     Challenge:
     18:
     0,0,0,0,0:
0000
0000
0000
0000
,
0000
0000
0000
0000
,
0100
0100
0100
0100
,
0100
0100
0100
0100
,
0100
0100
0100
0100
,
0100
0100
0100
0100
,
0100
0100
0100
0100
,
0100
0100
0100
0100
,
0000
0000
0000
0000
,
0000
0000
0001
1000
0002
0000
0203
0000
,
0310
0000
1000
0000
0001
0010
0000
0001
0010
0100
1000
0010
0100
0001
1000
0000
,
0100
0000
0010
0001
1000
0001
0000
0100
0010
0100
0001
1000
0000
0001
0010
0000
,
0100
0000
1000
0100
0010
0100
0010
0001
0100
0000
0010
1000
0000
0001
0100
0000
,
1000
0000
0100
0000
0001
0010
0000
0010
0100
0000
1000
0010
0000
0010
0100
0000
,
1001
0000
0001
0000
1000
0010
0000
1000
0010
0100
0001
0100
0001
1000
0100
0000
,
1000
0000
0001
0100
0010
1000
0000
0100
1000
0100
0010
0001
0000
1000
0010
0000
,
0100
0000
0001
0100
0010
0000
1000
0010
0100
0000
0001
0100
0010
0000
0100
0000
,
0110
0000
0010
1000
0100
0000
0010
0000
0001
0000
1000
0010
0000
0100
0010
0000
,
1001
0000
0001
0000
1000
0001
0000
0100
0001
0010
0100
0010
0000
0100
1000
0000
,
0010
0000
0100
0001
1000
0001
0000
1000
0010
1000
0010
0100
0000
0100
0001
0000
,
1000
0000
0001
0010
0100
0010
0001
0010
0100
0000
1000
0010
0000
0100
0010
0000
,
1001
0000
1000
0000
0001
0100
0000
0100
0010
0000
1000
0100
0000
0100
0010
0000
,
1001
0000
1000
0000
0001
1000
0000
0010
0100
0001
0100
0010
0000
1000
0001
0000
,
0100
0000
0010
1000
0010
0100
0000
0001
0100
0010
0100
0001
0000
0010
0100
0000
,
1000
0000
0100
0010
0001
0000
0010
0100
1000
0000
0100
0010
0001
0000
1000
0000
,
0010
0000
0100
0010
0100
0000
0001
0000
1000
0000
0100
0010
0000
0001
1000
0000
,
0001
1000
1010
0010
0100
0001
0101
0100
,
0001
0010
0100
1000
0001
0010
0100
0000
1000
0100
0010
0001
1000
0100
0010
0000
,
0001
1000
1010
0010
0100
0010
0110
0100
,
0001
0000
1000
0000
0100
0000
1000
0000
0001
0100
0001
0000
1000
0100
1000
0100
,
0010
0001
1001
1000
0100
0010
0110
0100
,
1000
0100
0010
0001
0100
0001
0010
0000
0100
1000
0010
1000
0100
0010
0001
0000
,
0010
0100
1000
0100
1000
0001
0100
0001
,
1000
0010
1000
0010
0100
0000
0001
0000
1000
0100
1000
0100
0010
0100
0010
0001
,
1000
0010
1010
0100
0001
0100
1010
0100
,
0001
0000
0100
0000
0011
0000
0100
0000
1000
0100
1000
0000
0011
0000
0001
0000
,
0010
0001
1100
0001
0010
0001
1100
0001
,
0010
0100
0010
0000
0001
1000
0001
0000
0100
0010
0100
0000
0101
0000
1100
0000
,
1001
0010
1001
0100
0010
0100
1001
0010
,
0100
0000
0001
0000
0110
0000
1000
0000
0001
1000
0001
0000
0110
0000
1000
0000
,
0001
0100
0010
0000
0010
1000
0100
0000
0100
0010
0001
0000
0001
0100
0010
0000
,
0010
1000
0100
0000
0100
0010
0001
0000
0001
1000
0010
0000
0100
0000
0001
0000
,
1000
0100
0010
0100
1000
0100
0010
0100
,
1000
0100
0001
0100
1000
0001
1000
1000
,
0001
0100
0010
0100
0001
0100
0010
0100
,
0001
0000
0100
0000
1000
0000
0100
0000
0001
1000
0001
0000
1000
0000
0001
0000
,
0100
0001
1000
0001
0100
0001
1000
1000
,
0100
1000
0001
1000
0100
1000
0001
0010
,
0100
0000
0100
1000
1001
0001
0100
0010
,
0110
0000
1001
0000
0010
0210
0000
0020
,
0000
0000
0000
0000
0000
0000
0000
0030
,
0310
0000
0100
0000
0010
0100
0010
0000
1000
0000
0001
0000
1000
0100
0000
0010
,
0001
1000
0010
0100
0001
0100
0010
0000
1001
0000
1000
0100
0010
0001
0000
1000
,
0010
0100
0001
1000
0000
0001
0010
0000
0110
0000
1000
0000
0001
0010
0000
0010
,
0100
0000
1000
0100
0000
0100
0010
0000
1001
0000
1000
0000
0001
0100
0010
1000
,
0010
0000
0100
0001
0000
1000
0010
0000
0110
0000
1000
0000
0001
0100
0000
0100
,
0010
0000
0010
1000
0100
0010
0001
0000
1001
0000
1000
0010
1000
0100
0000
0010
,
0001
0010
0100
1000
0000
0001
1000
0000
0100
0000
0010
0000
0100
0000
0010
0000
,
0001
1000
0001
1000
0001
0100
0010
1000
,
0001
0000
0100
0000
0010
0000
1000
0000
0001
0100
0001
0100
0010
1000
0010
1000
,
0100
0010
0001
1000
0100
0010
0001
0010
0100
1000
0100
1000
0001
0100
0001
0100
,
0010
1000
0001
0100
0010
1000
0001
0100
0010
1000
0100
1000
0001
1000
0010
1000
,
0001
0010
0001
1000
0001
0100
0001
0010
0100
0010
0001
1000
0100
0010
0100
1000
,
0001
0100
0010
0100
0001
1000
0010
0100
0010
1000
0100
1000
0001
1000
0100
1000
,
0001
0010
0100
0010
0001
0010
0100
0010
0001
0100
0001
1000
0001
0100
0001
1000
,
0010
0100
0010
1000
0010
0100
0010
1000
0010
0100
0001
0010
0100
1000
0010
1000
,
0100
0010
0001
1000
0010
0100
0001
0010
0001
0100
0010
1000
0001
1000
0100
0010
,
0001
1000
0010
0100
0001
0000
1000
0000
0110
0000
0001
0000
1000
0010
0000
1000
,
0010
0100
0001
0010
0100
1000
0001
0000
0100
0000
0010
1000
0001
1000
0000
0100
,
0010
0100
1000
0001
0000
1000
0010
0000
0100
0000
0001
0100
0010
0100
0010
1000
,
0100
0000
0010
0001
0000
1000
0100
0000
0001
0000
0100
0000
1000
0010
0000
0010
,
0100
0000
0001
0010
0000
0010
0100
0000
1001
0000
1000
0000
0001
0010
0000
0001
,
0010
0100
1000
0100
1000
0001
0100
0000
0001
0000
1000
0100
0010
0001
0000
0100
,
0001
0100
0010
1000
0000
0001
0010
0000
0100
0000
1000
0100
0010
0000
0001
0010
,
0100
0000
1000
0100
0010
0000
0100
0000
0110
0000
0010
0001
0100
0000
0010
0000
,
1000
0000
0001
0010
0000
0100
0010
0000
1001
0000
1000
0000
0001
1000
0000
0100
,
1000
0010
0100
0010
0000
0100
0001
0000
0010
0000
0100
1000
0001
1000
0000
0001
,
0010
0001
0010
0100
0000
0100
1000
0000
0001
0000
1000
0010
0100
0010
1000
0010
,
0100
0000
0001
0010
0000
0100
0010
0000
1001
0000
0001
0000
1000
0100
0000
0100
,
0010
0000
0001
0100
0000
0100
0010
0000
1001
0000
0001
0000
1000
0001
0000
0010
,
0100
1000
0100
0010
0000
0001
1000
0000
0100
0000
0010
0001
0010
0100
0000
1000
,
0100
0010
0100
1000
0000
0010
0100
0000
0001
0000
0100
0010
1000
0000
0010
0100
,
0001
0000
0100
0010
1000
0000
0001
0000
0010
0000
0100
0010
0100
0000
1000
0000
,
0001
0000
0100
0010
0000
1000
0001
0000
0000
0000
0000
0000
0000
0000
0000
0000
;
