#TITLE:メロウ;
#SUBTITLE:;
#ARTIST:須田景凪;
#TITLETRANSLIT:Mellow;
#SUBTITLETRANSLIT:;
#ARTISTTRANSLIT:Suda Keina;
#GENRE:Anime;
#CREDIT:;
#BANNER:Mellow.png;
#BACKGROUND:Mellow-bg.png;
#LYRICSPATH:;
#CDTITLE:;
#MUSIC:Mellow.ogg;
#OFFSET:0.822000;
#SAMPLESTART:55.247002;
#SAMPLELENGTH:13.241000;
#SELECTABLE:YES;
#BPMS:0.000000=145.000000
;
#STOPS:
;
#BGCHANGES:2.125=Mellow.avi=1.000=0=0=0=====,
99999=-nosongbg-=1.000=0=0=0 // don't automatically add -songbackground-
;
#KEYSOUNDS:;
#ATTACKS:;

//---------------dance-single - ----------------
#NOTES:
     dance-single:
     :
     Hard:
     12:
     0.556568,0.534448,0.155395,0.099897,0.177594,351.000000,337.000000,14.000000,9.000000,0.000000,0.000000,0.556568,0.534448,0.155395,0.099897,0.177594,351.000000,337.000000,14.000000,9.000000,0.000000,0.000000:
0000
0000
0000
0000
,
0000
0000
0000
0000
1100
0000
1000
0001
,
1000
0010
0100
0001
1000
0000
0001
1000
,
0001
0010
0100
1000
0001
0000
0101
0000
,
1000
1100
0002
0023
,
0230
0000
1300
0001
1000
0000
0010
0100
,
0010
0000
0100
0001
1000
0000
1100
0000
,
0001
0100
0001
1000
0001
0100
0010
0100
,
0010
0100
0010
1000
0100
0010
0001
0000
,
0001
0000
0000
0000
0001
0000
0100
0000
0010
0000
0000
1000
0100
0000
0000
0000
,
1000
0000
0000
0001
0100
0000
0000
0000
0001
0000
0000
1000
0100
0000
0010
0000
,
0002
0000
0000
0000
1003
0000
0000
0000
0010
0000
0000
0100
0001
0000
0000
0000
,
0010
0000
0000
0100
1000
0000
0000
0000
0010
0000
0000
0100
0001
0000
0010
0000
,
0100
0000
1000
0000
0001
0000
0010
0000
0100
0000
0000
0100
1000
0000
0010
0000
,
0100
0000
0001
0000
0200
0000
0000
0000
0301
0000
0000
0001
0100
0000
0010
0000
,
1000
0000
0100
0000
0020
0000
0000
0000
0031
0000
0000
1000
0100
0000
1000
0000
,
0001
0000
0000
0100
0001
0000
0010
0000
0100
0000
1000
0000
0001
0000
1000
0000
,
0001
1000
0001
1000
0010
0000
0010
0100
,
0001
0000
0010
0000
0100
1000
0001
1000
,
0000
0000
0010
0000
0100
0000
0000
0000
0001
0000
0000
1000
0100
0000
1000
0000
,
0001
0000
0000
0100
0010
0000
1000
0000
0000
0000
0001
0000
0000
0000
0010
0000
,
0100
1000
0100
0010
0001
0001
1000
1000
,
0010
0010
0100
0001
0010
0000
0100
1000
,
0000
1000
0001
0100
0000
0001
1000
0100
,
0000
0010
0001
1000
0010
0000
0110
0000
,
1000
0001
0010
0100
2000
0000
0001
0000
,
3001
0100
0010
1000
0002
0000
1000
0000
,
1003
0100
0010
0001
1000
0000
1000
0010
,
0100
0000
0100
0001
1000
0000
1000
0100
,
0010
0000
1001
0000
0001
0100
1000
0100
,
0000
0001
0010
1000
0000
0010
0001
0100
,
0000
0001
1000
0100
0000
0010
0001
1000
,
0000
0001
0010
0100
1000
0001
0010
0100
,
0000
0100
1000
0002
0000
1003
1100
0000
,
0000
0000
0000
0000
0000
0000
0000
0000
1001
0000
0000
0001
0100
0000
0000
0100
,
0010
0000
0000
0010
1000
0000
0100
0000
1000
0000
0000
1000
0010
0000
0000
0010
,
0100
0000
0000
0100
0001
0000
1000
0000
0100
0000
0000
0100
1000
0000
0001
0000
,
0100
0000
0000
0100
0001
0000
0010
0000
0100
0000
1000
0000
0001
0000
0100
0000
,
0000
0000
0100
0000
0000
0000
0010
0000
1000
0000
0000
1000
0001
0000
0100
0000
,
0001
0000
0000
0001
1000
0000
0100
0000
0000
0000
0011
0000
0000
0000
1100
0000
,
0000
0001
0100
0010
0000
0010
1000
0001
,
0000
0001
0010
0100
1000
0000
0001
1000
,
0001
0000
0010
0000
0100
0000
1000
0000
0010
0000
0000
0010
0100
0000
0000
0100
,
0001
0000
0000
0001
1000
0000
0100
0000
0010
0000
0000
0010
0100
0000
0000
0100
,
1000
0000
0000
1000
0001
0000
0100
0000
0010
0000
0000
0010
1000
0000
0001
0000
,
0010
0000
0000
0010
0100
0000
1000
0000
0001
0000
0000
0001
1000
0000
0010
0000
,
0100
0000
0001
1000
0010
0100
0000
0100
,
0001
1000
0000
1100
0000
1001
0000
0101
,
0000
0001
0100
0001
0000
1000
0100
1000
,
0000
0000
0010
0000
0100
0000
0010
0000
1000
0000
0000
0001
0100
0000
0101
0000
,
0000
0001
0010
0100
1000
0000
1000
0000
,
0001
0010
0100
1000
0001
0000
0001
0000
,
1000
0010
0100
0001
0000
0001
1000
0100
,
0000
0010
0001
1000
0100
0000
0000
0000
;

//---------------dance-single - ----------------
#NOTES:
     dance-single:
     :
     Challenge:
     15:
     0.876872,0.873125,0.199794,0.210893,0.998968,553.000000,535.000000,18.000000,19.000000,0.000000,0.000000,0.876872,0.873125,0.199794,0.210893,0.998968,553.000000,535.000000,18.000000,19.000000,0.000000,0.000000:
// measure 0
0000
0000
0000
0000
,  // measure 1
0000
0000
0000
0000
0101
0000
0001
0100
,  // measure 2
0001
0000
0000
0000
1000
0000
0100
0000
1000
0000
0000
0000
0010
0000
0100
0001
,  // measure 3
0010
0100
1000
0001
0100
0000
0010
1000
,  // measure 4
0100
0000
0010
0001
1000
0200
0320
0032
,  // measure 5
2003
0000
3002
0000
0023
0000
0230
0000
1300
0000
0000
1000
0010
0000
0100
0000
,  // measure 6
0001
0000
0000
0001
0010
0000
0100
0000
1000
0000
0010
0000
0001
0000
0000
0000
,  // measure 7
0001
0000
0010
0000
0100
0000
0001
0000
1000
0001
0100
0001
1000
0100
0010
0100
,  // measure 8
1000
0001
0100
0010
1000
0001
0010
0000
0100
2000
0010
0000
0010
0000
3010
0100
,  // measure 9
0001
0000
0000
1000
0100
0010
0001
1000
0010
0000
0000
0010
0100
0000
0001
0000
,  // measure 10
0011
0000
0000
0001
0010
0000
0100
0000
1100
0000
0000
1000
0010
0000
0100
0000
,  // measure 11
0002
0000
0000
0000
1003
0100
1000
0100
0010
0000
0000
0010
0001
0000
1000
0000
,  // measure 12
1100
0000
0000
0100
1000
0000
0001
0000
0101
0000
0000
0100
0010
0000
1000
0000
,  // measure 13
0001
0010
0100
1000
0001
0010
0100
1000
0010
0000
0010
0100
0000
0100
0001
0000
,  // measure 14
0001
0010
0100
1000
0001
0000
0100
0000
0010
0000
0010
1000
0000
1000
0100
0000
,  // measure 15
0100
0010
0001
1000
0020
0000
0000
0000
0130
0000
0000
0100
0001
0000
0010
0000
,  // measure 16
0100
1000
0010
0100
0001
0000
0001
0010
0100
1000
0100
1000
0010
0100
0010
0100
,  // measure 17
0001
1000
0001
0010
0001
1000
0001
0010
0100
0000
0100
1000
0001
0000
0010
0000
,  // measure 18
0100
1000
0000
1000
0010
0000
0100
0001
1000
0000
0001
0010
0100
0000
1000
0000
,  // measure 19
1001
0000
0001
0100
0000
0100
0010
1000
0001
0000
0010
0100
0010
0000
0001
0000
,  // measure 20
1000
0010
0000
0010
0100
0000
0001
0000
1000
0000
0001
0010
0100
0000
1000
0000
,  // measure 21
0001
0000
1000
0010
0100
0001
0010
0100
1000
0000
0001
0100
0010
0000
0010
0100
,  // measure 22
0001
0000
1000
0100
0010
0000
0010
0100
1000
0000
1000
0001
0000
0001
0100
0000
,  // measure 23
1000
0000
0100
0001
0000
0001
0010
0100
1000
0000
0001
1000
0020
0000
0230
0000
,  // measure 24
0302
0000
1003
0100
0010
0100
1000
0001
0100
0000
0100
0010
0000
0010
1000
0000
,  // measure 25
1000
0001
0000
0001
0010
0100
0010
0100
2000
0000
0000
0000
0001
0000
0000
0000
,  // measure 26
3001
0000
0001
0010
0100
0000
0100
1000
0002
0000
0000
0000
1000
0000
0000
0000
,  // measure 27
1003
0010
1000
0010
0100
0000
0010
0000
1000
0001
0010
0000
0100
0000
0010
0000
,  // measure 28
0001
1000
0010
0000
0100
0000
0001
1000
0100
0000
0100
1000
0000
1000
0001
0000
,  // measure 29
0001
0100
0000
0100
0010
1000
0100
0010
0001
0000
1000
0010
0100
0000
0110
0000
,  // measure 30
0000
0000
1000
0000
0001
0000
0011
0000
0000
0000
0010
0001
1000
0000
0010
0000
,  // measure 31
0100
0000
0001
1000
0100
1000
0010
0100
0001
0000
0010
0100
0010
0000
0001
0000
,  // measure 32
1000
0000
0010
0100
0010
1000
0001
0000
0010
0100
1000
0010
0100
0000
0101
0000
,  // measure 33
0000
0000
0000
0001
0000
0000
1000
0000
0000
0100
0000
0000
1000
0000
0100
0000
0010
0000
0002
0000
0000
0000
0000
0000
0000
0000
0000
0000
0000
0000
0103
0000
0000
0000
0000
0000
0110
0000
0000
0000
0000
0000
0000
0000
0000
0000
0000
0000
,  // measure 34
0000
0000
0000
0000
0000
0000
0000
0000
1001
0000
0001
0100
0000
0100
0010
0000
,  // measure 35
1010
0000
1000
0100
0000
0100
0010
0000
0011
0000
0001
1000
0000
1000
0100
0000
,  // measure 36
0100
1000
0001
0100
0010
0000
0100
0000
0001
0000
1000
0100
0000
0100
0001
0000
,  // measure 37
1000
0010
0000
0010
0001
0000
1000
0010
0100
0000
0100
0001
0000
0001
1000
0000
,  // measure 38
1000
0100
0010
0001
1000
0100
0010
0001
1000
0000
1000
0010
0000
0010
0100
0000
,  // measure 39
0101
0000
0001
0010
0000
0010
0100
0000
1100
0000
1000
0010
0100
0000
1000
0000
,  // measure 40
0100
0000
0001
1000
0000
1000
0100
0000
0010
0000
0010
0001
0000
0001
1000
0000
,  // measure 41
0010
0000
0010
1000
0000
1000
0100
0000
0010
0000
0001
0010
0100
0000
1000
0000
,  // measure 42
0001
0000
0000
0100
0000
0000
0010
0000
0000
0100
0000
0000
0001
0000
0000
0010
0000
0000
0100
0000
1000
0000
0001
0000
0100
0000
0000
0000
0000
0000
0010
0000
0000
0100
0000
0000
0000
0000
0000
1000
0000
0000
0100
0000
0000
0000
0000
0000
,  // measure 43
0010
0100
0000
0001
0010
0000
0100
0000
1000
0000
0001
0010
0000
0100
0010
0000
,  // measure 44
1000
0010
0000
0100
0010
0000
0001
0100
0010
0000
0010
1000
0001
0000
0001
0010
,  // measure 45
0100
0010
0001
1000
0000
1000
0010
0000
0100
0000
0010
0100
0000
0001
1000
0000
,  // measure 46
0100
0010
0000
0001
1000
0000
0010
1000
0001
0000
0001
0010
0000
0010
0100
0000
,  // measure 47
0100
1000
0001
0100
0010
0000
0100
0000
0001
0000
1000
0100
0000
0100
0010
0000
,  // measure 48
0010
0001
0100
0010
1000
0000
0002
0000
0010
0000
0013
0100
2000
0000
0001
0000
,  // measure 49
3001
0100
0010
1000
0001
0000
0010
0000
0100
1000
0100
1000
0001
0000
0101
0000
,  // measure 50
0000
1010
1000
0010
0100
0001
0010
0001
,  // measure 51
0100
0010
1000
0100
1000
0010
0001
1000
,  // measure 52
0100
0000
0001
1000
0001
0000
0010
0000
0100
0000
1000
0000
0001
0000
0100
0000
,  // measure 53
1000
0000
0000
0000
0100
0000
0000
0000
0102
0000
0000
0000
0000
0000
0000
0000
0013
0000
0000
0000
0000
0010
0000
0000
0000
0000
0100
0000
0000
0000
0000
0000
,  // measure 54
1000
0000
0000
0000
0000
0001
0000
0000
0010
0000
0000
0000
0000
0000
0000
0000
0000
0000
0000
0000
0000
0000
0000
0000
0000
0000
0000
0000
0000
0000
0000
0000
;
