#TITLE:メランコリック-wataAme remix-;
#SUBTITLE:;
#ARTIST:角巻わため;
#TITLETRANSLIT:Melancholic -wataAme remix-;
#SUBTITLETRANSLIT:;
#ARTISTTRANSLIT:Tsunomaki Watame;
#GENRE:POP;
#CREDIT:;
#MUSIC:Melancholic -wataAme remix-.ogg;
#BANNER:Melancholic -wataAme remix-.png;
#BACKGROUND:Melancholic -wataAme remix--bg.png;
#CDTITLE:;
#SAMPLESTART:77.289;
#SAMPLELENGTH:13.151;
#SELECTABLE:YES;
#OFFSET:-1.673;
#BPMS:0.000=146.000
,48.000=73.000
,50.000=146.000
;
#STOPS:116.500=0.411
,179.000=0.205
,179.500=0.205
;
#BGCHANGES:0.000=Melancholic -wataAme remix-.avi=1.000=0=0=0=StretchNoLoop====,
99999.000=-nosongbg-=1.000=0=0=0=StretchNoLoop====
;
#FGCHANGES:;

//--------------- dance-single - ----------------
#NOTES:
     dance-single:
     :
     Hard:
     12:
     0,0,0,0,0:
0000
0000
0000
0000
,
0000
0000
0000
0000
,
0000
0000
0000
0000
,
0000
0000
0000
0000
,
0000
0000
0000
0000
,
0101
0000
1010
0000
1000
0001
1000
0100
,
0000
0020
0000
0001
0031
0000
0001
0010
,
1100
0000
0011
0000
0001
0010
0001
0100
,
0000
0010
1000
0010
2000
0000
0001
3000
,
0001
0100
0001
1000
0100
1000
0010
0200
,
0000
0320
0000
1030
0001
0000
0001
0010
,
0011
1010
1100
0101
,
2002
0000
3003
1001
0001
0100
0010
0000
,
0100
0010
1000
0001
2000
0000
3200
0000
,
0320
0000
0032
0000
1003
0100
0010
0000
,
0100
0010
0001
1000
0002
0000
0203
0000
,
0320
0000
2030
0000
3001
0010
0100
0000
,
0010
0100
1000
0001
2000
0000
3020
0000
,
0230
0000
0302
0000
1003
0010
0100
0000
,
0010
0100
0001
1000
0001
0010
0001
0010
,
0100
1000
0100
1000
0001
0100
0010
1000
,
0000
1000
0010
0100
0110
0000
0100
0001
,
1000
0100
1000
0000
0010
1000
0010
0000
,
0100
0001
0100
0000
0010
1000
0100
1000
,
0010
1000
0001
0000
0010
0100
0010
0000
,
0100
0010
0100
0000
1001
0000
1000
0100
,
0010
0001
1000
0000
0001
0100
0001
0000
,
1000
0100
1000
0000
0001
0100
0010
0100
,
0001
0010
0100
0010
0001
0100
0010
1000
,
0001
1002
1003
0100
0001
0100
1000
0010
,
1000
0000
0010
0100
0010
0100
0001
1000
,
0001
0000
0011
0001
1000
0000
1010
1000
,
0001
1001
0101
1010
,
0110
0000
1001
1000
0002
0000
0023
0000
,
0230
0000
1300
0100
1000
0001
0000
0001
,
0100
1000
0100
0010
1000
0000
0001
0010
,
0100
0000
1000
0010
0100
0001
1000
0001
,
1000
0000
0001
0100
0001
0100
1000
0100
,
1000
0100
0001
0010
0001
0010
1000
0010
,
1000
0010
0002
0000
0103
0010
2000
0000
,
3100
0010
0002
0000
1003
0010
0200
0000
,
0301
0010
1000
0010
1000
0010
0001
0100
,
0001
0100
1000
0100
1000
0100
0001
1000
,
0001
1000
0011
0000
1100
0000
1010
0000
,
0101
0000
0000
0000
0000
0000
0000
0000
0000
0000
0000
0000
0000
0000
0000
0000
0000
0000
0000
0000
0000
0000
0000
0000
0000
0000
0000
0000
0000
0000
0000
0000
0000
0000
0000
0000
0000
0000
0000
0000
0000
0000
0000
0000
0000
0000
0000
0000
1000
0000
0000
0000
0000
0000
0000
0000
0000
0000
0000
0000
0000
0000
0000
0000
0000
0000
0000
0000
0000
0000
0000
0000
0001
0000
0000
0000
0000
0000
0000
0000
0000
0000
0000
0000
0000
0000
0000
0000
0000
0000
0000
0000
0000
0000
0000
0000
1000
0000
0000
0000
0000
0000
0000
0000
0000
0000
0000
0000
0000
0000
0000
0000
0000
0000
0000
0000
0000
0000
0000
0000
0001
0000
0000
0000
0000
0000
0000
0000
0000
0000
0000
0000
0000
0000
0000
0000
0000
0000
0000
0000
0000
0000
0000
0000
2002
3003
0000
0000
0000
0000
0000
0000
0000
0000
0000
0000
0000
0000
0000
0000
0000
0000
0000
0000
0000
0000
0000
0000
2002
3003
0000
0000
0000
0000
0000
0000
0000
0000
0000
0000
0000
0000
0000
0000
0000
0000
0000
0000
0000
0000
0000
0000
,
1100
0000
0011
0000
0001
0100
0010
2000
,
0000
3002
0000
0013
0200
0000
1300
0010
,
0101
0000
1010
0000
0010
1000
0100
0010
,
0000
0010
0100
1000
0020
0000
0130
0001
,
1000
0010
1000
0100
0001
0100
1000
0020
,
0000
0032
0000
0013
2000
0000
3100
0010
,
0011
1100
1010
0101
,
2001
0000
0000
0001
3001
0000
0110
0000
,
1010
0000
0101
0000
0001
0010
0100
2000
,
0000
3002
0000
0103
0020
0000
1030
0100
,
0011
0000
1100
0000
0100
1000
0010
0100
,
0000
0100
0010
2000
0000
3100
0010
0100
,
1001
0000
1001
0000
1000
0100
0001
0200
,
0000
2300
0000
3010
0002
0000
0013
0100
,
0101
1010
1100
0011
,
1002
0000
0000
1000
1003
0000
1001
0000
,
1000
0000
1000
0000
0001
0100
0000
0010
1000
0000
0000
1100
0000
0000
0010
0000
,
0001
0000
1000
0100
0000
1000
0001
0000
0100
0000
0010
0100
0020
0000
0000
0000
,
1030
0000
1000
0000
0001
0000
1000
0010
0000
0100
0000
0010
0000
1000
0000
0001
,
0000
0000
0010
0100
0000
1000
0000
0100
0010
0000
0001
1000
0000
0000
0010
0000
,
0100
0000
1000
0000
0100
0000
0001
1000
0000
0000
1000
0000
0100
0000
0001
0000
,
0100
0000
1000
0010
0000
0100
0001
0000
1000
0100
0000
0010
0001
0000
0010
0000
,
0100
0000
1000
0000
0001
0100
0000
0000
0110
0000
0000
1001
0000
0000
0110
0000
,
0001
0010
0001
0010
0100
1000
0100
1000
,
0001
0100
0010
0000
1000
0001
0100
0010
,
2000
3200
0302
0203
,
1300
0100
0010
0000
0001
1000
0100
0010
,
0002
0203
2300
3200
,
0301
0000
0000
1000
0010
0000
0100
0001
,
1000
0000
0000
0001
0010
0000
0100
1000
,
0001
0100
0001
0100
0010
1000
0010
1000
,
0001
0010
0100
1000
0100
0001
0100
2000
,
0002
0000
0000
0000
,
3003
0000
0000
0000
;

//--------------- dance-single - ----------------
#NOTES:
     dance-single:
     :
     Challenge:
     16:
     0.883299,0.983067,0.378103,0.103793,0.945257,834,783,51,14,0,0,0.883299,0.983067,0.378103,0.103793,0.945257,834,783,51,14,0,0:
0000
0000
0000
0000
,
0000
0000
0000
0000
,
0000
0000
0000
0000
,
0000
0000
0000
0000
,
0000
0000
0000
0000
,
1010
0000
0101
0000
0001
0100
1000
0100
,
0000
0110
0000
0010
1000
0000
1000
0100
,
0011
0000
1100
0000
1000
0100
0001
0100
,
0000
0010
0001
0100
0210
0000
1300
0100
,
0001
0000
0010
0100
0010
0000
0100
0000
1000
0100
0010
0100
1000
0000
0001
0000
,
1000
0000
0010
0100
0010
0000
0001
0000
1000
0100
0010
0100
0001
0000
1000
0000
,
0001
0000
1000
0100
1000
0000
0001
0010
0001
0010
0100
1000
0100
1000
0010
0100
,
0020
0000
0000
0000
0030
0000
1001
0000
1000
0010
0000
1000
0001
0000
0000
0001
,
0010
0000
0100
0000
1000
0000
0001
0000
1000
0010
1000
0010
0100
0000
0001
0010
,
0001
0010
0100
1000
0010
0000
0010
1000
0001
0010
0000
0001
1000
0000
0100
0010
,
0100
0000
1000
0000
0001
0000
0100
0000
1000
0100
1000
0100
0001
0000
1000
0000
,
0001
0010
0001
0000
1000
0100
1000
0000
0001
0100
0000
0001
1000
0000
0000
1000
,
0010
0000
0100
0000
0001
0000
1000
0000
0100
0010
1000
0010
0100
0000
0010
0100
,
0001
0100
0010
1000
0010
0000
0010
0001
1000
0010
0000
1000
0001
0000
0100
1000
,
0100
0000
0001
0000
1000
0000
0100
0000
0110
0000
0010
0001
0010
0001
1000
0010
,
1000
0010
0100
0001
0100
0001
1000
0100
1000
0000
0010
0000
0100
0000
0001
0000
,
0000
0000
0001
0000
0100
0000
0010
0000
1001
0000
1000
0010
0100
0000
0001
0000
,
1000
0100
1000
0100
0010
0000
0100
0000
1000
0001
0100
0010
1000
0000
0001
0000
,
0100
0010
0100
0010
1000
0100
0010
0100
1000
0001
0100
0010
1000
0000
0100
0000
,
0010
0001
0010
0001
1000
0000
0010
0000
0100
0000
1000
0100
0010
0000
1000
0000
,
0001
0000
0010
0000
0001
0000
0010
0000
0000
0100
0000
0000
1000
0000
0000
0000
0000
0000
0001
0000
0000
0000
0000
0000
1001
0000
0000
0000
0000
0000
0001
0000
0000
0010
0000
0000
0100
0000
0000
0000
0000
0000
1000
0000
0000
0000
0000
0000
,
0001
0100
0001
0100
0010
0000
0100
0000
0001
1000
0100
0010
0001
0000
1000
0000
,
0100
0010
0100
0010
0001
0100
0010
0100
0001
1000
0100
0010
0001
0000
0100
0000
,
0010
1000
0010
1000
0001
0000
0010
0000
0100
0000
0001
0100
0010
0000
0001
0000
,
1000
0000
0010
0000
1000
0000
0020
0000
0000
0000
0000
0000
0130
0000
0000
0000
0000
0000
1010
0000
0000
0000
0000
0000
0101
0000
0000
0000
0000
0000
0100
0000
0000
0000
0000
0000
0001
0000
0000
0010
0000
0000
0000
0000
0000
0010
0000
0000
,
1000
0000
0010
0000
0011
0000
1000
0000
0010
0000
0100
0000
1000
0100
0010
0000
,
1000
0100
0010
0000
0011
0000
0001
0100
1000
0000
0100
0000
1000
0100
0000
0100
,
0001
0000
1000
0000
1001
0000
0001
0010
0100
0000
0001
0100
0010
0000
0100
1000
,
0001
0100
0010
1000
0011
1000
0101
1000
,
0011
0000
1000
0000
0001
0100
0010
0100
0001
0000
1000
0000
0100
0010
0100
0000
,
0001
0100
1000
0010
0100
0000
1000
0100
0001
0000
0010
0100
0010
0000
1000
0010
,
0001
0000
0100
0010
0100
0000
1000
0100
0001
0010
0100
0010
0001
0100
1000
0100
,
0010
0000
0000
0000
1000
0100
0010
0001
1000
0010
0100
0001
1000
0100
0010
0001
,
1000
0010
0100
0001
1000
0100
0010
0001
1000
0010
0100
0001
1000
0100
0010
0001
,
1000
0010
0100
0001
1000
0000
0001
0000
1100
0000
1000
0000
0001
0000
1000
0000
,
0101
0001
1000
0001
1100
1000
0001
1000
,
0110
0000
1000
0000
0001
0100
0010
1000
0001
0010
0100
1000
0001
0100
0010
1000
,
0001
0010
0100
1000
0001
0100
0010
1000
0001
0010
0100
1000
0001
0100
0010
1000
,
0001
0010
0100
1000
1001
0000
0010
0000
2100
0000
3100
0000
1020
0000
1030
0000
,
0201
0000
0000
0000
0000
0000
0000
0000
0000
0000
0000
0000
0000
0000
0000
0000
0000
0000
0000
0000
0000
0000
0000
0000
0301
0000
0000
0000
0000
0000
0000
0000
0000
0000
0000
0000
0000
0000
0000
0000
0000
0000
0000
0000
0000
0000
0000
0000
0110
0000
0000
0000
0000
0000
0000
0000
0000
0000
0000
0000
0000
0000
0000
0000
0000
0000
0000
0000
0000
0000
0000
0000
0100
0000
0000
0000
0000
0000
0000
0000
0000
0000
0000
0000
0010
0000
0000
0000
0000
0000
0000
0000
0000
0000
0000
0000
0100
0000
0000
0000
0000
0000
0000
0000
0000
0000
0000
0000
0010
0000
0000
0000
0000
0000
0000
0000
0000
0000
0000
0000
0100
0000
0000
0000
0000
0000
0000
0000
0000
0000
0000
0000
0010
0000
0000
0000
0000
0000
0000
0000
0000
0000
0000
0000
2002
3003
0000
0000
0000
0000
0000
0000
0000
0000
0000
0000
0000
0000
0000
0000
0000
0000
0000
0000
0000
0000
0000
0000
2002
3003
0000
0000
0000
0000
0000
0000
0000
0000
0000
0000
0000
0000
0000
0000
0000
0000
0000
0000
0000
0000
0000
0000
,
1010
0000
0000
0000
0101
0000
0000
0000
1000
0001
0100
1000
0001
0000
0010
0000
,
0100
0001
0100
0001
1000
0000
0001
0000
1000
0100
1000
0100
0001
0100
1000
0000
,
0011
0000
0000
0000
1100
0000
0000
0000
0001
1000
0100
0001
1000
0000
0010
0000
,
0100
0000
1000
0010
0100
0010
0001
0000
0010
1000
0100
0010
1000
0010
0100
0010
,
0001
0000
0100
1000
0100
0000
0010
0000
0100
0001
0010
0100
0010
0000
0001
0000
,
1000
0000
0001
0000
0100
0010
1000
0010
0100
0010
0001
0010
0100
0001
1000
0100
,
0010
0000
0100
0010
0001
0000
1000
0010
0100
0000
0010
0100
0001
0000
1000
0001
,
1000
0000
0010
0100
0010
0100
0001
1000
0001
1000
0100
0010
0100
0000
0000
0000
,
1100
0000
1000
0000
0101
0000
0001
0000
1000
0000
0010
0100
0010
0000
1000
0000
,
0001
0100
1010
0001
0010
0001
1100
1000
,
0011
0000
0001
0000
1010
0000
1000
0000
0001
0000
0100
0010
0100
0000
0001
0000
,
1000
0000
0100
0010
0100
0000
0010
0100
0010
0000
0100
0010
0100
0000
0010
0000
,
0011
0001
1100
1000
0001
0100
0001
1010
,
0000
0102
0000
0100
0023
0000
0100
1030
,
0001
0010
1001
0100
0010
0100
1001
1000
,
0001
0000
1000
0100
1000
0100
1000
0010
1000
0010
0100
0001
0100
0001
0010
0001
,
0010
0000
0010
0000
0100
1000
0100
0010
0100
1000
0000
1010
0000
0100
0001
0000
,
0100
0000
0010
0100
0000
0010
1000
0010
0100
0010
1000
0010
0001
0000
0000
0000
,
0010
0000
0010
0000
1000
0000
1000
0100
0010
0100
0000
1000
0000
0001
0000
0100
,
0000
0000
0000
0000
0000
0000
0010
0000
1000
0000
0010
0000
1000
0000
0000
0100
0000
0000
0000
0000
0000
0010
0000
0000
0001
0000
0000
0000
0000
0000
1000
0000
0000
0001
0000
0000
0000
0000
0000
0000
0000
0000
0100
0000
0000
0000
0000
0000
,
0010
0000
1000
0000
0100
0000
0010
0001
1000
0000
0010
0000
0001
0000
0010
0000
,
0100
0000
0000
0000
0000
0000
0001
0000
1000
0000
0001
0000
1000
0000
0000
0010
0000
0000
0100
0000
0000
0000
0000
0000
0001
0000
0000
0100
0000
0000
0000
0000
0000
0100
0000
0000
0010
0000
0000
0000
0000
0000
1000
0000
0000
0000
0000
0000
,
0001
0000
0010
0000
0001
0010
0000
0000
0110
0000
0000
1001
0000
0000
0110
0000
,
1000
0000
0010
0100
0000
0100
0001
0000
0001
0010
0000
0010
0100
0000
1000
0000
,
0001
0100
0000
0001
0010
0000
0100
1000
0010
0000
0100
0000
0001
0000
1000
0000
,
0001
0100
0001
0100
0010
0000
1000
0000
0001
0010
0001
0010
0100
0000
0010
0001
,
1000
0100
0000
1000
0010
0000
0100
0001
0010
0000
0100
0000
1000
0000
0001
0000
,
0010
0000
0000
0100
0000
0000
0010
0000
0000
0001
0000
0000
0010
0000
0000
0100
0000
0000
0010
0000
0000
0000
0000
0000
0001
0000
0000
0000
0000
0000
0100
0000
0000
0010
0000
0000
0100
0000
0000
1000
0000
0000
0100
0000
0010
0000
0100
0000
,
0010
1000
0000
0001
0010
0000
0100
1000
0001
0000
0100
0000
0010
0000
1000
0000
,
0001
0010
0001
0010
0100
0010
0100
1000
0001
1000
0001
0100
0010
0000
0110
0000
,
0100
0001
0000
1000
0010
0000
0100
0001
0010
0000
0010
0000
0100
0000
1001
0000
,
0001
0000
1000
0100
0010
0100
1000
0010
0100
0010
1000
0001
0010
1000
0010
0002
,
2000
0000
0000
0000
,
3003
0000
0000
0000
;
