#TITLE:メガネを外して;
#SUBTITLE:;
#ARTIST:乃紫;
#TITLETRANSLIT:Megane wo Hazushite;
#SUBTITLETRANSLIT:;
#ARTISTTRANSLIT:noa;
#GENRE:ANIME;
#CREDIT:;
#BANNER:Megane wo Hazushite.png;
#BACKGROUND:Megane wo Hazushite-bg.png;
#LYRICSPATH:;
#CDTITLE:;
#MUSIC:Megane wo Hazushite.ogg;
#OFFSET:1.136000;
#SAMPLESTART:64.647003;
#SAMPLELENGTH:12.289000;
#LASTBEATHINT:0.319143;
#SELECTABLE:YES;
#BPMS:0.000000=166.000000
;
#STOPS:
;
#BGCHANGES:3.000=Megane wo Hazushite.avi=1.000=0=0=0=====,
99999=-nosongbg-=1.000=0=0=0 // don't automatically add -songbackground-
;
#KEYSOUNDS:;
#ATTACKS:;

//---------------dance-single - ----------------
#NOTES:
     dance-single:
     :
     Medium:
     12:
     0.654204,0.618721,0.299381,0.388087,0.000000,413.000000,386.000000,27.000000,35.000000,0.000000,0.000000,0.654204,0.618721,0.299381,0.388087,0.000000,413.000000,386.000000,27.000000,35.000000,0.000000,0.000000:
0000
0000
0000
0000
,
0000
0000
0000
0000
,
0001
0000
1000
0100
0000
0010
0000
0200
,
0000
0000
0000
0000
1300
0001
0100
0001
,
0010
0000
0100
1000
0000
1000
0010
0000
,
0200
0000
0000
0000
0301
0010
0100
1000
,
0001
0000
0100
0010
0000
1000
0001
0000
,
0020
0000
0000
0000
0130
1000
0001
0100
,
0010
0000
0010
1000
0000
1000
0002
0000
,
0000
0000
0000
0000
1003
0100
0010
0001
,
2000
0000
3010
0100
0000
1010
0000
0100
,
0001
0000
0010
0000
0200
1300
0200
0301
,
0200
0000
1300
0001
0000
0001
0010
0000
,
0011
0101
1100
1010
,
1000
0100
0010
0001
1000
0001
0010
0100
,
1000
0001
0100
0001
1000
0000
0110
0000
,
0001
0100
0001
1000
0100
1000
0001
0010
,
0100
1000
0001
0100
0010
0000
1001
0000
,
1000
0100
0001
0100
1000
0001
0010
0100
,
1000
0001
0010
1000
0010
0001
1000
0010
,
0100
0010
1000
0001
0010
0100
0010
0001
,
0011
0000
1100
0000
1001
1000
0010
0100
,
0001
1000
0100
0100
0001
1000
0100
0200
,
0001
1000
0320
1000
,
1030
0001
0100
0100
1000
0001
0100
0100
,
1000
0010
0001
1000
0100
0000
0110
0000
,
1001
0000
0011
0000
0001
0010
0100
1000
,
0002
0023
0230
2300
3002
0000
1003
0010
,
0100
0010
1000
0100
0002
0203
2300
3020
,
0032
0000
0023
0000
1030
0100
0010
0001
,
1000
0010
0000
0010
0100
0000
0001
0000
,
1000
0000
0001
0010
0100
0000
2000
0000
,
3002
0010
0103
1000
0001
0100
0010
1000
,
0100
0020
0032
0000
2003
0000
3002
0000
,
0103
0010
0100
0010
1000
0001
1000
0001
,
0110
0000
1001
0000
0110
0000
1000
0100
,
0010
0001
0010
0100
0011
0000
1100
0000
,
1001
0001
0101
1100
,
1000
0001
0100
0000
0110
0000
0010
1000
,
0001
0100
0001
1000
0010
0001
1000
0100
,
0010
1000
0001
0010
0110
0000
1001
0000
,
0011
0000
1100
0000
1000
0100
0010
0001
,
1000
0000
1000
0010
0100
0001
1000
0200
,
0000
0320
0000
0032
0000
1003
0010
0100
,
0001
1000
0100
0010
0001
0010
0200
0000
,
2300
0000
3010
0100
0001
1000
0010
0100
,
0001
0000
0001
0010
0100
1000
0001
0100
,
0010
0100
0001
1000
0100
0010
0001
1000
,
0010
0000
0010
0100
0001
0010
0100
1000
,
0001
0100
0001
1000
0100
0100
0100
0100
,
0010
0000
0100
0001
0100
0010
1000
0001
,
0100
0010
1000
0100
1000
0010
1000
0001
,
0100
0000
0100
0001
0010
0100
1000
0010
,
0100
0001
1000
0001
0100
0100
0100
0100
,
0010
0000
0100
1000
0010
0100
0001
1000
,
0001
0001
0100
0010
1000
1000
0010
0100
,
0001
0000
0001
1000
0100
0010
0100
1000
,
0001
0001
0010
0100
1000
1000
0100
0010
,
0001
0000
0001
1000
0100
0010
0001
0010
,
0100
1000
0001
0200
0000
1300
0100
0002
,
0000
0003
1000
0000
0100
0000
0002
0000
0000
0000
1003
0000
0010
0000
0001
0000
,
1000
0001
0010
0100
1000
0001
0100
0010
,
0110
0000
0000
0000
;

//---------------dance-single - ----------------
#NOTES:
     dance-single:
     :
     Hard:
     15:
     0.837951,0.893709,0.388087,0.321558,0.421351,529.000000,494.000000,35.000000,29.000000,0.000000,0.000000,0.837951,0.893709,0.388087,0.321558,0.421351,529.000000,494.000000,35.000000,29.000000,0.000000,0.000000:
0000
0000
0000
0000
,
0000
0000
0000
0000
,
1000
0000
0001
0010
0000
0100
0000
2000
,
0000
0000
0000
0000
3001
0100
0010
1000
,
0001
0000
0010
0100
0000
1000
0001
0000
,
0200
0000
0000
0000
0310
1000
0100
0010
,
0001
0000
1000
0010
0000
0100
0001
0000
,
2000
0000
0000
0000
3001
0010
0100
1000
,
0001
0000
0100
0010
0000
1000
0002
0000
,
0000
0000
0000
0000
0000
0000
0000
0000
1003
0000
0010
0100
0010
0000
1000
0000
,
0002
0000
0000
0000
1003
0000
1000
0000
0001
0100
0001
0000
0010
0000
0100
1000
,
0100
0000
1000
0001
1000
0000
0010
0100
0020
0000
1030
0000
0020
0000
0031
0000
,
0020
0000
0000
0000
1030
0000
0001
0010
0100
0000
1000
0000
0001
0000
0000
0000
,
0011
1001
1100
0110
,
0001
0100
0010
1000
0001
1000
0010
0100
,
0001
0000
0010
0000
0100
0000
1000
0000
0001
0000
0100
0010
0100
0000
0000
0000
,
0001
0100
0001
1000
0100
1000
0001
0010
,
0100
0010
0001
1000
0010
0100
1001
0000
,
0001
1000
0001
1000
0010
0100
0010
0100
,
0001
0010
0100
1000
0001
0100
0010
0100
,
0001
1000
0100
0010
0100
1000
0001
0100
,
0101
0000
0000
0000
1100
0000
0000
0000
1000
0100
1000
0000
0001
0100
0001
0000
,
1000
0200
0010
0310
0001
0200
0010
0310
,
1001
0000
0110
0000
1001
1000
0010
0100
,
0001
2000
0100
3100
0010
0002
0100
0103
,
0010
1000
0001
1000
0001
1000
0110
0000
,
0001
0000
1000
0010
0100
0000
0001
0000
1000
0000
0001
0010
0100
0000
1000
0000
,
0002
0203
2300
3200
0302
0000
0013
0100
,
1000
0010
1000
0100
0002
0203
2300
3020
,
0032
0000
0023
0000
1030
0100
0010
0001
,
1000
0100
0000
0100
1000
0000
0001
0000
,
0100
0000
0010
1000
0001
0000
2100
3000
,
0102
1003
0100
0010
0001
0100
0010
1000
,
0100
0020
0032
0000
2003
0000
3020
0000
,
0130
0010
0100
0010
1000
0001
1000
0001
,
0110
0000
1001
0000
0110
1000
0010
0100
,
0001
1000
0100
0010
1100
0000
0101
0000
,
1001
0000
0001
1000
0110
0000
0110
0000
,
1100
1000
0001
0100
0101
0001
0010
0100
,
0110
0010
0001
1000
1010
0010
1000
0001
,
1001
1000
0100
0010
0011
0001
1000
0010
,
0110
0000
1010
0000
0101
0000
1001
1000
,
0010
0000
0100
0001
0100
0000
0001
1000
0001
0000
1000
0100
1000
0000
0010
0100
,
0010
0000
0100
0001
0100
0000
0001
1000
0001
0000
0010
0001
0010
0000
0100
0000
,
1000
0100
1000
0100
0010
0000
0001
0100
0001
0100
0010
0000
1000
0001
1000
0001
,
0100
0000
0010
0100
0001
1000
0100
0010
,
0001
0000
1000
0010
0100
0000
0010
1000
0001
0000
0010
0100
1000
0000
0001
0100
,
0010
0000
1000
0100
0010
0000
0100
1000
0001
0000
0010
0100
1000
0000
0010
0100
,
0010
0000
1000
0100
0010
0000
0100
1000
0001
0000
0010
0100
1000
0000
0001
0100
,
0010
0000
0100
0001
1000
0000
0001
0010
0100
0000
0100
0000
0100
0000
0100
0000
,
0100
0000
1000
0100
0010
0000
0100
1000
0001
0000
1000
0010
0100
0000
0001
1000
,
0100
0000
0010
0001
1000
0000
0010
0100
0001
0000
1000
0100
0010
0000
0001
1000
,
0010
0000
0100
0001
1000
0000
0001
0010
0100
0000
0010
0100
1000
0000
0001
0100
,
0010
0000
0100
0001
0010
0000
0001
1000
0100
0000
0100
0000
0100
0000
0100
0000
,
0100
0000
1000
0100
0001
0000
0100
1000
0010
0000
1000
0010
0001
0000
0010
1000
,
0100
0000
1000
0100
0001
0000
0100
1000
0010
0000
0100
0001
0010
0000
0100
1000
,
0001
0000
0100
0001
0010
0000
0001
0010
1000
0000
0010
0001
0100
0000
0001
0100
,
1000
0000
0100
0001
0010
0000
0001
0010
1000
0000
0010
0000
0001
0000
1000
0100
,
0001
0000
0100
1000
0001
0000
1000
0010
0001
0000
0010
0100
0001
0000
1000
0100
,
0001
0000
0100
1000
0010
0000
0001
0010
1000
0000
0001
0000
0010
0000
0011
0000
,
1000
0001
1000
1010
0001
1000
0001
0011
,
1000
0000
0001
0100
0001
0100
0001
0100
0001
0000
1000
0000
0100
0000
0010
0000
,
0110
0000
0000
0000
;

//---------------dance-single - ----------------
#NOTES:
     dance-single:
     :
     Challenge:
     17:
     0.994770,1.134322,0.598763,0.332646,0.881512,628.000000,574.000000,54.000000,30.000000,0.000000,0.000000,0.994770,1.134322,0.598763,0.332646,0.881512,628.000000,574.000000,54.000000,30.000000,0.000000,0.000000:
// measure 0
0000
0000
0000
0000
,  // measure 1
0000
0000
0000
0000
,  // measure 2
0102
0000
0000
0000
0000
0000
0000
1003
,  // measure 3
0020
0000
0000
0130
0002
0000
0000
0000
,  // measure 4
2003
0000
0000
3200
,  // measure 5
0320
0000
0032
0003
,  // measure 6
0011
1100
0011
1100
,  // measure 7
1010
0000
0101
0000
1010
0000
0101
0100
,  // measure 8
0001
1000
0010
1000
0100
0010
0002
0000
,  // measure 9
0000
0000
0000
0000
0000
0000
0000
0000
1003
0000
0001
0010
0100
0000
0110
0000
,  // measure 10
0010
0001
1000
0000
1001
0000
0001
0100
0010
0100
0001
0000
0011
0000
0010
0100
,  // measure 11
1000
0000
0001
0010
0100
1000
0001
0100
0010
0000
0100
0010
1000
0000
0001
0010
,  // measure 12
0100
0000
1000
0000
1100
0000
0100
1000
0001
0000
0101
0000
0100
0001
1000
0001
,  // measure 13
1000
1100
0101
1001
,  // measure 14
1000
0100
0010
0001
1000
0001
0010
0100
,  // measure 15
1000
0000
0100
0000
0001
0000
0100
0000
1000
0000
0001
0100
0010
0000
0110
0000
,  // measure 16
0100
0001
1000
0010
0100
0001
0010
0100
,  // measure 17
1000
0000
0001
0000
0010
0000
0100
0000
1000
0000
0010
0100
1001
0000
0010
0000
,  // measure 18
0100
0001
0100
0001
1000
0100
1000
0100
,  // measure 19
0001
0000
0100
0000
1000
0000
0001
0000
0100
0000
0010
1000
0001
0000
0010
0000
,  // measure 20
0100
1000
0100
0010
0001
1000
0010
0100
,  // measure 21
0101
0000
0000
0000
1100
0000
0000
0000
0110
0001
1000
0000
0110
1000
0001
0000
,  // measure 22
1000
0200
0001
0301
1000
0002
0100
0103
,  // measure 23
1000
0000
0020
0000
0100
0000
0130
0000
1001
0000
1000
0010
0100
0000
0001
0000
,  // measure 24
0010
0100
0011
1000
0010
0100
1010
0001
,  // measure 25
1000
0000
0010
0000
1001
0000
0100
0000
0001
0000
1000
0001
0110
0000
1000
0000
,  // measure 26
0001
0000
0100
0010
0001
0000
1000
0000
0100
0000
0010
1000
0100
0000
0001
0000
,  // measure 27
0200
0000
2300
0000
3020
0000
0230
0000
0302
0000
1003
0100
0010
0000
0001
0000
,  // measure 28
0100
0001
1000
0100
0002
0203
2300
3020
,  // measure 29
0032
0000
1003
0100
0001
0000
1000
0000
0001
0000
1000
0100
0001
0000
0100
1000
,  // measure 30
0002
0000
0000
0013
0200
0000
1000
0000
,  // measure 31
0310
0001
1000
0010
0100
0000
0002
0000
,  // measure 32
2003
0000
0000
3001
0010
0000
0010
0100
,  // measure 33
1000
0010
0102
1000
0023
0001
0230
1000
,  // measure 34
0320
0000
0000
0000
0031
0000
1000
0000
0001
0000
0100
0000
0010
1000
0100
0000
,  // measure 35
0011
0000
0000
0000
0000
0000
1100
0000
0000
0000
0000
0000
1001
0000
0000
1000
0000
0000
0001
0010
0100
1000
0000
0000
,  // measure 36
0010
0000
0100
0000
0010
0000
1000
0000
0100
0000
0010
0000
0001
1000
0100
0000
,  // measure 37
0010
0000
0000
0100
0000
0000
1000
0000
0000
0001
0000
0000
0100
0000
0000
0010
0000
0000
1000
0010
0100
0001
0000
0000
,  // measure 38
0101
0000
0101
0000
1100
0000
1100
1000
,  // measure 39
1001
0000
1001
0000
0011
0000
0011
0010
,  // measure 40
0110
0000
1100
0000
0101
0000
1001
0010
,  // measure 41
0110
0000
1010
0000
0101
0000
1001
0001
,  // measure 42
1000
0100
0010
0001
1000
0100
0010
0001
1000
0010
0100
0001
1000
0010
0100
0001
,  // measure 43
1000
0100
0010
0001
1000
0010
0100
0001
1000
0100
0010
0001
1000
0010
0100
0001
,  // measure 44
1000
0010
1000
0100
0010
0001
0100
0001
0010
0100
1000
0001
0100
0010
1000
0100
,  // measure 45
0002
0000
0103
1000
0001
0100
0010
1000
,  // measure 46
0001
1000
0001
0010
0100
1000
0001
1000
0010
0100
0001
1000
0001
0100
0010
1000
,  // measure 47
0001
0000
0010
0100
0010
0000
0100
1000
0010
0100
0001
0100
0001
1000
0100
1000
,  // measure 48
0100
0010
0001
1000
0010
1000
0001
0010
0001
0100
0010
1000
0100
1000
0010
0100
,  // measure 49
0001
0010
0100
1000
0001
0010
0100
1000
0010
0000
0010
0000
0010
0100
0010
0000
,  // measure 50
0010
1000
0001
0100
0010
1000
0001
1000
0100
0010
0001
1000
0010
0000
1000
0001
,  // measure 51
1000
0000
0001
0010
0100
1000
0100
1000
0001
0100
0001
0100
0010
1000
0001
0010
,  // measure 52
0100
1000
0001
0100
0010
0100
0001
1000
0100
0010
0100
1000
0001
0100
0010
0100
,  // measure 53
0001
1000
0100
0010
0100
1000
0001
0010
0100
0000
0100
0000
0100
0000
0100
0000
,  // measure 54
0100
1000
0010
0100
0010
1000
0001
1000
0100
0010
0100
1000
0001
1000
0010
0001
,  // measure 55
0010
1000
0001
1000
0100
0001
0100
1000
0001
1000
0010
0100
0010
1000
0100
0010
,  // measure 56
0001
0100
0010
0100
0001
1000
0001
0010
0100
0010
0001
1000
0001
0100
1000
0100
,  // measure 57
0001
1000
0001
0010
1000
0010
0001
1000
0100
0010
0001
0000
1000
0010
0100
0010
,  // measure 58
1000
0000
0001
1000
0001
0010
1000
0001
0100
1000
0001
1000
0010
0001
1000
0100
,  // measure 59
0001
1000
0001
0010
1000
0001
0100
1000
0001
1000
0100
0010
0001
0000
0101
0000
,  // measure 60
1010
0000
1000
0100
0010
0000
1100
0000
0011
0000
0001
0100
0010
0000
0101
0000
,  // measure 61
1000
0100
0010
0001
1000
0001
0010
0100
1000
0000
0010
0000
0010
0000
0010
0000
,  // measure 62
0110
0000
0000
0000
;
