#TITLE:マリン出航!!;
#SUBTITLE:;
#ARTIST:宝鐘マリン;
#TITLETRANSLIT:Marine Set Sail!!;
#SUBTITLETRANSLIT:;
#ARTISTTRANSLIT:Houshou Marine;
#GENRE:POP;
#CREDIT:;
#MUSIC:Marine Set Sail!!.ogg;
#BANNER:Marine Set Sail!!.png;
#BACKGROUND:Marine Set Sail!!-bg.png;
#CDTITLE:;
#SAMPLESTART:58.033;
#SAMPLELENGTH:12.313;
#SELECTABLE:YES;
#OFFSET:0.400;
#BPMS:0.000=134.000
,262.000=67.000
,263.000=134.000
;
#STOPS:;
#BGCHANGES:1.000=Marine Set Sail!!.avi=1.000=0=0=0=StretchNoLoop====,
99999.000=-nosongbg-=1.000=0=0=0=StretchNoLoop====
;
#FGCHANGES:;

//--------------- dance-single - ----------------
#NOTES:
     dance-single:
     :
     Beginner:
     3:
     0,0,0,0,0:
0000
0000
0000
0000
,
0000
0000
0001
0000
,
0001
0000
1000
0000
,
1000
0000
0000
0000
,
0010
0000
0000
0000
,
0100
0000
0000
0000
,
0001
0000
0000
0000
,
1000
0000
1000
0000
,
0001
0000
1001
0000
,
1000
0000
0000
0000
,
0010
0000
0000
0000
,
0100
0000
0000
0000
,
0001
0000
0000
0000
,
1000
0000
1000
0000
,
0001
0001
0000
0000
,
0100
0000
0100
0000
,
0010
0000
0000
0000
,
1000
0000
1000
0000
,
0100
0000
0100
0000
,
0010
0000
0000
0000
,
0001
0000
0001
0000
,
1000
1000
0000
0000
,
0010
0000
0100
0000
,
0010
0000
0000
0000
,
0100
0000
0000
0000
,
0001
0000
0000
0000
,
0001
0000
0000
0000
,
1000
0000
0000
0000
,
1000
0000
0000
0000
,
0010
0000
0000
0000
,
0100
0000
0100
0000
,
0100
0000
0000
0000
,
0001
0000
1000
0000
,
0001
0000
1000
0000
,
0001
0001
0001
0000
,
1000
1000
1000
0000
,
0010
0000
0000
0000
,
0100
0000
0000
0000
,
0001
0000
0001
0000
,
1000
0000
0001
0000
,
1000
1000
1000
0000
,
0001
0001
0001
0000
,
0100
0000
0000
0000
,
0010
0000
0000
0000
,
1000
0000
0100
0000
,
0010
0000
0001
0000
,
1000
0000
0001
0000
,
1000
0000
0000
0000
,
0010
0000
0010
0000
,
0100
0000
0100
0000
,
0001
0000
0001
0000
,
1000
0000
1000
0000
,
0010
0000
0100
0000
,
0010
0000
0000
0000
,
1000
0000
0001
0000
,
1000
0000
0000
0000
,
0001
0000
0001
0000
,
1000
1000
0000
0000
,
0010
0000
0010
0000
,
0010
0000
0000
0000
,
0100
0000
0100
0000
,
0100
0000
0000
0000
,
0001
0000
0010
0000
,
0100
0000
1000
0000
,
0001
0000
0000
0000
,
1000
0000
0200
0310
,
0000
0010
0000
0001
,
0000
0001
0000
1000
,
0000
1000
0000
0010
,
0000
1001
0000
0000
;

//--------------- dance-single - ----------------
#NOTES:
     dance-single:
     :
     Easy:
     5:
     0,0,0,0,0:
0000
0000
0000
0000
,
0000
0000
0001
0010
,
0100
1000
0001
0100
,
0002
0023
0230
2300
,
3001
0000
0101
0000
,
1000
0000
1100
0000
,
1000
1001
0110
1001
,
0001
0000
1000
0000
,
0001
1000
1001
0000
,
0001
1000
0001
0100
,
0010
1000
0001
0100
,
0001
0010
0001
1000
,
0001
0100
0001
1000
,
1010
0000
1100
0000
,
0110
1001
0000
0001
,
1000
0100
1000
0001
,
0100
0001
0010
0100
,
2000
3010
0020
0130
,
0200
0301
0002
1003
,
2000
3001
0010
0100
,
2000
3200
0320
0000
,
0031
1001
0000
1000
,
0001
0001
1000
1000
,
0010
0100
0010
1000
,
0001
0010
0100
1000
,
0002
0000
2003
0000
,
3020
0000
0100
0100
,
0230
0000
0302
0000
,
2003
0001
0100
3001
,
0001
2000
0000
3100
,
0220
0330
0022
0033
,
2002
0000
0000
0003
,
3001
1000
0110
0000
,
0001
0101
1000
1100
,
0002
0013
0020
0130
,
2000
0000
3001
1001
,
0002
0000
1003
1001
,
0020
0000
0230
0000
,
1300
0010
0100
0001
,
1000
1100
0001
0101
,
2000
3010
0020
0130
,
0002
0000
1003
1001
,
2000
3200
0320
0031
,
0100
0110
0020
2030
,
3001
0011
1000
1010
,
0001
0101
1000
1100
,
2000
3002
2003
0000
,
3020
0000
0230
0000
,
0310
1001
0100
1001
,
1000
0110
0001
0110
,
1100
0000
0101
0000
,
0002
0023
0230
1300
,
0001
0001
1000
1000
,
2000
3020
0230
0302
,
1003
1000
0001
0001
,
0002
0023
0230
2300
,
3001
1010
1000
0011
,
0100
2002
0000
3003
,
0001
1000
0001
1000
,
0002
0203
0320
2030
,
3001
1000
0001
1000
,
0002
0023
0230
2300
,
3001
0100
0010
0100
,
0001
1000
1001
0010
,
0200
0000
0320
0000
,
0200
0300
0230
0320
,
1000
2030
0001
3002
,
0010
0023
0130
1100
,
0000
0101
0000
1001
,
0110
1001
0000
0000
;

//--------------- dance-single - ----------------
#NOTES:
     dance-single:
     :
     Medium:
     9:
     0,0,0,0,0:
0000
0000
0000
0000
,
0000
0000
0000
0000
0000
0000
0001
0000
0000
1000
0000
1000
,
0020
0000
0000
0130
0000
0100
0002
0000
0000
0013
0000
0010
,
0200
2300
3020
0230
,
0301
0000
0000
0100
0000
0000
0001
0000
1000
0000
0000
0000
1001
0000
0000
0000
,
1000
0000
0000
0100
0000
0000
1000
0000
0001
0000
0000
0000
0110
0000
0000
0000
,
1100
0011
1010
1100
,
1000
0001
1000
0000
0000
0000
0010
0100
0010
0000
0000
0000
,
1000
0001
1000
0001
1000
0001
1000
0000
0000
0110
0000
0000
,
0001
1000
0001
0101
,
1000
0001
1000
1100
,
0001
0100
0010
1010
,
1000
0100
0010
0011
,
0001
0101
1000
1100
,
0010
0000
0000
0110
0000
0000
1001
0000
0000
0001
0000
1000
,
0100
0000
0000
1000
0000
0001
0100
0000
0000
0010
0000
0000
,
1000
0000
0001
0010
0000
0010
0100
0000
0100
1000
0000
0000
,
0010
0101
0010
1100
,
0100
0000
0000
0011
0000
0000
0100
0000
0000
1010
0000
1000
,
0002
0013
0100
1000
,
0002
0203
0320
1030
,
0001
0000
0001
2000
0000
0000
3010
0000
0000
0100
0000
0100
,
0001
0000
0000
0001
0000
0001
0010
0000
0000
0010
0000
0010
,
0100
0000
0100
1000
0000
1000
0001
0000
0001
0100
0000
0010
,
1000
0001
1000
0001
1000
0001
1000
0000
0001
0000
0010
0000
,
0200
0010
2300
0001
,
3020
0001
0100
1000
,
2030
0100
3200
0010
,
0320
1000
0100
0031
,
0100
0000
0000
0210
0000
0000
0010
0000
0000
0301
0000
0001
,
2000
0000
0000
3010
0000
0100
0002
0000
0000
0023
0000
0000
,
0130
1000
0100
0000
1000
0001
0000
0100
0001
0100
0000
0000
,
0001
0010
0100
1000
0001
0010
0100
0000
0000
0000
0000
0000
,
1000
0011
0001
1010
,
1000
0000
1000
0000
1000
0000
0010
0000
0010
0000
0010
0000
,
0200
0000
0000
0301
0000
0001
2000
0000
0000
3100
0000
0010
,
0002
0000
0000
1003
0000
1000
0020
0000
0000
0130
0000
0000
,
0001
0000
0001
0000
0010
0000
0020
0000
0000
0130
0000
1000
,
0001
0100
0110
1001
,
0001
1100
1000
0101
,
0001
0000
0000
0000
0001
0000
0000
0000
0000
1000
0000
0000
0100
0000
0000
0000
0100
0000
0000
0000
0000
0010
0000
0000
,
0001
0000
0000
0100
0000
0100
0020
0000
0000
1030
0000
1000
,
0200
0320
0032
1003
,
0010
0000
0010
0100
0000
0000
0002
0000
0000
2003
0000
0000
,
3001
0000
0000
0000
0010
0000
0000
0000
0000
0100
0000
0000
0100
0000
0000
0000
1000
0000
0000
0000
0000
0001
0000
0000
,
0001
0000
0000
0000
0100
0000
0000
0000
0000
1000
0000
0000
1000
0000
0000
0000
0100
0000
0000
0000
0000
0001
0000
0000
,
1000
1100
0012
0000
,
2003
0000
3020
0000
,
0130
0000
0001
0010
0000
0010
0001
0000
0001
0010
0000
0000
,
0100
0000
0100
1000
0000
1000
0100
0000
0100
1000
0000
0000
,
0001
0101
1000
1100
,
0002
0023
0230
1300
,
0110
0000
1000
0001
0000
1000
0002
0000
0000
0013
0000
0100
,
0020
0230
0320
0230
,
1300
0000
0001
1000
0000
0001
1000
0000
0000
0010
0000
0100
,
0020
0230
0320
0230
,
0301
0000
1000
0200
0000
0000
1300
0000
0001
0200
0000
0000
,
0301
1000
0001
2000
0000
0000
0100
0000
0000
0001
0000
0000
,
3100
0000
0100
0010
0000
0010
0001
0000
0000
1000
0000
1000
,
0002
0100
1000
0100
,
1003
0000
1000
0010
0000
0010
0200
0000
0000
0301
0000
0001
,
2000
0100
0001
0100
,
3001
0000
0000
0010
0000
0000
0100
0000
0000
1001
0000
1000
,
0010
0000
0000
0100
0000
0000
0010
0000
0000
0000
1000
0000
0001
0000
0000
0000
0000
0000
0010
0000
0100
0000
0010
0000
,
0002
0000
2000
0003
,
3010
0100
0010
0100
0010
0100
0002
0000
0000
0023
0000
0000
,
0100
0032
1000
0203
,
0010
0000
0000
0320
0000
0000
1000
0000
0000
1030
0001
1000
,
0000
0100
0010
0100
0010
0100
0000
1000
0001
1000
0001
0010
,
0100
1000
0001
1000
0000
0000
0000
0000
0000
0000
0000
0000
;

//--------------- dance-single - ----------------
#NOTES:
     dance-single:
     :
     Hard:
     13:
     0,0,0,0,0:
0000
0000
0000
0000
,
0000
0000
0000
0000
0000
0000
1000
0000
0001
1000
0000
1000
,
0010
0000
1000
0001
0000
0001
0010
0000
0100
1000
0000
1000
,
0010
0000
0100
0001
1000
0100
0010
0100
1000
0001
0100
0010
,
2000
0000
0000
0010
0000
0000
0001
0000
3100
0000
0000
0000
0110
0000
0000
0000
,
0002
0000
0000
0000
0000
0000
0000
0000
0000
0010
0000
0000
0000
0000
0000
0000
0000
0000
1000
0000
0000
0000
0000
0000
0103
0000
0000
0000
0000
0000
0000
0000
0000
0000
0000
0000
0110
0000
0000
0000
0000
0000
0000
0000
0100
0000
0000
0000
,
0001
0000
1000
0100
0000
0000
0011
0000
0000
1100
0000
0000
,
1000
0100
1000
0000
0000
0000
0001
0100
0001
0000
0000
0000
,
1000
0100
1000
0001
0100
0001
1000
0000
0000
0010
0100
0010
,
1000
0000
0100
0010
0000
0100
1000
0000
1000
0010
0100
0001
,
1000
0000
0001
0010
0000
0100
0010
0000
0001
0010
0100
1000
,
0001
0000
0100
0010
0000
0100
0001
0000
1000
0100
0010
0001
,
1000
0000
0010
0100
0000
0001
1000
0000
0001
0010
0100
0010
,
0001
0000
0000
0000
1000
0010
0100
0000
0000
0010
0100
0001
,
1000
0000
0000
1100
0000
0000
1001
0000
0000
0101
0000
0010
,
1000
0000
0000
1100
0000
0010
0001
0000
1000
0000
1000
0000
,
0010
0100
0001
0010
1000
0001
0100
0010
1000
0010
0001
0100
,
1000
0000
0000
0000
0000
0000
0100
0000
0000
0001
0000
0000
0010
0000
0000
0000
0100
0000
0000
0000
1000
0000
0000
0000
0001
0000
0000
0000
0100
0000
0000
0000
0000
0000
0000
0000
1000
0000
0000
0000
0100
0000
0000
0000
0001
0000
0000
0000
,
0010
0000
0000
0000
0000
0000
0100
0000
0000
1000
0000
0000
0010
0000
0000
0000
0100
0000
0000
0000
0010
0000
0000
0000
0001
0000
0000
0000
1000
0000
0000
0000
0100
0000
0000
0000
0010
0000
0000
0000
0000
0000
0000
0000
1000
0000
0000
0000
,
0002
0000
0000
0013
0000
0010
0100
0000
1000
0001
0000
0100
,
0010
1000
0010
0100
0001
0010
2000
0000
0000
0000
3010
0001
,
1000
0001
0100
0020
0000
0000
0130
0000
0000
0100
0001
0010
,
0100
0000
0100
1000
0000
1000
0001
0000
0001
0100
0000
0100
,
1000
0001
0010
0100
0001
0010
0100
1000
0100
0001
1000
0010
,
0001
0001
0001
1000
1000
1000
0001
0100
0010
1000
0001
0010
,
0200
0000
0000
0000
0000
0000
0000
0000
0000
0001
0000
0000
0000
0000
0000
0000
0000
0000
0010
0000
0000
0000
0000
0000
2300
0000
0000
0000
0000
0000
0000
0000
0000
0000
0000
0000
0010
0000
0000
0000
0000
0000
0000
0000
3001
0000
0000
0000
,
0100
0010
0100
0001
1000
0001
0020
0000
0032
0000
2003
0000
,
3020
0000
0100
0000
1000
0000
0230
0000
0010
0000
0001
0000
,
0320
0000
0000
2030
0000
0000
3200
0000
0000
0310
0001
1000
,
0001
0000
0000
0110
0000
0000
1001
0000
0000
0001
0100
0010
,
2000
0000
0000
3001
0000
0001
0020
0000
0000
0130
0000
1000
,
0001
1000
0001
0000
0100
0010
0000
1000
0010
0100
0010
1000
,
0001
0010
0100
1000
0001
0010
0110
0000
1000
0000
0001
0000
,
0101
0000
0000
1010
0000
0100
0001
0000
0000
0011
0000
0000
,
1100
0000
1010
0000
1100
0000
0101
0000
0011
0000
0101
0000
,
1001
0000
0000
1000
0000
0010
0200
0000
0000
0310
0000
1000
,
0002
0000
0000
0013
0000
0100
2000
0000
0000
3010
0100
0001
,
0101
0000
1010
0000
0101
0000
1010
0000
0000
1000
0100
0001
,
0100
0010
0100
1000
0001
1000
0020
0000
0230
0000
2300
0000
,
3200
0000
0000
0301
0000
0001
0010
0000
0000
0110
0000
0000
,
0011
0000
0000
0000
1010
0000
0000
0000
0000
1100
0000
0000
1100
0000
0000
0000
0101
0000
0000
0000
0000
1001
0000
0000
,
1001
0000
0000
0110
0000
0100
0001
0000
0001
0010
0100
0010
,
0002
0000
2003
0000
3020
0000
0230
0000
1300
0100
0010
0100
,
0001
0000
0001
1000
0000
1000
0100
0010
0001
0010
0100
1000
,
0001
0000
1000
0010
1000
0010
0100
0000
0100
0001
0100
0001
,
1000
0000
1000
0100
1000
0100
0010
0000
0010
0001
0010
0001
,
1000
0000
1000
0010
0000
0010
0001
1000
0100
0001
1000
0001
,
2002
0000
0000
3000
0000
0000
0103
0000
0100
0001
0000
0000
,
0001
0100
0001
0010
0100
0010
0001
0100
0001
0010
0100
1000
,
0010
0100
0010
1000
0100
1000
0010
0100
0010
1000
0100
1000
,
0001
0010
0000
0011
0000
0001
1000
0001
1000
0002
0000
0000
,
0013
0100
1000
0001
0010
0100
1100
0000
0000
0011
0000
0000
,
1001
0000
1000
0010
0000
0100
0002
0000
0000
1003
0000
0100
,
0010
0000
0001
1000
0000
0001
1000
0010
0100
0010
0100
0010
,
1000
0000
0001
0010
0000
0100
2000
0000
0000
3001
0000
0100
,
0010
0000
1000
0001
0000
1000
0001
0010
0100
0010
0100
0010
,
0001
0000
1000
1010
0000
0000
1000
0000
0001
0011
0000
0000
,
0001
0100
0001
1000
0100
1000
0001
0010
0100
1000
0001
0010
,
0100
0000
0100
1000
0000
1000
0002
0000
0000
0103
0000
0100
,
2000
0000
3100
0020
0000
0130
0002
0000
0013
0200
0000
0310
,
0002
0000
0103
0001
0000
0001
2000
0000
0000
3010
0000
0010
,
0002
0000
0013
0200
0000
0310
2000
0000
3100
0020
0000
0130
,
2000
0000
0000
3000
0000
0000
1010
0000
0000
0000
0000
0000
0101
0000
0000
0000
0000
0000
1001
0000
0000
0000
1000
0000
,
0010
0000
0000
0110
0000
0000
0101
0000
0000
0000
0001
0000
1000
0000
0000
0000
0000
0000
0100
0000
0010
0000
0100
0000
,
0020
0000
0000
0100
0000
0000
0031
1000
0001
1000
0001
1000
,
0010
0010
0010
0100
0100
0100
1002
0000
0000
0023
0000
0000
,
0130
0000
0100
2000
0000
0000
3001
0000
0001
0200
0000
0000
,
0310
0000
0010
2000
0000
3001
0010
0000
0010
0001
1000
0001
,
0000
0100
0010
0100
0010
0100
0000
0010
1000
0100
0010
0001
,
0010
0100
1000
1001
0000
0000
0000
0000
0000
0000
0000
0000
;

//--------------- dance-single - ----------------
#NOTES:
     dance-single:
     :
     Challenge:
     17:
     0.551968,0.581659,0.013949,0,0.094153,554,552,2,0,0,0,0.551968,0.581659,0.013949,0,0.094153,554,552,2,0,0,0:
0000
0000
0000
0000
,
0000
0000
0000
0000
0000
0000
1100
0000
1000
0100
0000
1000
,
0001
0000
0001
0010
0000
0001
1000
0000
1000
0010
0000
1000
,
0001
0000
0000
1000
0100
0010
0100
1000
0100
0010
0001
0010
0100
0010
0001
1000
0100
0010
0100
1000
0100
0010
0001
1000
,
0020
0000
0000
1000
0000
0000
0100
0000
2030
0000
0000
0000
3002
0000
0000
0000
,
0023
0000
0000
0000
0000
0000
0000
0000
0000
0001
0000
0000
0000
0000
0000
0000
0000
0000
0100
0000
0000
0000
0000
0000
0032
0000
0000
0000
0000
0000
0000
0000
0000
0000
0000
0000
2003
0000
0000
0000
0000
0000
0000
0000
3010
0000
0000
0000
,
0100
0000
0000
0000
0100
0001
1000
0000
0000
0000
0000
0000
0011
0000
0000
0000
0000
0000
2010
0000
0010
0000
3010
0000
,
1000
0001
0100
0101
0000
0000
0001
0010
0100
1100
0000
0000
,
1100
1000
0001
0101
0100
0010
0110
0000
0000
1000
0100
0010
,
0001
0010
0100
0001
0100
0010
0001
0010
0100
2000
0000
3010
,
0100
1000
0100
0010
1000
0010
0100
1000
0100
0002
0000
0013
,
0100
0001
0100
1000
0010
0100
1000
0100
0001
0020
0000
0130
,
0001
0100
1000
0010
0100
1000
0100
0001
0010
0200
0000
1300
,
1010
0000
0100
0001
1000
0100
1100
0000
0010
0001
0010
0100
,
1100
0000
0001
0110
0000
0000
1001
0000
0100
0001
0000
0010
,
0100
1000
0010
0100
0000
0010
1000
0001
0010
0100
0000
0010
,
0001
0000
0100
0000
0010
0000
1000
0000
0001
0000
0100
0000
0001
0000
1000
0000
0100
0000
1000
0100
0010
0001
1000
0100
,
0010
0000
0010
1001
0000
1000
0001
0100
0010
1001
0000
0001
,
1000
0000
0000
0000
0001
0000
0110
0000
0000
0000
1000
0000
0001
0000
1000
0010
0100
0000
0001
0000
0010
0000
0010
0000
,
0110
0000
0100
1000
0010
0100
1000
0100
0001
1001
0000
0001
,
2000
0000
3100
0020
0000
0031
2000
0000
0000
3001
0100
1000
,
0001
0000
0010
0000
1000
0000
0100
0010
0001
1000
0100
0010
0002
0000
0000
0000
0000
0000
1003
0000
0010
0000
0100
0000
,
0010
0000
0010
0101
0000
0001
1000
0001
0010
1100
0000
0001
,
0010
0100
1000
0010
0100
0010
0001
1000
0100
0001
0010
0100
,
1100
1000
0100
0110
0010
0001
0101
1000
0010
0100
0001
1000
,
2100
0000
0000
0000
0000
0000
0000
0000
0000
0010
0000
0000
0000
0000
0000
0000
0000
0000
0001
0000
0000
0000
0000
0000
3200
0000
0000
0000
0000
0000
0000
0000
0000
0000
0000
0000
0310
0000
0000
0000
0000
0000
0000
0000
0001
0000
0000
0000
,
0200
0010
0310
2000
0001
3001
0020
0000
0230
0000
2300
0000
,
3002
0000
0000
0000
1000
0000
0000
0000
0000
0100
0000
0000
2003
0000
0000
0000
0010
0000
0000
0000
0001
0000
0000
0000
,
3200
0010
0310
0002
1000
1003
0020
0100
0130
0001
0010
0100
,
1000
0000
0010
0110
0000
0001
1000
0000
0000
0001
0010
0100
,
2000
0010
3010
0101
0000
0100
0002
0010
0013
1100
0000
1000
,
0100
0000
1000
0000
1100
0000
0000
0000
0001
0000
0101
0000
0000
0000
0110
0000
0010
0000
1000
0100
0010
0100
1000
0001
,
0010
0000
0100
0000
1000
0000
0001
0000
0100
0000
0010
0000
0110
0000
0100
0001
1000
0000
0100
0000
0010
0000
0001
0000
,
0012
0000
0000
0000
0013
0000
0100
0000
0010
0000
0100
1000
0020
0000
0000
0000
0130
0000
0100
0000
0001
0000
0010
0000
,
0011
0000
1010
0000
1100
0000
0110
0000
0101
0000
0011
0000
,
1002
0000
1003
0010
0000
0100
0001
0010
0100
1000
0001
0100
,
0210
0000
0301
1000
0000
1000
0010
0000
0100
0001
1000
0100
,
0110
0000
0001
1000
0010
0100
0101
0000
0001
0010
0100
1000
,
1100
0000
0100
0010
0100
0000
1000
0000
1000
0000
1000
0000
1020
0000
0100
0000
0230
0000
0001
0000
0302
0000
1000
0000
,
2003
0000
3001
0010
0000
0100
1000
0010
0001
1000
0100
0010
,
1010
0000
0000
0000
1100
0000
0000
0000
0000
0101
0000
0000
0011
0000
0000
0000
0110
0000
0000
0000
0000
1100
0000
0000
,
1001
0000
0000
0000
1000
0000
0010
0000
0000
0000
0100
0000
0001
0000
1000
0000
0100
0000
0010
0100
0010
0001
1000
0000
,
1010
0000
0100
0001
1000
0001
0020
0100
0130
1000
0001
0100
,
0010
0000
0001
0000
0010
0000
1000
0000
0100
0000
0010
0001
1000
0000
1000
0100
0010
0001
1000
0001
0010
0100
1000
0001
,
1000
0000
0000
0000
0001
0000
1000
0010
0100
0001
0100
0010
1000
0000
0000
0000
0001
0000
1000
0100
0010
0001
0010
0100
,
1000
0000
0000
0000
1000
0000
0001
0100
0010
1000
0010
0100
0001
0000
0000
0000
1000
0000
0001
0010
0100
1000
0100
0010
,
0001
0000
0000
0000
1000
0000
0010
0000
0000
0000
0010
0100
0001
0000
1000
0000
0100
0000
0110
0000
0010
0000
0001
0000
,
2002
0000
0000
0000
0000
0000
3000
0000
0000
0000
0000
0000
0103
0010
0000
0000
0010
0000
0000
0000
0100
0000
0000
0000
,
0001
0100
0001
0000
1000
0000
0100
0000
1000
0000
0001
0000
1000
0100
1000
0000
0001
0000
0100
0000
0001
0000
1000
0000
,
0001
0010
0001
0000
1000
0000
0100
0000
1000
0000
0001
0000
1000
0010
1000
0000
0001
0000
0100
0000
0010
0000
1000
0000
,
0010
0100
0010
0000
0000
0000
0110
0000
0000
0000
0010
1000
0002
0000
0010
0000
0013
0000
0000
0000
0100
0000
1000
0000
,
0001
0010
0100
1000
0001
0010
0200
0000
0010
0000
0310
0000
0110
0000
0000
0000
0000
0000
1001
0000
0000
0000
0000
0000
,
0110
0000
0100
0001
0000
0001
2000
0000
0000
3002
0000
0103
,
0001
1000
0100
0000
0010
0000
0100
1000
0001
0000
0100
0000
0001
0000
0010
0100
0010
0000
0001
0000
1000
0000
0010
0000
,
0110
0000
0010
1000
0000
1000
0002
0000
0000
2003
0000
3100
,
1000
0001
0100
0000
0010
0000
0100
0001
1000
0000
0100
0000
1000
0000
0010
0100
0010
0000
1000
0000
0001
0000
0010
0000
,
0100
0000
1000
0110
0000
0000
1001
0000
0001
0110
0000
0000
,
0001
0000
1000
0000
0001
0000
0100
0010
0100
0010
0100
0010
0100
0000
0001
0000
0010
0000
0100
0000
1000
0000
0001
0000
,
1001
0000
0001
1000
0000
1000
0010
0000
0010
0100
0000
0100
,
2000
0100
0010
0000
3100
0000
0020
1000
0001
0000
1030
0000
0002
0010
0100
0000
0013
0000
0200
1000
0001
0000
1300
0000
,
0020
0000
0130
0001
0000
0001
0010
0000
0010
0100
0000
0100
,
0002
0100
0010
0000
0103
0000
0020
0001
1000
0000
0031
0000
2000
0010
0100
0000
3010
0000
0200
0001
1000
0000
0301
0000
,
0020
0000
0000
0000
0130
0000
1000
0000
0000
0000
1000
0000
0010
0000
0000
0000
0010
0100
0001
0000
0000
0000
1000
0000
,
0011
0000
0000
0110
0000
0000
1100
0000
0000
0000
1000
0000
0110
0000
0001
0000
0010
0000
0100
0000
1000
0000
0010
0000
,
0200
0000
0000
0000
0000
0000
0010
0000
0000
0000
0000
0000
0301
1000
0001
1000
0001
1000
0010
0100
0010
0100
0010
0000
,
1000
0010
1010
0001
0100
0101
1002
0000
0000
0023
0000
0000
,
0130
1000
0001
0201
0000
0301
1000
0001
0010
0120
0000
0130
,
1000
0010
1000
2010
0000
3010
0100
0001
1000
1100
0011
1100
,
0000
0101
1010
0101
1001
1001
0000
1100
0011
1100
0110
0011
,
1001
1010
0110
1001
0000
0000
0000
0000
0000
0000
0000
0000
;
