#TITLE:まなざしは光;
#SUBTITLE:;
#ARTIST:キタニタツヤ;
#TITLETRANSLIT:Manazashi wa Hikari;
#SUBTITLETRANSLIT:;
#ARTISTTRANSLIT:Kitani Tatsuya;
#GENRE:ANIME;
#CREDIT:;
#MUSIC:Manazashi wa Hikari.ogg;
#BANNER:Manazashi wa Hikari.png;
#BACKGROUND:Manazashi wa Hikari-bg.png;
#CDTITLE:;
#SAMPLESTART:47.090;
#SAMPLELENGTH:13.544;
#SELECTABLE:YES;
#OFFSET:1.043;
#BPMS:0.000=143.976;
#STOPS:;
#LASTBEATHINT:0.053638;
#BGCHANGES:2.500=Manazashi wa Hikari.avi=1.000=0=0=0=StretchNoLoop====,
99999.000=-nosongbg-=1.000=0=0=0=StretchNoLoop====
;
#FGCHANGES:;

//--------------- dance-single - ----------------
#NOTES:
     dance-single:
     :
     Hard:
     12:
     0,0,0,0,0:
0000
0000
0000
0000
,
0000
0001
0100
0001
0100
0000
0001
0010
,
0100
0000
1000
0001
0000
0001
1000
0000
,
0000
1000
0100
1000
0100
0000
1000
0010
,
0100
0000
0100
0001
0000
0010
0000
0100
,
1000
0000
1000
0001
0000
0100
0010
0000
,
0200
0000
0000
0000
0000
0000
0000
0000
0301
0000
0000
1000
0000
0000
0001
0000
,
1000
0100
0001
0100
1000
0010
0100
0001
,
0010
2000
0000
3010
0002
0000
2003
0000
,
3001
0100
1000
0100
0001
0010
0100
1000
,
0010
0002
0000
0013
2000
0000
3002
0000
,
0023
0000
0000
0130
1000
0001
1000
0020
,
0000
0130
0000
0000
0001
0010
0100
1000
,
0000
1000
0100
0010
0001
1000
0001
0100
,
0000
0100
0010
0000
1000
0001
1000
0100
,
0000
0100
1000
0001
0100
0010
1000
0001
,
0000
1000
0100
0000
0100
1000
0001
0100
,
0000
0010
1000
0100
1000
0001
0010
0100
,
0000
0000
0100
1000
0000
0000
1000
0001
,
0000
1000
0010
0100
0001
0000
1000
0100
,
0000
1000
0001
0000
0001
0010
0100
1000
,
0001
0000
0000
1000
0010
0000
0000
0100
0001
0000
0010
0000
0100
0000
1000
0000
,
0000
0000
1000
0000
0001
0000
0100
0000
0001
1000
0001
0000
0010
0000
0100
0000
,
1000
0000
0000
0001
0010
0000
0000
0100
1000
0000
0001
0000
0100
0000
0020
0000
,
0000
1030
0001
0020
0000
0130
1000
0001
,
1000
0000
0000
0010
0100
0000
0000
0001
1000
0000
0100
0000
0010
0000
0002
0000
,
0000
0000
1003
0000
0010
0000
0000
1000
0001
0000
0020
0000
0000
0000
0130
0000
,
1000
0002
0000
0103
1000
0100
0002
0000
,
0013
0000
0000
0100
0000
0000
0010
0000
0001
0000
1000
0000
0000
0000
1000
0000
,
0010
0000
0010
1000
0000
1000
0001
0010
,
0000
0000
0010
0000
0100
0000
1000
0100
1000
0000
0001
0000
0010
0000
0100
0000
,
0000
0100
1000
0010
0000
0010
0100
0001
,
0000
0000
0001
0000
0010
0000
0100
0000
1000
0001
1000
0000
0010
0000
0100
0000
,
0001
0000
0010
0000
1000
0000
0010
0000
0001
0000
0100
0000
1000
0000
0000
0100
,
0000
0001
0010
0000
0100
1000
0010
0001
,
0010
1000
0100
0001
0100
0000
0100
1000
,
0000
1000
0001
1000
0001
0000
0110
0001
,
1000
0000
1000
0001
0000
0001
0100
0010
,
0000
0000
0010
0000
1000
0000
0001
0100
0001
0000
1000
0000
0010
0000
0100
0000
,
0000
0100
0001
0010
0000
0010
0100
1000
,
0000
0000
1000
0001
1000
0000
0010
0000
0100
0000
0000
0000
0001
0000
1000
0000
,
0001
0000
0100
0000
1000
0000
0100
0000
0001
0000
0010
0000
1000
0000
0000
0010
,
0000
0001
1000
0000
0010
0100
0001
1000
,
0100
0010
0000
0100
0000
1000
0001
0100
,
1000
0000
0000
0000
0100
0000
0001
1000
0001
0000
0000
0000
1000
0000
0100
0000
,
0010
0000
0000
0000
0011
0000
0000
0001
1000
0000
0100
0000
1000
0000
0001
0000
,
0000
0001
0100
0010
0110
0000
1001
1000
,
0010
0000
0100
0000
0001
0000
1000
0000
0100
0000
0000
1000
0001
0000
0010
0000
,
0000
0100
1000
0001
0100
0000
0100
0001
,
1000
0000
0000
1000
0001
0000
0000
0000
0010
0000
0100
0000
1000
0000
0001
0000
,
0000
0000
0001
0000
0020
0000
0000
0230
0000
0000
1300
0000
0001
0000
1000
0000
,
0001
0000
0000
0101
0000
0000
0100
0000
0001
0000
0000
1001
0000
0000
1000
0000
,
0100
0000
0000
0110
0000
0000
1000
0000
0001
0000
0000
2000
0000
0000
0002
0000
,
0000
0000
0000
3003
;

//--------------- dance-single - ----------------
#NOTES:
     dance-single:
     :
     Challenge:
     16:
     0.850713,0.900926,0.537375,0.054834,0.756712,543,494,49,5,0,0,0.850713,0.900926,0.537375,0.054834,0.756712,543,494,49,5,0,0:
0000
0000
0000
0000
,
0001
1000
0100
1000
0100
0000
1000
0001
,
0100
0000
0010
0100
0000
0100
0001
0000
,
1000
0001
0100
0001
0100
0000
0001
1000
,
0100
0000
1000
0010
0000
0100
0000
0100
,
0001
0000
0010
0100
0000
1000
0100
0010
,
0001
0000
0000
1000
0000
0000
0001
0000
0000
1000
0000
0000
0001
0000
1000
0000
0001
0000
1000
0000
0001
0000
1000
0000
0100
0000
0000
0000
0000
0000
0000
0000
0000
0010
0000
0000
0000
0000
0000
0000
0000
0000
0001
0000
0010
0000
0100
0000
,
1000
0100
0010
0000
0001
0010
0100
0000
1000
0000
0001
0100
0010
0000
1000
0010
,
0100
0000
0001
0000
0000
0000
1000
0100
0020
0000
0000
0000
0230
0000
0000
0000
,
1300
0100
0010
0000
0001
0010
0100
0000
1000
0000
0001
0100
0010
0000
1000
0010
,
0100
0000
0001
0000
0000
0000
1000
0100
0020
0000
0000
0000
0130
0000
0100
1000
,
0002
0000
0000
0000
1003
0000
1000
0010
0100
0000
0010
0100
0001
0000
0020
0000
,
0000
0000
0130
0000
0000
0000
0000
0000
1000
0100
0010
0000
0100
0000
1100
0000
,
1000
0001
0101
0100
0001
1000
0110
0001
,
0000
0001
0101
0100
0001
0100
1001
0010
,
0000
1000
1010
0010
1000
0001
1100
0010
,
0000
0010
0011
0001
1000
0001
0110
1000
,
0000
1000
1100
0100
1000
0001
1010
0100
,
0000
0001
0101
0010
0000
1000
1100
0010
,
0000
0010
0011
0001
1000
0010
1001
0100
,
0000
0000
0100
0000
1001
0000
0000
0000
0001
0010
0100
0000
1000
0001
1000
0000
,
0010
0000
0000
0100
0001
0000
0000
0010
0100
0000
1000
0001
0100
0000
0020
0000
,
1000
0000
0130
0001
0010
0000
0100
0000
0010
0001
0100
0000
0010
1000
0100
0010
,
0001
0000
0000
1000
0010
0000
0000
0100
0001
0000
0010
0100
1000
0000
0001
0000
,
1000
0000
0100
0000
0010
0000
0001
0000
0010
0000
0100
0000
1000
0000
0000
0000
0000
0000
0010
0000
0000
0000
0000
0000
0100
0000
0000
0000
0000
0000
0001
0000
0000
0000
0000
0000
1000
0000
0000
0100
0000
0000
1000
0000
0000
0000
0000
0000
,
0001
0100
0001
1000
0001
0100
0001
0010
0100
0000
0100
1000
0001
0000
0110
0000
,
1000
0000
1010
0000
0101
0000
0001
0010
0100
1000
0000
0010
0100
0001
1000
0100
,
0010
0002
0000
1003
0010
0100
0020
0000
,
1030
0000
0000
0000
0000
0000
0000
0000
0000
0001
0000
0000
0000
0000
0000
0000
0000
0000
1000
0000
0100
0000
0010
0000
0001
0000
0000
0000
0000
0000
1001
0000
0000
0000
0000
0000
0000
0000
0000
0000
0000
0000
0001
0000
0010
0000
0100
0000
,
1000
0000
0100
1000
0010
0000
0100
0000
0001
0010
0001
0010
0100
0000
0011
0000
,
0000
0000
1100
0000
0001
0000
1000
0010
0001
0000
0010
0000
0100
0000
0001
0010
,
0100
0000
1000
0000
0001
0100
0001
0100
0010
0000
1000
0000
0001
0000
1010
0000
,
0000
0000
0101
0000
0100
0000
0001
0000
1000
0100
0010
0001
0010
0100
1000
0010
,
0001
0000
1000
0100
0010
0000
1000
0001
0010
0100
1000
0100
0001
0000
0100
0000
,
1000
0000
0001
0010
0100
0000
1000
0010
0100
0000
0001
0010
0100
0000
1000
0000
,
0001
0000
0000
0100
0000
0000
0110
0000
0000
0010
0000
0000
1000
0010
0100
0001
1000
0001
1000
0000
0000
0001
0000
0000
,
1000
0000
0100
0000
0010
0000
0100
0000
1000
0000
0001
0000
0010
0000
0100
0000
0010
0000
0001
0000
1000
0000
0100
0000
0010
0000
0000
0001
0000
0000
1000
0000
0000
0000
0000
0000
0110
0000
0000
0000
0000
0000
0001
0000
0010
0000
0100
0000
,
1000
0000
0000
0000
1001
0000
1000
0000
0001
0010
0100
1000
0010
0000
0100
0001
,
1000
0000
0010
0100
0001
1000
0001
0010
1000
0000
0010
0001
1000
0010
0100
0001
,
0010
0000
0100
1000
0010
0000
0100
0001
1000
0000
0001
0100
0010
0000
0110
0000
,
0000
0000
1000
0010
0001
0000
0010
0000
0100
0000
0001
0010
1000
0000
0010
0001
,
1000
0001
0100
0010
1000
0010
0100
0001
0010
0000
0100
1000
0001
0000
0100
0000
,
0001
1000
0010
0000
0100
0000
0010
1000
0001
0000
0011
0000
1100
0000
1000
0100
,
0010
0000
1000
0010
0001
1000
0100
1000
0001
0100
1000
0100
0001
1000
0001
0010
,
1000
0000
0000
0020
0000
0000
0001
0000
0000
0000
0000
0000
0031
0000
0000
0000
0000
0000
0001
0000
0000
0010
0000
0000
0100
0000
0000
0000
0000
0000
1000
0000
0100
0000
0010
0000
0001
0000
0000
1000
0000
0000
0001
0000
0000
0000
0000
0000
,
0101
0000
0000
0000
1010
0000
0000
0000
1100
0000
0000
1100
0000
0000
1001
0000
,
0000
0011
0011
1000
0110
0001
1000
0010
,
0110
0000
0000
0000
1001
0000
0000
0000
1010
0000
0000
1010
0000
0000
1100
0000
,
0000
0000
0000
0000
0000
0000
1001
0000
0000
0000
0000
0000
0101
0000
0000
0000
0000
0000
0001
0000
0000
0010
0000
0000
0100
0000
0000
0000
0000
0000
1000
0000
0000
0000
0000
0000
0001
0000
0000
0000
0000
0000
1000
0000
0100
0000
0010
0000
,
0001
1000
0010
0100
0001
1000
0100
0010
1000
0000
1000
0010
0100
0000
0100
1000
,
0010
0100
0001
1000
0010
0001
0010
0100
0001
1000
0001
0010
0100
0000
1000
0100
,
0010
0000
0000
0001
0000
0000
1000
0000
0001
0100
0000
0001
0010
0000
0100
0000
,
1100
0000
0000
0000
0000
0000
0000
0000
0000
1100
0000
0000
0000
0000
0000
0000
0000
0000
0001
0000
0000
0000
0000
0000
1000
0000
0000
0000
0000
0000
0000
0000
0000
0010
0000
0000
0000
0000
0000
0000
0000
0000
1000
0000
0100
0000
0010
0000
,
0002
0000
0000
0000
,
0003
0000
0000
0000
;
