#TITLE:Make debut!;
#SUBTITLE:;
#ARTIST:スピカ;
#TITLETRANSLIT:Make debut!;
#SUBTITLETRANSLIT:;
#ARTISTTRANSLIT:Spica;
#GENRE:ANIME;
#CREDIT:;
#MUSIC:Make debut!.ogg;
#BANNER:Make debut!.png;
#BACKGROUND:Make debut!-bg.png;
#CDTITLE:;
#SAMPLESTART:69.290;
#SAMPLELENGTH:21.343;
#SELECTABLE:YES;
#OFFSET:-0.651;
#BPMS:0.000=180.037;
#STOPS:;
#DISPLAYBPM:180.000;
#BGCHANGES:;
#FGCHANGES:;

//--------------- dance-single - ----------------
#NOTES:
     dance-single:
     :
     Hard:
     14:
     0,0,0,0,0:
0000
0000
0000
0000
,
0000
0000
0000
0000
,
0000
0000
0000
0000
,
0000
0000
0000
0000
,
0000
0000
0000
0000
,
0000
0000
0000
0000
,
0000
0000
0000
0000
,
0000
0000
0000
0000
0001
0100
0001
0100
,
0000
0000
0000
0001
0000
1000
0000
0001
,
0000
0000
0000
0000
1000
0100
1000
0100
,
0000
0000
1000
0001
0000
1000
0000
0001
,
0000
0000
0000
0001
0010
0100
1000
0100
,
0010
0000
0001
1000
0000
0000
0000
0001
,
0010
0100
1000
0010
,
0100
0000
0001
1000
0000
0000
0000
0000
,
0000
0000
0000
0000
,
0001
0000
0010
0000
0100
0000
0010
0100
,
0000
0000
1000
0100
0000
0100
0000
0100
,
1000
0000
1000
0000
0001
0010
0100
1000
,
0000
0010
0000
0010
0000
0010
1000
0000
,
0001
0010
0001
0100
0010
1000
0010
0100
,
0001
1000
0100
0010
0001
1000
0100
0001
,
0100
1000
0001
0010
0000
0001
0100
1000
,
0100
0001
1000
0010
0000
0000
1001
0000
,
0100
1000
0001
0100
0001
1000
0100
0010
,
0001
0010
0100
1000
0001
0010
0100
1000
,
0001
1000
0010
0001
0010
0100
1000
0100
,
0001
1000
0100
0010
0001
1000
0100
0010
,
0001
1000
0010
0100
1000
0100
0010
0001
,
0010
1000
0001
0010
0001
1000
0100
0010
,
0001
0100
0010
0100
0001
1000
0100
0010
,
0100
1000
1000
0010
0100
0100
0001
0000
,
0010
0001
1000
0001
0100
0010
1000
0001
,
0100
0010
0100
0010
0100
0010
0100
0010
,
1000
0010
0100
0001
1000
0010
0100
0001
,
0100
0001
0010
1000
0010
0001
0100
0001
,
0010
0100
1000
0100
1000
0100
0010
0001
,
0100
0010
0100
0001
1000
0100
0010
0001
,
0010
1100
0010
0001
0100
0001
1000
0001
,
1000
0100
1000
0010
0100
0001
1000
0010
,
1000
0010
0100
0001
1000
1000
1000
0001
,
0000
0100
0100
0100
0000
1000
0010
0000
,
0001
0010
0100
1000
0010
0100
0001
1000
,
0001
0010
0100
1000
0010
1000
0001
0100
,
0100
0100
0100
0100
0100
0100
0100
0100
,
0001
0100
0010
1000
0010
0100
0001
0010
,
0001
1000
0010
0100
0001
1000
0010
0100
,
0001
0010
0100
1000
0001
0010
0100
1000
,
0001
0001
0010
0010
0100
0100
1000
1000
,
0010
0010
0100
0100
0001
0001
0100
1000
,
0100
0001
0000
0100
1000
0000
0100
0001
,
0000
0100
1000
0000
0001
1000
0001
1010
,
0010
1000
0010
0100
0001
0100
0001
1000
,
0001
0100
0001
0000
1000
0100
1000
0000
0001
0100
0001
0000
0010
0000
0110
0000
,
0100
1000
0001
0100
0001
1000
0100
1000
,
0010
0100
0010
0000
1000
0001
1000
0000
0100
0010
0100
0000
1000
0000
0001
0000
,
1000
0100
1000
0010
0001
0010
0001
1000
,
0100
0001
0100
1000
0100
0001
0010
0100
,
1000
1000
0001
0001
1000
1000
0001
0001
,
0010
0000
0100
0000
1000
0000
0001
0000
0010
0100
0010
0100
1000
0000
0001
0000
,
0100
0010
0100
0001
1000
0100
0010
0100
,
1000
0100
0010
0000
0001
0010
0100
0000
1000
0100
0010
0000
0001
0000
0100
0000
,
0010
0000
1000
0000
0010
0100
0001
0000
1000
0000
0100
0000
0010
0100
0010
0000
,
0001
0000
0100
0000
0001
0000
0010
0000
0001
0000
1000
0100
1000
0000
0100
1000
,
0100
0000
1000
0100
1000
0000
0100
1000
0100
0000
1000
0100
1000
0000
0001
0100
,
0001
0000
0100
0001
0100
0000
0001
0100
0001
0000
0100
0001
0100
0000
0001
0000
,
0100
0010
1000
0001
0010
0100
1000
0100
,
0010
0001
0100
0010
1000
1000
0001
0001
,
0010
0000
0100
1000
0100
0000
0010
0100
0010
0000
0001
0010
0001
0000
0100
0001
,
0100
0000
0010
0100
0010
0000
1000
0010
1000
0000
0100
0010
0100
0000
1000
0001
,
1000
0100
0100
0100
0100
0100
0100
0100
,
0200
0000
0010
0000
0010
0000
0310
1000
,
0001
1000
0100
0010
0001
0100
0001
1000
,
0100
0010
0100
0010
0001
1000
0001
1000
,
0100
1000
0010
0100
0010
1000
0010
1000
,
0001
0010
0001
0100
0010
1000
0110
0100
,
1001
0010
0001
0010
0100
0010
0100
1000
,
0100
1000
0010
0100
0001
1000
0001
0100
,
0001
0100
0010
0100
0010
1000
0010
0100
,
0001
0100
0010
1000
0001
1000
0010
1000
,
0100
0010
0001
0010
0001
1000
0100
1000
,
0001
0100
0001
1000
0100
1000
0010
0100
,
0001
0100
0001
1000
0010
0100
0010
0100
,
0001
0100
0001
0010
0001
0010
0100
1000
,
0001
0000
1000
0100
1000
0000
0001
0100
0001
0000
1000
0100
1000
0000
0001
0010
,
0001
0000
1000
0010
1000
0000
0001
0010
0001
0000
1000
0010
1000
0000
0100
0010
,
0100
1000
0001
1000
0001
1000
0100
0010
,
0001
0000
0000
0010
0100
0010
0000
0000
,
0020
0000
0000
0000
0000
0000
0030
1001
;

//--------------- dance-single - ----------------
#NOTES:
     dance-single:
     :
     Challenge:
     17:
     0,0,0,0,0:
0000
0000
0000
0000
,
0000
0000
0000
0000
,
0000
0000
0000
0000
,
0000
0000
0000
0000
,
0000
0000
0000
0000
,
0000
0000
0000
0000
,
0000
0000
0000
0000
,
0000
0000
0000
0000
1000
0100
0010
0002
,
0000
0000
0000
2003
0000
3002
0000
2003
,
0000
0000
0000
0000
3001
0100
0010
2000
,
0000
0000
0001
3002
0000
0023
0000
0230
,
0000
0000
0000
1300
0100
1000
0100
0010
,
0001
0000
0001
0200
0000
0000
0000
0301
,
0002
0203
0320
2030
,
3200
0000
0010
0320
0000
0000
0000
0000
,
0000
0000
0000
0030
,
1001
0000
1001
0000
0110
0000
0001
2000
,
0000
0000
0100
3200
0000
0320
0000
0001
,
0031
0000
0000
0000
0101
0000
0000
0000
0000
0000
0001
0000
0100
0000
0010
1000
,
0010
0000
0100
0001
0000
0001
0010
0100
,
0010
0001
0010
0001
1000
0100
1000
0100
,
0010
0100
0010
0001
0100
0010
1000
0001
,
0100
0001
0001
0100
1000
1000
0100
0001
,
0010
0001
0001
0010
1000
1000
0001
0100
,
1000
0000
0001
0100
0001
0000
0100
0001
0100
0000
0010
1000
0010
0000
1000
0010
,
1000
0000
0001
0010
0001
0000
0010
0001
0010
0000
0100
1000
0100
0000
1000
0100
,
1000
0000
0001
0100
0001
0000
1000
0100
1000
0000
0001
0100
0001
0000
1000
0010
,
1000
0000
0001
0010
0001
0000
1000
0010
1000
0000
0001
0010
0001
0000
1000
0100
,
1000
0000
0100
0010
0100
0000
0010
0001
0010
0000
0001
0100
0001
0000
1000
0010
,
1000
0000
0010
0100
0010
0000
0100
0001
0100
0000
0010
1000
0010
0000
1000
0010
,
0100
0000
0010
1000
0001
0000
0100
0010
1000
0000
0100
0010
0001
0000
0010
0000
,
0001
0001
0010
0100
0100
0010
1001
0000
,
1001
0001
0100
0010
1001
1000
0010
0100
,
0001
0100
0010
0100
0010
0100
0010
0100
,
0010
1000
0100
0010
0011
0001
0010
0100
,
1100
0100
0101
0100
1100
0100
0101
0100
,
1100
1000
0100
0010
0001
1000
0001
0010
,
0100
0000
0100
0000
0100
0000
0110
0000
0000
0000
1000
0000
0001
0000
0001
0010
,
0100
1000
0010
0100
0001
1000
0100
0010
,
0001
1000
0001
1000
0010
0100
0010
0100
,
0001
0100
0010
1000
0010
0010
0010
1001
,
0000
0000
1000
0010
0100
0000
0101
0000
0000
0000
0100
0000
0001
0100
0001
0100
,
0001
0000
0010
0000
0100
1000
0100
1000
0100
0000
0010
0000
0001
0100
0010
0100
,
0001
0000
1000
0000
0100
0010
0001
0010
0100
0000
1000
0000
0001
0000
0100
0010
,
0100
0010
0100
0010
0100
0010
0100
0010
0100
0010
0100
0010
0100
0010
0100
0010
,
1000
0000
0011
0000
0010
0001
0100
0000
0010
1000
0100
0000
1000
0010
0100
0000
,
1010
0000
1000
0010
0100
0000
0101
0000
0001
0010
0001
0000
1000
0100
1000
0000
,
1100
0000
1000
0100
1000
0000
0011
0000
0001
0010
0100
0000
0100
0010
0001
0000
,
0001
0101
0100
1100
1000
1010
0010
0011
,
0001
1001
1000
1001
0001
1001
1000
1001
,
0101
0101
0000
1100
1100
0000
0101
0101
,
0000
0000
1001
0000
1001
0000
0000
0000
1000
0100
1000
0100
1000
0100
0020
0000
,
0000
0000
0031
0000
1000
0000
0100
1000
0010
0000
0100
0001
0010
0000
0100
1000
,
0010
0000
1000
0000
0100
0000
0001
0000
0100
1000
0001
1000
0100
1000
0010
0000
,
0100
0000
0010
1000
0100
0000
0010
0001
0100
0000
0010
1000
0100
0000
0010
0001
,
0100
0010
0100
1000
0200
0302
0023
0230
,
1300
0100
0010
0001
1000
0000
0001
0100
0010
1000
0001
0000
1000
0010
0100
0000
,
0010
1000
0001
1000
0010
0000
0100
0001
1000
0001
0100
0000
0001
0000
0010
0000
,
0100
1000
0100
0000
0010
0100
0010
0000
0001
0100
0001
0000
0100
0010
0100
0000
,
1000
0100
0001
0000
0100
0001
0010
0000
0001
0010
0100
1000
0001
0010
0100
0000
,
0000
1000
0100
0010
0001
0010
0100
1000
,
0100
1000
0001
0000
0100
0001
0010
0000
0100
1000
0100
0010
0100
1000
0001
0000
,
0000
0001
0010
0100
0000
0100
1000
0010
,
0000
0000
1000
0000
0010
0000
0100
0000
0001
0000
1000
0000
0001
0100
0001
0100
,
0010
1000
0010
1000
0001
0010
0001
0010
0100
1000
0100
1000
0001
0010
0100
1000
,
0001
0010
0100
1000
0001
0100
0010
1000
0001
0100
0010
1000
0001
0100
0010
1000
,
0100
0010
0100
1000
0001
0010
0100
0010
0001
0100
0001
1000
0100
0010
0001
0010
,
0100
0000
1000
0000
0100
0000
1000
0000
0001
0000
0010
0000
0001
0000
1000
0010
,
0100
0000
0001
0100
0010
0000
1000
0100
0010
0000
0001
0010
0100
0000
1000
0100
,
1000
0000
0001
0100
0001
0000
1000
0100
0001
0000
0001
0100
1000
0000
0010
0000
,
0100
0000
0000
0000
,
0110
0000
0000
0000
0000
0000
0000
0000
0001
0100
0010
1000
0010
0100
0001
0100
,
0010
0000
1000
0000
0100
0000
0010
0000
0001
0000
0010
0000
0100
1000
0002
0000
,
0000
0000
0100
0000
0103
0000
0010
0000
1000
0000
0100
0000
0010
0000
0010
0001
,
0100
0000
0100
0001
0010
0000
0001
0000
0100
0000
1000
0000
0100
0001
0020
0000
,
0000
0000
0130
0000
0100
0000
2000
0000
0000
0000
3010
0000
0010
0000
0010
1000
,
0200
0000
0000
0000
0301
0000
0100
0000
1000
0000
0010
0100
0001
0010
0200
0000
,
0000
0000
0310
0000
0001
0000
1000
0000
0010
0000
0100
0001
1000
0000
0001
1000
,
0200
0000
0000
0000
1300
0000
0010
0000
1000
0000
0010
0000
0100
0001
2000
0000
,
0000
0000
3100
0000
0010
0001
2000
0000
0000
0000
3001
0000
0010
0000
0100
0000
,
1000
0000
0001
0010
0100
0000
1000
0000
0001
0010
0100
1000
0001
0000
0101
0000
,
0000
0000
0001
0000
0100
0000
0010
1000
0010
0000
0100
0000
1000
0000
0100
0000
,
0001
0100
0001
0000
0010
0000
0100
0000
1000
0000
0100
0010
0001
1000
0100
0000
,
0001
0000
0100
1000
0010
0000
0001
0000
0010
0000
1000
0000
0010
0000
0100
0000
,
0001
0100
0010
1000
0001
0010
0100
0010
0001
1000
0001
1000
0100
1000
0010
0100
,
0001
1000
0001
0010
0100
1000
0100
0010
0001
0100
0001
0010
0100
0010
0001
0000
,
0011
1100
1001
1100
1010
0101
1001
0101
,
0220
0000
0000
0000
,
0000
0000
0000
0000
0000
0000
0330
1001
;
