#TITLE:めいど・うぃず・どらごんず;
#SUBTITLE:;
#ARTIST:スーパーちょろゴンず;
#TITLETRANSLIT:Maid with Dragons;
#SUBTITLETRANSLIT:;
#ARTISTTRANSLIT:Super Chorogons;
#GENRE:ANIME;
#CREDIT:;
#MUSIC:Maid with Dragons.ogg;
#BANNER:Maid with Dragons.png;
#BACKGROUND:Maid with Dragons-bg.png;
#CDTITLE:;
#SAMPLESTART:55.899;
#SAMPLELENGTH:13.714;
#SELECTABLE:YES;
#OFFSET:0.672;
#BPMS:0.000=140.000;
#STOPS:;
#BGCHANGES:2.000=Maid with Dragons.avi=1.000=0=0=0=StretchNoLoop====,
99999.000=-nosongbg-=1.000=0=0=0=StretchNoLoop====
;
#FGCHANGES:;

//--------------- dance-single - ----------------
#NOTES:
     dance-single:
     :
     Hard:
     13:
     0,0,0,0,0:
0000
0000
0000
0000
,
1000
0000
0001
0000
0101
0000
0000
0000
0100
0002
0000
1000
0000
0000
0013
0000
,
0001
0000
1000
0000
1100
0000
0000
0000
0100
2000
0000
0001
0000
0000
3010
0000
,
0100
0000
0001
0000
1000
0000
0100
0000
0001
0200
0000
0010
0000
0000
1300
0000
,
0010
0000
0100
0000
0001
0000
0100
0000
1000
0200
0000
0001
0000
0000
0310
0000
,
0020
0000
0000
0000
0100
0000
1000
0000
2030
0000
0000
0100
0000
0000
3001
0000
,
0012
0000
1000
0100
0103
0000
0101
0000
,
0210
0000
0000
0000
0001
0000
0010
0000
2300
0000
0000
0100
0000
0000
3100
0000
,
1200
0000
0302
0000
2000
3003
1001
0001
,
0010
0000
0100
1000
0100
0000
1000
0010
0100
0010
0000
1000
0001
0000
0011
0000
,
0100
0000
2000
0000
3020
0000
0230
0000
0301
1000
0001
0000
0010
0100
0010
0000
,
0001
1000
1010
0000
1000
0001
0011
0000
,
0110
0000
0000
1100
0000
0000
1001
0000
1000
0010
0000
0100
0000
0000
0001
0000
,
1001
0000
0000
0000
0000
0000
0000
0000
0000
0000
0000
0000
0000
0000
0000
0000
0011
0000
0000
0000
0000
0000
1100
0000
0000
0000
0000
1001
0000
0000
0000
0000
,
0000
0000
0000
0000
0000
1001
0000
0000
,
1000
0100
0010
0001
0100
0010
1000
0001
,
0010
0100
0010
0100
1000
0001
1000
0010
,
0110
0000
0000
0000
0000
0000
0000
0000
1010
0000
0000
0101
0000
0000
1001
0000
,
0000
0001
1000
0010
0000
0110
0110
0000
,
0001
0100
0010
1000
0100
0010
0100
1000
,
0001
0010
0001
0010
0100
1000
0100
0010
,
0012
0000
0000
0010
0000
0000
2003
0000
0000
0000
3010
0000
0100
0000
0010
0000
,
2010
0000
0000
0010
0000
0000
3002
0000
0000
0000
0013
0000
0100
0000
0010
0000
,
2100
0000
0000
3002
0000
0000
0103
0000
0120
0000
0000
2030
0000
0000
3100
0000
,
0120
0000
0031
0000
1001
0000
1100
0100
,
0010
0010
0001
0100
0110
0010
1010
0000
,
0101
0100
0010
1000
1010
0010
0110
0100
,
1001
0000
0000
0001
0000
0000
0010
0000
1100
0000
0000
0100
0000
0000
0010
0000
,
0011
0001
1000
0010
0100
0001
1000
0100
,
1000
0000
0001
0000
0010
0000
1000
0000
0010
0000
0100
1000
0000
0100
0010
0000
,
0001
0000
1000
0000
0010
0000
0100
0000
0010
0000
1000
0001
0010
0001
0010
0100
,
1000
0000
0000
0010
0000
0000
0100
0000
0101
0000
0000
0001
0000
0000
0010
0000
,
0100
1000
0100
1000
0001
0000
0000
0000
0101
0000
0000
0000
1100
0000
0000
0000
,
1010
0000
0000
0010
0100
0000
0000
0100
0001
0000
0010
0000
0100
0000
1000
0000
,
0100
0010
0001
1000
0000
0010
1000
0100
,
0010
0000
0001
0100
0001
0000
1000
0010
1000
0000
0001
0100
0001
0000
0000
1000
,
0020
0000
0100
0130
0000
0100
0001
2000
,
0000
3001
0010
0100
2000
0001
3001
0101
,
0000
1000
0010
0100
0002
1000
1003
0001
,
0101
0000
0001
1000
1100
0000
1000
0001
,
0100
0000
0010
0000
0100
0000
0001
0000
1000
0000
0100
0010
0100
0010
0100
0010
,
0001
0000
0000
1000
0100
0000
0000
1000
0001
0000
0100
0000
0010
0000
0100
0000
,
0001
0000
1000
0000
0001
0000
0011
0000
0000
0000
0010
0000
0100
0000
1000
0100
,
1000
0000
0001
0010
0001
0000
1000
0100
1000
0000
0001
0010
0001
0000
0000
1000
,
0200
0000
0010
0310
0000
0001
0100
0020
,
0000
1030
0010
0100
0002
1000
1003
0200
,
0000
0310
0001
2000
0000
3001
0100
0010
,
1000
0000
0000
1010
0000
0000
0100
0000
0001
0000
0000
0011
0000
0000
1100
0000
,
0000
0002
0023
0230
,
1300
0000
0001
0000
0010
0000
0100
0000
1000
0020
0000
0100
0000
0000
0031
0000
,
0010
0000
0100
0000
0010
0000
1000
0000
0001
0020
0000
0100
0000
0000
1030
0000
,
0010
0001
0010
0001
2000
0000
0000
0000
0000
0000
0000
0000
0000
0000
0000
0000
,
0000
3020
0000
0000
0030
0000
0000
0000
0000
0000
0000
0000
0000
0000
0000
0000
;

//--------------- dance-single - ----------------
#NOTES:
     dance-single:
     :
     Challenge:
     16:
     0.638696,0.483281,0,0,0,403,403,0,0,0,0,0.638696,0.483281,0,0,0,403,403,0,0,0,0:
0000
0000
0000
0000
,
0010
0000
0110
0000
1001
0000
0000
0000
1000
0200
0000
0001
0000
0000
1300
0000
,
0010
0000
0110
0000
1001
0000
0000
0000
0001
0200
0000
1000
0000
0000
0301
0010
,
0100
0000
0010
0000
0001
0000
1000
0000
0001
0100
0000
0110
0000
0100
0001
0000
,
1000
0100
1000
0001
1000
0001
0100
0001
1000
0010
1000
0001
0100
0001
1000
0100
,
0020
0000
0000
0000
0031
0000
1000
0000
0010
0000
0000
0100
0001
0000
0101
0000
,
2100
0000
0000
0000
3002
0000
0100
0000
0103
0000
0010
1000
0010
0000
0010
0100
,
0020
0000
0000
0000
0130
0000
0001
0000
1000
0000
0000
0100
0010
0000
0001
0000
,
2000
0000
0000
0000
3200
0000
0000
0000
0320
0000
0030
0000
1001
0000
0100
0010
,
0100
0000
0001
0100
0001
1000
0001
0100
0001
0010
0100
1000
0001
0000
0011
0000
,
0100
0000
2000
0000
3020
0000
0130
0010
1000
0001
1000
0001
0010
0100
1000
0001
,
0100
0010
0100
0000
0110
0000
0000
0000
0001
1000
0001
0000
1001
0000
0000
0000
,
0101
0000
0000
1100
0000
0000
1001
0000
0001
0010
0000
0110
0000
0000
0100
0000
,
1001
0000
0000
0000
0000
0000
0000
0000
0000
0000
0000
0000
0000
0000
0000
0000
0101
0000
0000
0000
0000
0000
1100
0000
0000
0000
0000
1001
0000
0000
0000
0000
,
0000
0000
0000
0000
0000
0110
0000
0000
,
0001
1000
0001
1000
0100
0010
0001
1000
0001
1000
0010
0100
0001
1000
0001
0100
,
1000
0100
0001
0010
0100
1000
0001
1000
0100
0001
0100
1000
0001
0100
0010
2000
,
0002
0000
0000
0000
3003
0000
0000
0000
1100
0000
0000
0101
0000
0000
1001
0000
,
0000
0000
0000
0000
0000
0000
0002
0000
0000
0000
0000
0000
1003
0000
0010
0000
0100
0000
0001
0000
0000
0000
0000
0000
0000
0000
0000
0000
0000
0000
1100
0000
0000
0000
0000
0000
0101
0000
0000
0000
0000
0000
1000
0000
0000
0001
0000
0000
,
1000
0001
0100
0010
1000
0001
1000
0001
0010
0100
1000
0001
0010
0001
1000
0100
,
0010
0001
0010
1000
0010
0001
0100
0010
1000
0010
0001
0010
1000
0100
0010
0001
,
1000
0000
1000
0100
0000
0100
0010
0000
0100
0000
0010
0001
1000
0000
0010
0000
,
1001
0000
0001
0100
0000
0100
0010
0000
0100
0000
0010
1000
0100
0000
0010
0000
,
0011
0000
0000
0001
0100
0000
0010
0000
1010
0000
0000
1000
0100
0000
0010
0000
,
0001
0000
0100
0000
1000
0000
0100
0000
0001
0000
0010
0001
0010
0000
0100
1000
,
0100
0000
0010
0000
0001
0000
0100
0000
0001
0000
1000
0100
1000
0000
1000
0010
,
1000
0000
0100
0000
0010
0000
0001
0000
1000
0000
0001
0100
0001
0000
0001
0010
,
0001
0000
1000
0001
0000
0001
0010
0000
0100
0000
1000
0001
0000
0001
0100
0000
,
0001
1000
1100
0001
0101
1000
1001
0010
,
0001
0000
1000
0010
0100
0000
1000
0000
0100
0001
0010
0100
0000
0010
0001
1000
,
0010
0000
0100
0001
0010
0000
1000
0010
0100
0010
0001
1000
0001
0100
0010
1000
,
1010
0000
0000
0101
0000
0000
1001
0000
0011
0000
0000
1100
0000
0000
1010
0000
,
0010
0000
0000
0100
0000
0000
0010
0000
0000
0100
0000
0000
0001
0000
0000
0000
0000
0000
0001
0000
0000
1000
0000
0000
0001
0000
0010
0000
0001
0000
0010
0000
0100
0000
1000
0000
0100
0000
1000
0000
0001
0000
0010
0000
0100
0000
1000
0000
,
0001
0000
0000
0001
0100
0000
0010
0100
0010
0000
1000
0000
0001
0000
0001
0000
,
1000
0000
0100
0000
0010
0000
0001
0000
1000
0000
0010
0100
0010
0000
1000
0000
,
0200
0000
0301
0100
0020
0000
0031
0100
0020
0000
0031
0010
0200
0000
0000
0301
,
2000
0000
0000
0000
3001
0000
0100
0010
1000
0010
0100
0010
1000
0000
0001
0100
,
0010
0000
0010
0000
1000
0000
0001
0000
0010
0000
1100
0000
1100
0000
1000
0100
,
0010
0010
0001
1000
0010
0101
0101
0001
,
1000
0100
1000
0100
0020
0000
0001
0000
0031
0100
0001
0100
0020
0000
1000
0000
,
1030
0100
1000
0001
0100
0001
0010
0100
0010
0100
1000
0001
0100
0010
0100
0010
,
1000
0000
0000
1000
0100
0000
0000
0010
0001
0000
1000
0000
0001
0000
0100
0000
,
0010
0000
1000
0100
0010
0100
0010
0000
0001
0100
0010
0100
0001
0100
1000
0100
,
0020
0000
1030
0100
0020
0000
1030
0010
0200
0000
1300
0010
0200
0000
0000
0301
,
1000
0000
0001
0100
0001
0000
0010
0000
0100
0000
1000
0000
0001
0100
0001
0100
,
0010
1000
0010
0100
0010
1010
0101
0002
,
0000
0000
0013
0000
0100
0000
2000
0000
0000
0000
3001
0100
0001
0100
0010
1000
,
0001
0000
0000
0011
0000
0000
0110
0000
1001
0000
0000
1001
0000
0000
0110
0000
,
0000
0000
0000
0000
0020
0000
0000
0000
2030
0001
3100
0001
0020
0100
1030
0001
,
0200
0000
0310
1000
0001
0000
0010
0000
0100
1000
0000
0011
0000
0100
1000
0000
,
1001
0000
1000
0100
0010
0000
0110
0000
0010
0001
0010
0100
0010
0001
1000
0001
,
0100
0000
0010
0000
0100
0000
0010
0000
0100
0000
0001
0000
2000
0000
0000
0000
0000
0000
0000
0000
0000
0000
0000
0000
0000
0000
0000
0000
0000
0000
0000
0000
0000
0000
0000
0000
0000
0000
0000
3001
0000
0000
0100
0000
0000
0010
0000
0000
,
0000
0220
0000
0000
0330
0000
0000
0000
0000
0000
0000
0000
0000
0000
0000
0000
;
