#TITLE:ムリムリ進化論;
#SUBTITLE:;
#ARTIST:ナナヲアカリ;
#TITLETRANSLIT:MURI MURI EVORUTION;
#SUBTITLETRANSLIT:;
#ARTISTTRANSLIT:nanawoakari;
#GENRE:POP;
#CREDIT:;
#MUSIC:MURI MURI EVORUTION.ogg;
#BANNER:MURI MURI EVORUTION.png;
#BACKGROUND:MURI MURI EVORUTION-bg.png;
#CDTITLE:;
#SAMPLESTART:55.711;
#SAMPLELENGTH:10.608;
#SELECTABLE:YES;
#OFFSET:1.306;
#BPMS:0.000=181.000
,167.000=90.500
,169.000=181.000
;
#STOPS:152.000=0.166
,152.500=0.166
,190.500=0.166
,191.000=0.166
,220.000=0.166
,220.500=0.166
;
#LASTBEATHINT:0.860815;
#BGCHANGES:5.500=MURI MURI EVORUTION.avi=1.000=0=0=0=StretchNoLoop====,
99999.000=-nosongbg-=1.000=0=0=0=StretchNoLoop====
;
#FGCHANGES:;

//--------------- dance-single - ----------------
#NOTES:
     dance-single:
     :
     Medium:
     12:
     0.698814,0.738646,0.420686,0.244585,0.053809,500,457,43,25,0,0,0.698814,0.738646,0.420686,0.244585,0.053809,500,457,43,25,0,0:
0000
0000
0000
0000
,
0000
0000
0000
0000
,
0000
0000
0000
0101
,
1100
0001
0100
0001
1000
0100
1000
0010
,
0100
0010
1000
0001
1000
0000
1100
0000
,
0101
1000
0100
1000
0001
0100
1000
0100
,
0001
1000
0100
0010
0001
0000
0011
0000
,
1100
0001
0010
0100
1000
0100
0001
0100
,
1000
0001
0100
0001
0010
0100
1000
0000
0000
0110
0000
0000
,
1001
0100
0010
0100
1001
0010
0100
0010
,
0000
1000
0000
0001
0010
0000
0100
0000
,
1000
0000
0001
0000
1000
0100
0000
0010
,
0100
0000
0001
0100
0000
1000
0100
0010
,
0001
0000
1000
0000
0001
0100
0000
0010
,
0100
0000
1000
0100
0000
0001
0010
0100
,
1000
0000
0001
0000
1000
0010
0000
0100
,
0010
0000
0001
0010
0000
1000
0010
0100
,
0001
1000
0001
1000
0100
0010
0100
0010
,
0001
1000
0100
1000
0001
0100
0100
0100
,
0110
0000
0001
0000
1000
0100
0010
0100
,
1000
0000
1000
0000
0001
0100
0010
0100
,
0001
0000
0001
0000
1000
0010
0100
0010
,
1000
0000
1000
0000
0001
0010
0100
0010
,
0001
0010
1000
0010
0001
0010
0100
1000
,
1100
0000
0011
0000
1001
0000
0001
0100
,
0010
0100
0001
1000
0100
0010
0001
1000
,
0010
0000
0010
0000
0010
0100
0001
0010
,
0011
0000
1100
0000
0100
1000
0001
0200
,
1000
0000
0010
0000
0301
0000
1000
0010
,
1010
0101
0011
1200
,
0001
0000
0010
0000
1300
0000
0100
1000
,
0001
0000
0001
0010
0000
0100
1000
0000
1000
0010
0000
0100
,
0001
0000
0001
0010
0000
0100
1000
0001
1000
0001
0000
0000
,
0100
0010
0100
0010
0100
0010
0100
0110
,
0000
1010
0000
0001
0102
0000
1003
0000
,
1100
0000
1000
0010
0000
0100
0000
0010
,
0100
0001
1000
0100
0000
0010
0001
0100
,
1000
0100
0010
0100
0001
0010
0100
1000
,
0002
0003
0000
0000
0000
0000
0000
0000
0000
0000
0000
0000
0000
0000
0000
0000
0000
0000
0000
0000
0000
0000
0000
0000
2000
3000
0000
0000
0000
0000
0000
0000
0000
0000
0000
0000
0000
0000
0000
0000
0000
0000
0000
0000
0000
0000
0000
0000
0010
0000
0000
0000
0000
0000
0000
0000
0000
0000
0000
0000
0000
0000
0000
0000
0000
0000
0000
0000
0000
0000
0000
0000
0100
0000
0000
0000
0000
0000
0000
0000
0000
0000
0000
0000
0000
0000
0000
0000
0000
0000
0000
0000
0000
0000
0000
0000
0010
0000
0000
0000
0000
0000
0000
0000
0000
0000
0000
0000
0000
0000
0000
0000
0000
0000
0000
0000
0000
0000
0000
0000
0000
0000
0000
0000
0000
0000
0000
0000
0000
0000
0000
0000
0000
0000
0000
0000
0000
0000
0000
0000
0000
0000
0000
0000
0100
0000
0000
0000
0000
0000
0000
0000
0000
0000
0000
0000
0000
0000
0000
0000
0000
0000
0000
0000
0000
0000
0000
0000
0001
0000
0000
0000
0000
0000
0000
0000
0000
0000
0000
0000
0000
0000
0000
0000
0000
0000
0000
0000
0000
0000
0000
0000
,
0100
0001
1000
0100
1000
0100
0010
0001
,
1000
0010
0000
0010
0100
0001
1000
0100
,
1000
0000
0000
0000
0000
0000
0000
0000
0000
0000
0000
0000
0000
0000
0000
0000
0000
0000
0000
0000
0000
0000
0000
0000
0100
0000
0000
0000
0000
0000
0000
0000
0000
0000
0000
0000
0000
0000
0000
0000
0000
0000
0000
0000
0000
0000
0000
0000
1000
0000
0000
0000
0000
0000
0000
0000
0000
0000
0000
0000
0000
0000
0000
0000
0000
0000
0000
0000
0000
0000
0000
0000
0100
0000
0000
0000
0000
0000
0000
0000
0000
0000
0000
0000
0000
0000
0000
0000
0000
0000
0000
0000
0000
0000
0000
0000
1000
0000
0000
0000
0000
0000
0000
0000
0000
0000
0000
0000
0000
0000
0000
0000
0000
0000
0000
0000
0000
0000
0000
0000
0100
0000
0000
0000
0000
0000
0000
0000
0000
0000
0000
0000
0000
0000
0000
0000
0000
0000
0000
0000
0000
0000
0000
0000
0202
0303
0000
0000
0000
0000
0000
0000
0000
0000
0000
0000
0000
0000
0000
0000
0000
0000
0000
0000
0000
0000
0000
0000
0000
0000
0000
0000
0000
0000
0000
0000
0000
0000
0000
0000
0000
0000
0000
0000
0000
0000
0000
0000
0000
0000
0000
0000
,
0000
0000
0000
0000
0000
0000
0000
0000
0000
0000
0000
0000
0000
0000
0000
0000
0000
0000
0000
0000
0000
0000
0000
0000
0001
0000
0000
0000
0000
0000
0000
0000
0000
0000
0000
0000
0000
0000
0000
0000
0000
0000
0000
0000
0000
0000
0000
0000
2000
3000
0000
0000
0000
0000
0000
0000
0000
0000
0000
0000
0000
0000
0000
0000
0000
0000
0000
0000
0000
0000
0000
0000
0100
0000
0000
0000
0000
0000
0000
0000
0000
0000
0000
0000
0000
0000
0000
0000
0000
0000
0000
0000
0000
0000
0000
0000
0000
0000
0000
0000
0000
0000
0000
0000
0000
0000
0000
0000
0000
0000
0000
0000
0000
0000
0000
0000
0000
0000
0000
0000
0100
0000
0000
0000
0000
0000
0000
0000
0000
0000
0000
0000
0000
0000
0000
0000
0000
0000
0000
0000
0000
0000
0000
0000
1000
0000
0000
0000
0000
0000
0000
0000
0000
0000
0000
0000
0000
0000
0000
0000
0000
0000
0000
0000
0000
0000
0000
0000
0000
0000
0000
0000
0000
0000
0000
0000
0000
0000
0000
0000
0000
0000
0000
0000
0000
0000
0000
0000
0000
0000
0000
0000
,
0001
0100
0000
0100
0001
0000
1000
0100
,
0010
0000
0001
1000
0000
1000
0001
0000
,
0100
0010
0000
0010
0100
0001
1000
1100
,
0000
0001
1000
0010
1000
0001
1000
0100
,
0010
0000
0000
0000
0000
0000
0000
0000
0000
0000
0000
0000
0000
0000
0000
0000
0000
0000
0000
0000
0000
0000
0000
0000
0001
0000
0000
0000
0000
0000
0000
0000
0000
0000
0000
0000
0000
0000
0000
0000
0000
0000
0000
0000
0000
0000
0000
0000
0010
0000
0000
0000
0000
0000
0000
0000
0000
0000
0000
0000
0000
0000
0000
0000
0000
0000
0000
0000
0000
0000
0000
0000
0100
0000
0000
0000
0000
0000
0000
0000
0000
0000
0000
0000
0000
0000
0000
0000
0000
0000
0000
0000
0000
0000
0000
0000
1000
0000
0000
0000
0000
0000
0000
0000
0000
0000
0000
0000
0000
0000
0000
0000
0000
0000
0000
0000
0000
0000
0000
0000
2200
3300
0000
0000
0000
0000
0000
0000
0000
0000
0000
0000
0000
0000
0000
0000
0000
0000
0000
0000
0000
0000
0000
0000
0022
0033
0000
0000
0000
0000
0000
0000
0000
0000
0000
0000
0000
0000
0000
0000
0000
0000
0000
0000
0000
0000
0000
0000
0001
0000
0000
0000
0000
0000
0000
0000
0000
0000
0000
0000
0000
0000
0000
0000
0000
0000
0000
0000
0000
0000
0000
0000
,
1000
0010
0000
0001
0010
0000
1000
0010
,
0000
0001
0010
0100
0002
0000
1003
0000
,
0001
0010
0000
0010
0100
0000
1000
0010
,
0000
0010
0100
0001
0010
0100
1000
0001
,
0100
1000
0000
0100
0001
0000
0010
1000
,
0000
0010
0001
1000
0010
0110
0000
0100
,
0001
1000
0001
0010
0001
1000
0100
0010
,
0220
0330
0000
0000
0000
0000
0000
0000
0000
0000
0000
0000
0000
0000
0000
0000
0000
0000
0000
0000
0000
0000
0000
0000
0220
0330
0000
0000
0000
0000
0000
0000
0000
0000
0000
0000
0000
0000
0000
0000
0000
0000
0000
0000
0000
0000
0000
0000
1001
0000
0000
0000
0000
0000
0000
0000
0000
0000
0000
0000
0000
0000
0000
0000
0000
0000
0000
0000
0000
0000
0000
0000
0000
0000
0000
0000
0000
0000
0000
0000
0000
0000
0000
0000
0000
0000
0000
0000
0000
0000
0000
0000
0000
0000
0000
0000
1000
0000
0000
0000
0000
0000
0000
0000
0000
0000
0000
0000
0000
0000
0000
0000
0000
0000
0000
0000
0000
0000
0000
0000
0001
0000
0000
0000
0000
0000
0000
0000
0000
0000
0000
0000
0000
0000
0000
0000
0000
0000
0000
0000
0000
0000
0000
0000
0010
0000
0000
0000
0000
0000
0000
0000
0000
0000
0000
0000
0000
0000
0000
0000
0000
0000
0000
0000
0000
0000
0000
0000
0100
0000
0000
0000
0000
0000
0000
0000
0000
0000
0000
0000
0000
0000
0000
0000
0000
0000
0000
0000
0000
0000
0000
0000
,
1000
0020
0000
0000
0000
0130
0001
1000
,
0001
1000
0001
0000
1100
0001
1100
0001
,
0100
0010
1000
0010
1000
0001
1000
0100
,
0001
0100
1000
0000
0101
1000
0101
1000
,
0010
0100
0001
0100
0001
1000
1100
0000
,
1001
0000
0101
0000
1010
0001
1010
0001
,
0100
0010
1000
0100
0010
0001
1000
0010
,
0001
0010
1000
0000
0011
1000
0011
1000
,
0010
0100
0001
1000
0100
0000
0020
0000
,
0230
2300
3002
0203
,
0000
0020
0000
0000
0300
0000
0130
0010
,
0100
0010
0100
0000
0110
0000
0001
0000
,
1000
0000
0001
0100
0000
0010
0100
0000
,
1000
0100
0000
0001
0010
0100
1000
0000
,
0001
0000
1000
0100
0000
0010
0100
0000
,
0001
0100
0000
1000
0010
0100
0001
0000
,
1000
0000
0001
0100
0000
0010
0100
0000
,
1000
0100
0000
0001
0010
0100
1000
0001
,
1000
0001
0100
0010
1000
0100
0020
0000
,
0000
0000
0130
0000
;

//--------------- dance-single - ----------------
#NOTES:
     dance-single:
     :
     Hard:
     15:
     0.908458,0.923308,0.57722,0.939206,0.366877,650,591,59,96,0,0,0.908458,0.923308,0.57722,0.939206,0.366877,650,591,59,96,0,0:
0000
0000
0000
0000
,
0000
0000
0000
0000
,
0000
0000
0000
0011
,
1100
0001
1000
0001
0100
0010
0100
0001
,
1000
0100
0010
0001
1000
0000
1010
0000
,
0101
1000
0001
1000
0100
0010
0100
1000
,
0001
0100
0010
1000
0001
0000
1001
0000
,
0110
1000
0001
0010
0100
1000
0001
1000
,
0010
0100
0001
1000
0100
1000
0001
0000
0000
0110
0000
0000
,
1001
1000
0001
0100
0110
0010
1000
0001
,
0000
0010
0000
0100
1000
0000
0001
0000
,
0002
1000
2003
0001
3002
0203
1000
2300
,
3200
0001
0302
2003
0001
3002
0023
0230
,
2300
0001
3002
1000
2003
3200
0001
0301
,
0200
0000
1000
0000
2300
0000
3002
0000
1003
0000
0001
0100
0001
0000
1000
0100
,
2000
0001
3002
1000
2003
3020
0001
0032
,
0023
1000
2030
3002
1000
2003
3020
0230
,
0302
1000
2003
0001
3002
0023
1000
2030
,
3020
0000
0031
0000
1000
0010
0000
0010
0200
0000
0010
0000
0010
0000
0310
0000
,
1001
0000
0001
0000
0100
0000
0010
0000
1000
0000
0001
0100
0001
0000
0010
0000
,
0100
0000
1000
0000
0001
0000
0100
0000
0001
0000
1000
0100
1000
0000
0010
0000
,
0100
0000
0001
0000
1000
0000
0100
0000
0010
0000
0001
0100
0001
0000
1000
0000
,
0010
0000
0100
0000
0001
0000
0010
0000
0001
0000
1000
0100
1000
0000
0010
0000
,
1000
0000
0001
0010
0001
0000
0010
0100
0010
0000
0100
1000
0100
0000
1000
0000
,
0001
0000
0100
0000
1000
0000
0100
0000
0001
1000
0001
0000
0010
0000
0100
0000
,
1000
0000
0001
0010
0100
0000
1000
0000
0001
0000
0100
0000
0010
0000
0100
0000
,
0001
0000
1000
0000
0001
0000
1000
0000
0001
0010
0001
0010
0100
1000
0100
1000
,
0001
0100
1000
0100
0001
0100
1000
0100
,
0101
0000
1100
0000
0101
0000
0001
1000
,
0001
0100
0001
0000
1000
0100
1000
0000
0001
0010
0100
0000
1000
0010
0200
0000
,
1000
0000
0010
0000
0301
0000
1000
0010
,
0100
0001
1000
0001
0010
0001
1000
0001
0100
0010
1000
0001
,
1000
0100
0010
0100
0000
0010
0001
1000
0001
1000
0000
0000
,
0010
0100
0010
0100
0010
0100
0001
0101
,
0000
1010
1000
0001
0011
0000
0010
0100
,
0110
0000
0100
1000
0000
1000
0010
0100
,
0001
0010
0100
1000
0000
0001
0100
1000
,
0100
0001
0010
1000
0010
0001
1000
0001
,
0202
0303
0000
0000
0000
0000
0000
0000
0000
0000
0000
0000
0000
0000
0000
0000
0000
0000
0000
0000
0000
0000
0000
0000
2200
3300
0000
0000
0000
0000
0000
0000
0000
0000
0000
0000
0000
0000
0000
0000
0000
0000
0000
0000
0000
0000
0000
0000
1001
0000
0000
0000
0000
0000
0000
0000
0000
0000
0000
0000
0000
0000
0000
0000
0000
0000
0000
0000
0000
0000
0000
0000
0000
0000
0000
0000
0000
0000
0000
0000
0000
0000
0000
0000
0000
0000
0000
0000
0000
0000
0000
0000
0000
0000
0000
0000
0001
0000
0000
0000
0000
0000
0000
0000
0000
0000
0000
0000
0010
0000
0000
0000
0000
0000
0000
0000
0000
0000
0000
0000
0001
0000
0000
0000
0000
0000
0000
0000
0000
0000
0000
0000
0010
0000
0000
0000
0000
0000
0000
0000
0000
0000
0000
0000
0100
0000
0000
0000
0000
0000
0000
0000
0000
0000
0000
0000
0000
0000
0000
0000
0000
0000
0000
0000
0000
0000
0000
0000
1000
0000
0000
0000
0000
0000
0000
0000
0000
0000
0000
0000
0001
0000
0000
0000
0000
0000
0000
0000
0000
0000
0000
0000
,
1000
0000
0001
0100
0001
0000
1000
0010
1000
0000
0001
0000
0010
0000
0100
0000
,
1000
0001
0000
1000
0100
0010
0001
1000
,
0001
0000
0000
0000
0000
0000
0000
0000
0000
0000
0000
0000
0000
0000
0000
0000
0000
0000
0000
0000
0000
0000
0000
0000
1000
0000
0000
0000
0000
0000
0000
0000
0000
0000
0000
0000
0000
0000
0000
0000
0000
0000
0000
0000
0000
0000
0000
0000
0001
0000
0000
0000
0000
0000
0000
0000
0000
0000
0000
0000
1000
0000
0000
0000
0000
0000
0000
0000
0000
0000
0000
0000
0001
0000
0000
0000
0000
0000
0000
0000
0000
0000
0000
0000
1000
0000
0000
0000
0000
0000
0000
0000
0000
0000
0000
0000
0001
0000
0000
0000
0000
0000
0000
0000
0000
0000
0000
0000
1000
0000
0000
0000
0000
0000
0000
0000
0000
0000
0000
0000
0001
0000
0000
0000
0000
0000
0000
0000
0000
0000
0000
0000
1000
0000
0000
0000
0000
0000
0000
0000
0000
0000
0000
0000
0200
0300
0000
0000
0000
0000
0000
0000
0000
0000
0000
0000
0000
0000
0000
0000
0000
0000
0000
0000
0000
0000
0000
0000
0000
0000
0000
0000
0000
0000
0000
0000
0000
0000
0000
0000
0000
0000
0000
0000
0000
0000
0000
0000
0000
0000
0000
0000
,
0000
0000
0000
0000
0000
0000
0000
0000
0000
0000
0000
0000
0000
0000
0000
0000
0000
0000
0000
0000
0000
0000
0000
0000
0010
0000
0000
0000
0000
0000
0000
0000
0000
0000
0000
0000
0000
0000
0000
0000
0000
0000
0000
0000
0000
0000
0000
0000
0220
0330
0000
0000
0000
0000
0000
0000
0000
0000
0000
0000
0000
0000
0000
0000
0000
0000
0000
0000
0000
0000
0000
0000
0001
0000
0000
0000
0000
0000
0000
0000
0000
0000
0000
0000
0000
0000
0000
0000
0000
0000
0000
0000
0000
0000
0000
0000
0100
0000
0000
0000
0000
0000
0000
0000
0000
0000
0000
0000
0000
0000
0000
0000
0000
0000
0000
0000
0000
0000
0000
0000
0110
0000
0000
0000
0000
0000
0000
0000
0000
0000
0000
0000
0000
0000
0000
0000
0000
0000
0000
0000
0000
0000
0000
0000
1000
0000
0000
0000
0000
0000
0000
0000
0000
0000
0000
0000
0000
0000
0000
0000
0000
0000
0000
0000
0000
0000
0000
0000
0100
0000
0000
0000
0000
0000
0000
0000
0000
0000
0000
0000
0000
0000
0000
0000
0000
0000
0000
0000
0000
0000
0000
0000
,
0110
0000
0001
0000
0100
0000
0110
0000
1000
0000
0100
0000
0010
0001
1000
0010
,
0100
0001
1010
0100
0001
0011
0100
1000
,
1010
0001
0100
0010
1000
0001
0010
0100
,
0000
0000
0100
0000
1000
0000
0001
0100
1000
0000
0100
0000
0010
0000
1000
0000
,
0100
0000
0000
0000
0000
0000
0000
0000
0000
0000
0000
0000
0000
0000
0000
0000
0000
0000
0000
0000
0000
0000
0000
0000
0001
0000
0000
0000
0000
0000
0000
0000
0000
0000
0000
0000
0000
0000
0000
0000
0000
0000
0000
0000
0000
0000
0000
0000
0100
0000
0000
0000
0000
0000
0000
0000
0000
0000
0000
0000
0000
0000
0000
0000
0000
0000
0000
0000
0000
0000
0000
0000
1000
0000
0000
0000
0000
0000
0000
0000
0000
0000
0000
0000
0000
0000
0000
0000
0000
0000
0000
0000
0000
0000
0000
0000
0001
0000
0000
0000
0000
0000
0000
0000
0000
0000
0000
0000
0000
0000
0000
0000
0000
0000
0000
0000
0000
0000
0000
0000
0202
0303
0000
0000
0000
0000
0000
0000
0000
0000
0000
0000
0000
0000
0000
0000
0000
0000
0000
0000
0000
0000
0000
0000
2020
3030
0000
0000
0000
0000
0000
0000
0000
0000
0000
0000
0000
0000
0000
0000
0000
0000
0000
0000
0000
0000
0000
0000
0010
0000
0000
0000
0000
0000
0000
0000
0000
0000
0000
0000
0000
0000
0000
0000
0000
0000
0000
0000
0000
0000
0000
0000
,
0100
0110
0000
0001
0101
0000
1000
1100
,
0000
0000
0001
0000
1001
0000
1000
0000
0010
0100
0010
0000
1000
0001
1000
0000
,
0001
0100
0001
0000
1000
0000
0100
0001
0100
0000
1000
0000
0001
0010
0001
0000
,
1000
0000
0010
0001
0010
0000
1000
0000
0010
0000
0100
0000
0010
0000
0100
0000
,
0001
0010
0100
0000
0001
0000
0100
0010
0001
0000
1000
0000
0010
0100
1000
0000
,
0100
0000
1000
0100
0010
0000
1000
0000
0001
0000
0010
0000
0000
0000
0010
0000
,
0001
0000
0100
0010
0100
0000
1000
0000
0100
0010
0100
0000
0001
0000
0010
0000
,
0220
0330
0000
0000
0000
0000
0000
0000
0000
0000
0000
0000
0000
0000
0000
0000
0000
0000
0000
0000
0000
0000
0000
0000
0220
0330
0000
0000
0000
0000
0000
0000
0000
0000
0000
0000
0000
0000
0000
0000
0000
0000
0000
0000
0000
0000
0000
0000
0001
0000
0000
0000
0000
0000
0000
0000
0000
0000
0000
0000
0000
0000
0000
0000
0000
0000
0000
0000
0000
0000
0000
0000
1000
0000
0000
0000
0000
0000
0000
0000
0000
0000
0000
0000
0100
0000
0000
0000
0000
0000
0000
0000
0000
0000
0000
0000
1000
0000
0000
0000
0000
0000
0000
0000
0000
0000
0000
0000
0100
0000
0000
0000
0000
0000
0000
0000
0000
0000
0000
0000
0010
0000
0000
0000
0000
0000
0000
0000
0000
0000
0000
0000
0001
0000
0000
0000
0000
0000
0000
0000
0000
0000
0000
0000
1000
0000
0000
0000
0000
0000
0000
0000
0000
0000
0000
0000
0000
0000
0000
0000
0000
0000
0000
0000
0000
0000
0000
0000
0000
0000
0000
0000
0000
0000
0000
0000
0000
0000
0000
0000
0000
0000
0000
0000
0000
0000
0000
0000
0000
0000
0000
0000
,
0000
0000
0000
0000
0000
0000
1000
0001
,
0100
0000
0010
1000
0001
0000
0010
0000
0021
0000
0130
0000
1020
0000
0130
0000
,
0001
0010
0001
0100
1000
0100
0001
1000
,
0100
0010
0100
0000
1020
0130
0021
0130
,
1000
0010
1000
0100
0001
0100
1100
0000
,
0011
0000
1001
0000
0201
0310
1200
0310
,
0001
1000
0010
0001
1000
0100
0101
0010
,
1010
0000
0001
0000
1001
0000
0000
0000
2010
0000
3100
0000
0012
0000
1003
0010
,
0100
0001
0010
0100
0010
0000
0011
0000
,
1001
1100
1001
0020
,
0000
0200
0000
0000
0030
0000
0310
0100
,
0010
0000
0100
0000
0010
0000
1000
0100
0010
0001
1000
0100
0020
0000
0001
0000
,
0032
1000
2003
3200
0001
0302
0203
1000
,
2300
3002
1000
2003
3020
0230
0302
1000
,
2003
0001
3002
0203
1000
1300
0200
0001
,
0302
0000
2003
0000
3001
0000
1000
0100
1000
0000
0001
0100
0002
0000
1000
0000
,
2003
0001
3002
0023
1000
2030
3020
0001
,
0032
2003
0001
3002
0023
0230
2300
0001
,
3002
1000
2003
3020
0001
0032
0023
0000
,
0000
0000
0130
0000
;

//--------------- dance-single - ----------------
#NOTES:
     dance-single:
     :
     Challenge:
     18:
     1.14885,1.218766,0.743538,0.0587,1.154441,822,746,76,6,0,0,1.14885,1.218766,0.743538,0.0587,1.154441,822,746,76,6,0,0:
0000
0000
0000
0000
,
0000
0000
0000
0000
,
0000
0000
0000
0011
,
1100
0000
0001
0000
0100
0000
0001
0000
1000
0000
0100
0000
1000
0000
0001
0100
,
0001
0000
1000
0100
1000
0000
0010
0000
0100
0000
0000
0000
0101
0000
0000
0000
,
1010
0000
0100
0000
0001
0000
0010
0000
1000
0000
0001
0000
0100
0000
1000
0001
,
0100
0000
1000
0000
0100
0000
0001
1000
0100
0000
0000
0000
1100
0000
0000
0000
,
0011
0000
0000
0000
0000
0000
0100
0000
0000
0000
0000
0000
1000
0000
0000
0000
0000
0000
0010
0000
0000
0000
0000
0000
0100
0000
0000
0000
0000
0000
1000
0000
0000
0000
0000
0000
0100
0000
0000
0000
0000
0000
0010
0000
0000
0000
0000
1000
,
0000
0000
0000
0000
0100
0000
0000
0010
0000
0000
0000
0001
0000
0000
0010
0000
0000
0000
0100
0000
0000
1000
0000
0000
0001
0000
0000
0000
0000
0000
0000
0000
0000
0000
0000
0000
1100
0000
0000
0000
0000
0000
0000
0000
0000
0000
0000
0000
,
0101
1000
0001
0010
1100
0001
1000
0020
,
0000
0000
0230
0000
0000
0000
0301
0000
0010
0000
0100
0000
1000
0001
1000
0001
,
2000
0000
0001
0000
3020
0000
0100
0000
2030
0001
3020
0000
0100
0000
2030
0001
,
3200
0000
0010
0000
0302
0000
0013
0100
1000
0100
0010
0001
2000
0000
3020
0000
,
0230
0000
0001
0000
0320
0000
0100
0000
2030
0001
3020
0000
0100
0000
0031
1000
,
0200
0000
0010
0000
2300
0000
0001
0000
3020
0000
0130
0001
0100
0010
0100
0001
,
2000
0000
0100
0000
3002
0000
0100
0000
2003
0010
3200
0000
0010
0000
1300
0001
,
0020
0000
0001
0000
0230
0000
1300
0100
0010
0001
0010
0100
2000
0000
3200
0000
,
0320
0000
0001
0000
0230
0000
1000
0000
0320
0001
2030
0000
0010
0000
3002
0100
,
0023
0000
0100
0000
0130
0010
0000
0100
0010
0000
0110
0000
0110
0000
0110
0000
,
1001
0000
0002
0000
0000
0000
1003
0100
0010
0100
1000
0001
0010
0100
1000
0001
,
1000
0000
0000
0010
0000
0000
0001
0000
0000
0000
0010
0000
1000
0000
0001
0000
0010
0000
0100
0000
1000
0000
0000
0000
0001
0000
0000
0000
0100
0000
0000
0000
,
0010
0000
0000
0000
0000
0000
0000
0000
0000
0000
0000
0000
0000
0000
0000
0000
1000
0000
0000
0000
0000
0000
0000
0000
0000
0000
0000
0000
0000
0000
0000
0000
0001
0000
0000
0000
0000
0000
0000
0000
0000
0000
0000
0000
0000
0000
0000
0000
1000
0000
0000
0000
0000
0000
0000
0000
0000
0000
0000
0000
0000
0000
0000
0000
0000
0000
0000
0000
0000
0000
0000
0000
0001
0000
0000
0000
0000
0000
0000
0000
0000
0000
0000
0000
0010
0000
0000
0000
0000
0000
0000
0000
0000
0000
0000
0000
0100
0000
0000
0000
0000
0000
0000
0000
0000
0000
0000
0000
0000
0000
1000
0000
0000
0000
0000
0000
0000
0000
0000
0000
0000
0000
0000
0001
0000
0000
0000
0000
0000
0000
0000
0000
0000
0000
0000
0000
0010
0000
0000
0000
0000
0000
0000
0000
0000
0000
0000
0000
0000
1000
0000
0000
0000
0000
0000
0000
0000
0000
0000
0000
0000
0000
0000
0010
0000
0000
0000
0000
0000
0000
0000
0000
0000
0000
0000
0000
0000
0000
0001
0000
0000
0000
0000
0000
0000
0000
0000
0000
0000
0000
0000
0000
,
1000
0010
0000
0010
0100
0000
0000
0010
1000
0001
0000
0000
0010
0000
0000
0000
,
0001
0010
0100
0010
0001
0000
1000
0010
0100
0000
0001
0010
0100
0000
1000
0010
,
0110
0000
0101
0000
1010
0000
1001
0000
0001
0010
0100
0000
0000
0100
1000
0010
,
0001
0000
0000
0000
0010
0000
0000
0000
0100
0000
0001
0000
0010
0000
0000
0100
0000
0000
1000
0000
0000
0000
0000
0000
0010
0000
0000
0100
0000
0000
0000
0000
,
0001
0000
0000
1000
0000
0000
0001
0000
0000
1000
0000
0000
0001
0000
0010
0000
0100
0000
1000
0000
0001
0000
1000
0000
0100
0000
0000
0010
0000
0000
0001
0000
0000
0010
0000
0000
0100
0000
0000
0010
0000
0000
0001
0000
0000
1000
0000
0000
,
0010
0000
0100
0000
0001
0000
1000
0000
0001
0010
0100
0000
1000
0000
0001
0000
,
0110
0000
0000
0000
1001
0000
0000
0000
0110
1000
0001
0000
0010
0000
0100
0000
,
1000
0010
0001
0000
0001
0010
1000
0000
0001
0010
1000
0000
1000
0010
0001
0000
,
0011
0000
0000
0000
1001
0000
0000
0000
0110
1000
0001
0000
1000
0000
0010
0000
,
0101
1000
0100
0001
0100
1000
0011
1000
0010
0001
0010
1000
,
0101
1000
0100
0010
0000
0010
0001
1000
0001
1001
0000
0000
,
0100
1000
0001
1000
0100
1000
0001
1000
0100
1000
0001
0010
0100
0000
0110
0000
,
0000
1001
0100
0010
0110
0000
0010
0100
,
1001
0000
0000
0001
0000
0001
1000
0010
,
0101
0000
0000
1000
0000
1000
0001
0010
,
1100
0001
1000
0010
0101
1000
0010
0100
,
2002
3003
0000
0000
0000
0000
0000
0000
0000
0000
0000
0000
0000
0000
0000
0000
0000
0000
0000
0000
0000
0000
0000
0000
1001
0000
0000
0000
0000
0000
0000
0000
0000
0000
0000
0000
0000
0000
0000
0000
0000
0000
0000
0000
0000
0000
0000
0000
0110
0000
0000
0000
0000
0000
0000
0000
0000
0000
0000
0000
0000
0000
0000
0000
0000
0000
0000
0000
0000
0000
0000
0000
0010
0000
0000
0000
0000
0000
0000
0000
0000
0000
0000
0000
0000
0000
0000
0000
0000
0000
0000
0000
0000
0000
0000
0000
1000
0000
0000
0000
0000
0000
0000
0000
0000
0000
0000
0000
0001
0000
0000
0000
0000
0000
0000
0000
0000
0000
0000
0000
0100
0000
0000
0000
0000
0000
0000
0000
0000
0000
0000
0000
0001
0000
0000
0000
0000
0000
0000
0000
0000
0000
0000
0000
1100
0000
0000
0000
0000
0000
0000
0000
0000
0000
0000
0000
0000
0000
0000
0000
0000
0000
0000
0000
0000
0000
0000
0000
0001
0000
0000
0000
0000
0000
0000
0000
0000
0000
0000
0000
0000
0000
0000
0000
0000
0000
0000
0000
0000
0000
0000
0000
,
1100
0001
1010
0100
1010
0100
0101
1000
,
0101
1000
0011
0100
0011
0100
1001
1001
,
1001
0000
1001
0000
1000
0100
0010
0001
1000
0001
0010
0100
1000
0000
0000
0000
,
0000
0000
1000
0000
1001
0000
0001
0010
1000
0000
1010
0000
0010
0001
0100
0000
,
0101
0000
0001
0100
1000
0000
1100
0000
0100
0001
1000
0000
0001
0010
0100
1000
,
0001
0010
1000
0001
0200
0000
1000
0000
1300
0010
0001
1000
0200
0000
0001
0000
,
0301
0000
0110
0000
1000
0000
0001
0010
0100
0010
0001
0010
0100
0000
1100
0000
,
1000
0100
0010
0001
1000
0000
0001
0100
1000
0000
0100
0000
0001
0010
1000
0010
,
0001
0000
0000
0000
0000
0000
0000
0000
0000
0000
0000
0000
0000
0000
0000
0000
0000
0000
0000
0000
0000
0000
0000
0000
1000
0000
0000
0000
0000
0000
0000
0000
0000
0000
0000
0000
0000
0000
0000
0000
0000
0000
0000
0000
0000
0000
0000
0000
1100
0000
0000
0000
0000
0000
0000
0000
0000
0000
0000
0000
0000
0000
0000
0000
0000
0000
0000
0000
0000
0000
0000
0000
0001
0000
0000
0000
0000
0000
0000
0000
0000
0000
0000
0000
1000
0000
0000
0000
0000
0000
0000
0000
0000
0000
0000
0000
0100
0000
0000
0000
0000
0000
0000
0000
0000
0000
0000
0000
0000
0000
0000
0000
0000
0000
0000
0000
0000
0000
0000
0000
0220
0330
0000
0000
0000
0000
0000
0000
0000
0000
0000
0000
0000
0000
0000
0000
0000
0000
0000
0000
0000
0000
0000
0000
2002
3003
0000
0000
0000
0000
0000
0000
0000
0000
0000
0000
0000
0000
0000
0000
0000
0000
0000
0000
0000
0000
0000
0000
0010
0000
0000
0000
0000
0000
0000
0000
0000
0000
0000
0000
0000
0000
0000
0000
0000
0000
0000
0000
0000
0000
0000
0000
,
0101
1100
0000
1100
1010
0000
1010
0011
,
0000
0000
0011
0000
0101
0000
0001
0010
1000
0010
0001
0010
1000
0010
0001
0010
,
0100
1000
0010
1000
0100
1000
0010
0100
0001
0010
0001
0100
0001
0010
0100
1000
,
0100
0010
0100
1000
0010
1000
0010
0100
0001
0100
1000
0100
0001
0100
1000
0100
,
0010
1000
0100
0010
0100
1000
0001
0010
0100
1000
0100
0010
0001
0100
0010
0100
,
0001
0100
0010
1000
0100
0010
0001
0010
1000
0000
0010
0001
1000
0000
0001
0100
,
1000
0000
0100
0001
0010
0000
0100
1000
0010
0000
0001
0010
1000
0000
0100
0000
,
0220
0330
0000
0000
0000
0000
0000
0000
0000
0000
0000
0000
0000
0000
0000
0000
0000
0000
0000
0000
0000
0000
0000
0000
0220
0330
0000
0000
0000
0000
0000
0000
0000
0000
0000
0000
0000
0000
0000
0000
0000
0000
0000
0000
0000
0000
0000
0000
1001
0000
0000
0000
0000
0000
0000
0000
0000
0000
0000
0000
0000
0000
0000
0000
0000
0000
0000
0000
0000
0000
0000
0000
0001
0000
0000
0000
0000
0000
0000
0000
0000
0000
0000
0000
0010
0000
0000
0000
0000
0000
0000
0000
0000
0000
0000
0000
0100
0000
0000
0000
0000
0000
0000
0000
1000
0000
0000
0000
0000
0000
0000
0000
0001
0000
0000
0000
0000
0000
0000
0000
0010
0000
0000
0000
0000
0000
0000
0000
0100
0000
0000
0000
0000
0000
0000
0000
1000
0000
0000
0000
0000
0000
0000
0000
0001
0000
0000
0000
0000
0000
0000
0000
0000
0000
0000
0000
0000
0000
0000
0000
0000
0000
0000
0000
0000
0000
0000
0000
0000
0000
0000
0000
0000
0000
0000
0000
0000
0000
0000
0000
0000
0000
0000
0000
0000
0000
0000
0000
0000
0000
0000
0000
,
0000
0000
0000
0000
0000
0000
1100
0001
,
1000
0000
0001
0000
1000
0001
0010
0100
0001
0000
0001
0100
0010
0000
0100
0000
,
1000
0000
0100
0000
0011
0000
0100
1000
0100
0000
0010
0000
0010
0001
0100
0010
,
1000
0100
0010
0001
0100
0000
0010
0100
1000
0000
1000
0100
0010
0000
0100
0001
,
0010
0000
0100
0000
1000
0100
0010
0100
1000
0100
0010
0001
1000
0000
0001
0100
,
1000
0000
0001
0010
1000
0000
0100
0010
1000
0000
1000
0010
0100
0000
1000
0001
,
0100
0000
1000
0000
0100
0001
0010
0100
1000
0000
0001
0000
1010
0000
0101
0000
,
0011
0000
1100
0000
1001
0000
0000
0000
0110
0000
0100
0010
1001
0000
0001
1000
,
0100
0000
0010
0000
1000
0010
0001
0100
1000
0000
0000
0000
0100
0000
0001
0010
,
0100
0000
1000
0010
0100
0000
0001
0000
1001
0000
0010
0000
0200
0000
0000
0000
,
0000
0020
0000
0000
0300
0000
1030
0001
,
1000
0000
0000
0000
0000
0000
0001
0000
0000
0000
0000
0000
1000
0000
0000
0000
0000
0000
0001
0000
0000
0010
0000
0000
0100
0000
0000
1000
0000
0000
0001
0000
0010
0000
0100
0000
1000
0000
0000
0000
0000
0000
0001
0000
0000
0010
0000
0000
,
0100
0000
0010
0001
0100
0010
0100
0001
0010
0000
0100
1000
0010
0000
0100
1000
,
0100
0010
1000
0100
0010
1000
0010
0100
1000
0001
0010
0100
1000
0000
0001
0100
,
0010
0000
0001
0010
0100
0010
1000
0100
0010
0000
0001
0010
0100
1000
0001
1000
,
0100
0010
0001
0010
1000
0000
0010
0100
1000
0100
0010
0100
1000
0000
0001
0100
,
0010
0000
0001
0010
0100
0001
0010
0100
1000
0000
0010
0100
1000
0000
0100
0001
,
1000
0000
0001
0010
0100
1000
0001
1000
0100
0010
0001
0010
1000
0000
0010
0100
,
1000
0000
0001
0010
0100
1000
0010
0100
0001
0000
1000
0100
0020
0000
0000
0000
,
0000
0000
0130
0000
;
