#TITLE:MOTTAI;
#SUBTITLE:;
#ARTIST:P丸様。;
#TITLETRANSLIT:MOTTAI;
#SUBTITLETRANSLIT:;
#ARTISTTRANSLIT:Pmaru sama.;
#GENRE:POP;
#CREDIT:;
#BANNER:MOTTAI.png;
#BACKGROUND:MOTTAI-bg.png;
#LYRICSPATH:;
#CDTITLE:;
#MUSIC:MOTTAI.ogg;
#OFFSET:1.649000;
#SAMPLESTART:55.018002;
#SAMPLELENGTH:6.667000;
#LASTBEATHINT:1.514352;
#SELECTABLE:YES;
#BPMS:0.000000=144.000000
;
#STOPS:
;
#BGCHANGES:5.750=MOTTAI.avi=1.000=0=0=0=====,
99999=-nosongbg-=1.000=0=0=0 // don't automatically add -songbackground-
;
#KEYSOUNDS:;
#ATTACKS:;

//---------------dance-single - ----------------
#NOTES:
     dance-single:
     :
     Medium:
     12:
     0.557967,0.537043,0.444307,0.154991,0.030998,378.000000,335.000000,43.000000,15.000000,0.000000,0.000000,0.557967,0.537043,0.444307,0.154991,0.030998,378.000000,335.000000,43.000000,15.000000,0.000000,0.000000:
0000
0000
0000
0000
,
0000
0000
0000
0000
,
0000
0000
0000
0000
,
0000
0000
0000
0000
,
0000
0000
0000
0000
,
0000
0000
0000
0000
,
1100
0000
0101
0000
1000
0001
0010
0100
,
1000
1000
0001
0001
0200
0000
0310
0000
,
0101
0000
1100
0000
0001
1000
0100
0010
,
0120
0001
0130
0110
,
0011
0000
1100
0000
0001
0010
0100
1000
,
0010
0010
0100
0100
0002
0000
1003
0010
,
1010
0000
0101
0000
1000
0010
0100
0001
,
0010
0100
1000
0100
2000
0001
3001
0000
,
0101
0000
1010
0000
0001
0100
0010
1000
,
0100
0100
0010
0010
0002
0000
1003
0100
,
1100
0000
0011
0000
1000
0100
0010
0100
,
0110
0110
0110
1001
,
0001
1000
0100
0010
0100
0000
0100
1000
,
0001
0100
1000
0100
0001
0000
0001
0000
,
1000
0100
1000
0100
0010
0100
1000
0100
,
1100
0000
0101
0000
0001
0010
0100
0000
,
0100
1000
0001
0100
1000
0100
0010
0000
,
0010
1000
0100
0001
0100
1000
0010
0000
,
0100
0001
0010
0100
1000
0010
0000
0010
,
1000
0100
0010
0001
1000
0001
0000
0000
,
0001
0010
0100
1000
0001
0010
0100
1000
,
0001
0010
1000
0010
0002
0000
1003
0000
,
0010
1000
0010
1000
0001
0000
0001
0100
,
1000
0000
0100
0000
0001
0010
1000
0000
,
1010
0011
0101
1100
,
0001
0010
0100
1000
0020
0000
0130
0001
,
0100
1000
0100
0001
0100
1000
0100
0001
,
2001
0000
0000
0001
0000
0000
0001
0000
3001
0000
0010
0000
0100
0000
0000
0000
,
0210
0000
1300
0001
1000
0001
0010
0001
,
1000
0100
0001
0100
0001
0100
1000
0001
,
0100
0000
0000
0000
0001
1000
0000
0001
1000
0000
0010
0000
0100
0000
0000
0000
,
0001
1000
0000
0010
0100
0000
0001
1000
0002
0000
0000
0000
0013
0000
0000
0000
,
0120
0000
0031
1000
0001
1000
0100
1000
,
0001
0010
1000
0010
1000
0010
0001
1000
,
0010
0100
0010
0000
1000
0001
0000
1000
,
0100
1000
0001
0100
0001
0010
0110
0000
,
0001
0010
1000
0001
0100
1000
0010
0000
,
1000
0010
0001
1000
0100
0001
0010
0000
,
0100
1000
0100
1000
0001
0100
0010
0000
,
0100
0001
0100
0001
0010
0100
1000
0000
,
0001
0100
1000
0001
0010
1000
0100
0000
,
1000
0100
0001
1000
0010
0001
0100
0000
,
0010
1000
0010
1000
0001
0010
0100
0000
,
1100
0101
0110
1001
,
0011
0000
1100
0000
0001
1000
0010
0100
,
0001
0001
1000
1000
0020
0000
0130
0001
,
0011
0000
1100
0000
0001
1000
0010
0100
,
0001
1000
0001
1000
0020
0100
0130
0000
,
0101
0000
1010
0000
0001
1000
0100
0010
,
0001
0001
1000
1000
0020
0000
0130
0001
,
0011
0000
1100
0000
0001
1000
0001
0100
,
0110
0110
0120
0130
;

//---------------dance-single - ----------------
#NOTES:
     dance-single:
     :
     Hard:
     14:
     0.689340,0.686221,0.340980,0.103327,0.444307,467.000000,434.000000,33.000000,10.000000,0.000000,0.000000,0.689340,0.686221,0.340980,0.103327,0.444307,467.000000,434.000000,33.000000,10.000000,0.000000,0.000000:
0000
0000
0000
0000
,
0000
0000
0000
0000
,
0000
0000
0000
0000
,
0000
0000
0000
0000
,
0000
0000
0000
0000
,
0000
0000
0000
0000
,
0101
0000
0000
0000
1100
0000
0000
0000
0001
0000
1000
0100
1000
0000
0010
0000
,
0100
0000
0100
0000
0001
0000
0001
0000
2000
0000
0000
0000
3010
0000
0100
0001
,
1000
0000
0000
0000
1100
0000
0000
0000
1000
0000
0001
0100
0001
0000
1000
0000
,
1100
0101
1100
1001
,
0011
0000
0000
0000
1100
0000
0000
0000
0001
0000
0010
0100
0010
0000
0001
0000
,
1000
0000
1000
0000
0010
0000
0010
0000
0100
0000
0001
0000
1000
0000
0001
0010
,
0100
0000
0000
0000
1100
0000
0000
0000
0001
0000
0100
0010
0100
0000
0001
0000
,
1000
0100
0001
0100
1000
0010
0110
0000
,
1010
0000
0000
0000
0101
0000
0000
0000
1000
0000
0010
0100
0010
0000
1000
0000
,
0001
0000
0001
0000
0100
0000
0100
0000
0010
0000
1000
0000
0001
0000
1000
0100
,
0010
0000
0000
0000
0011
0000
0000
0000
1000
0000
0001
0100
0010
0000
0100
0000
,
0001
0000
0100
0000
0001
1000
0001
0000
1000
0000
0100
0010
0100
0000
0000
0000
,
1000
0000
0001
0100
0001
0000
0010
0000
0100
1000
0000
0001
0000
1000
0010
1000
,
0001
0000
0010
0000
1000
0000
0010
0000
0001
0000
0100
0010
0000
0000
0000
0000
,
0010
0000
1000
0001
0100
0000
0010
0100
0010
0000
0100
0001
1000
0000
0001
0000
,
1000
0000
0010
0000
0100
0000
0001
0010
0001
0000
1000
0100
1000
0000
0000
0000
,
0001
0000
1000
0100
0010
0000
0100
0000
1000
0001
0000
0100
0000
0010
1000
0001
,
1000
0000
0001
0000
0010
0100
0010
0000
0001
0000
1000
0100
0000
0000
1000
0000
,
0001
0000
1000
0000
0010
0000
0100
0000
0010
0000
2000
0000
0000
3001
0100
0001
,
1000
0000
0010
0100
0010
0000
1000
0000
0100
0000
0020
0000
0000
0000
0000
0000
,
0031
0000
0010
0000
0100
0000
1000
0000
0001
0000
0010
0000
0100
0000
1000
0001
,
1000
0010
0100
0001
2000
0000
3100
0000
,
0100
1000
0001
0100
0010
0000
0010
1000
,
0001
0000
0010
0100
0010
0000
0001
1000
0001
0000
0001
0000
1000
0000
1000
0010
,
0100
0000
0001
0000
0101
0000
0100
0000
0001
0000
1000
0000
1100
0000
0100
0010
,
0001
0000
1000
0000
1010
0000
0010
0000
0200
0000
0000
0000
0301
0000
1000
0100
,
1000
0000
0001
0100
0001
0000
1000
0100
1000
0000
0010
0000
0100
0000
0001
0000
,
2001
0000
0000
0001
0000
0000
0001
0000
3001
0010
0001
0010
0100
0000
0000
0000
,
0120
0000
0000
0000
0031
0000
0010
0000
1000
0000
0001
0100
0010
0000
0001
0000
,
1000
0000
0010
0100
0010
0000
0001
0000
1000
0000
0100
0001
0010
0000
0100
0000
,
1000
0000
0000
0001
0100
0010
0000
0010
0100
0000
0001
0000
1000
0000
0000
0000
,
1000
0100
0000
0100
0010
0000
0100
1000
0002
0000
0000
0000
0103
0000
0000
0000
,
0120
0000
0000
0000
1030
0000
0010
0000
0001
0000
1000
0100
0010
0000
1000
0000
,
0001
0000
0010
0100
0010
0000
0001
0000
1000
0100
1000
0100
1000
0000
0010
0000
,
0110
0000
0100
0000
0001
0000
0000
0001
0010
0000
0100
0000
1000
0000
0100
0000
,
1100
0000
0001
0000
0101
0000
1000
0000
0001
1000
0001
1000
0001
0000
0000
0000
,
1000
0100
0001
0000
0100
1000
0010
0000
0001
0000
0010
1000
0001
0000
0000
0000
,
0001
0100
1000
0000
0100
0001
0010
0000
1000
0000
0010
0001
1000
0000
0000
0000
,
0001
0000
0100
0000
0001
0000
1000
0010
1000
0000
0001
0100
0001
0000
0000
0000
,
1000
0000
0001
0010
0001
0000
1000
0100
1000
0000
0001
0000
1000
0000
0000
0000
,
0001
0010
1000
0000
0010
0001
0100
0000
1000
0000
0100
0001
1000
0000
0000
0000
,
1000
0010
0001
0000
0010
1000
0100
0000
0001
0000
0100
1000
0001
0000
0000
0000
,
1000
0000
0010
0000
0100
0001
0000
0001
1000
0000
0100
0000
1100
0000
0000
0000
,
1000
0001
1000
0001
0100
0000
0010
0000
0110
0000
0000
0000
1001
0000
0000
0000
,
1010
0000
0000
0000
0101
0000
0000
0000
1000
0000
0010
0100
0010
0000
1000
0000
,
0001
0000
0001
0000
0010
0000
0010
0000
0100
0000
1000
0000
0001
0000
1000
0100
,
0010
0000
0000
0000
0011
0000
0000
0000
1000
0000
0010
0100
0010
0000
1000
0000
,
0001
0100
0001
0100
0010
1000
0001
0000
,
0011
0000
0000
0000
1100
0000
0000
0000
0001
0000
0100
0010
0100
0000
0001
0000
,
1000
0000
1000
0000
0100
0000
0100
0000
0010
0000
0001
0000
1000
0000
0001
0100
,
0010
0000
0000
0000
0110
0000
0000
0000
1000
0000
0001
0100
0001
0000
1000
0000
,
0001
0000
1000
0100
1000
0000
0010
0000
0210
0000
0000
0000
0310
0000
0000
0000
;

//---------------dance-single - ----------------
#NOTES:
     dance-single:
     :
     Challenge:
     16:
     0.872376,0.865236,0.278983,0.092994,0.935111,591.000000,564.000000,27.000000,9.000000,0.000000,0.000000,0.872376,0.865236,0.278983,0.092994,0.935111,591.000000,564.000000,27.000000,9.000000,0.000000,0.000000:
// measure 0
0000
0000
0000
0000
,  // measure 1
0000
0000
0000
0000
,  // measure 2
0000
0000
0000
0000
,  // measure 3
0000
0000
0000
0000
,  // measure 4
0000
0000
0000
0000
,  // measure 5
0000
0000
0000
0000
,  // measure 6
1001
0000
0000
0001
0100
0000
0010
0000
0100
0000
0001
1000
0001
0000
0010
0000
,  // measure 7
0100
0000
0100
1000
0010
0000
0010
0000
0200
0000
0001
0000
0301
0000
1000
0100
,  // measure 8
0010
0000
0000
0100
1000
0000
0001
0000
1000
0000
0010
0100
0001
0000
0100
0000
,  // measure 9
0010
0000
0000
0000
0000
0000
0000
0000
1000
0000
0000
0000
0000
0000
0000
0000
0010
0000
0000
0000
0000
0000
0000
0000
1000
0000
0000
0000
0000
0000
0001
0000
0000
0000
0000
0000
0100
0000
0000
0000
0000
0000
0001
0000
0000
0000
0000
0000
0100
0000
0000
0000
0000
0000
0000
0000
0000
0000
0000
0000
0000
0000
0000
0000
0010
0000
0000
0000
0000
0000
0000
0000
0000
0000
0000
0000
0000
0000
0000
0000
1000
0000
0000
0000
0000
0000
0000
0000
0000
0000
0000
0000
0000
0000
0000
0000
0001
0000
0000
0000
0000
0000
0000
0000
0000
0000
0000
0000
0000
0000
0000
0000
0000
0000
0000
0000
0000
0000
0000
0000
0010
0000
0000
0000
0000
0000
0000
0000
0000
0000
0000
0000
0000
0000
0000
0000
0000
0000
0000
0000
0000
0000
0000
0000
0110
0000
0000
0000
0000
0000
0000
0000
0000
0000
0000
0000
0000
0000
0000
0000
0000
0000
0000
0000
0000
0000
0000
0000
0000
0000
0000
0000
0000
0000
0000
0000
0000
0000
0000
0000
0000
0000
0000
0000
0000
0000
0000
0000
0000
0000
0000
0000
,  // measure 10
1001
0000
1000
0100
0010
0000
0100
0000
1000
0001
0100
0001
1000
0000
0010
0000
,  // measure 11
0100
0000
0100
0001
0010
0000
0010
0000
0100
0000
1000
0000
0001
0000
1000
0010
,  // measure 12
0100
0000
0010
0000
1000
0000
0001
0000
1000
0001
0100
0001
0010
0000
0100
0000
,  // measure 13
1000
0000
0000
0000
0000
0000
1000
0000
0000
0001
0000
0000
0100
0000
0000
0000
0000
0000
0100
0000
0000
0000
0000
0000
0010
0000
0000
0000
0000
0000
1000
0000
0000
0000
0000
0000
0001
0000
0010
0000
0001
0000
0010
0000
0001
0000
0010
0000
,  // measure 14
0100
0000
1000
0000
0001
0000
0100
0000
0001
0000
0010
0100
1000
0000
0001
0000
,  // measure 15
0010
0000
0010
0001
0100
0000
0100
0000
0020
0000
1000
0000
1030
0000
0001
0100
,  // measure 16
0010
0000
1000
0000
0001
0000
0010
0000
0100
1000
0010
1000
0100
0000
0010
0000
,  // measure 17
0001
0000
0000
0000
0000
0000
1000
0000
0000
0001
0000
0000
0100
0000
0010
0000
0100
0000
0010
0000
0000
1000
0000
0000
0001
0000
0000
1000
0000
0000
0100
0000
0000
0010
0000
0000
0110
0000
0000
0000
0000
0000
0000
0000
0000
0000
0000
0000
,  // measure 18
0001
1000
0100
1000
0100
0000
0010
0001
1000
0001
0000
0100
0000
0010
1000
0010
,  // measure 19
0100
0010
1000
0100
0010
0100
1000
0100
0010
0000
0010
0001
0000
0000
0000
0000
,  // measure 20
0001
0000
1000
0010
0100
1000
0100
1000
0100
0001
0010
1000
0001
0000
0001
0100
,  // measure 21
1000
0000
0010
0000
0100
0001
1000
0100
0010
0100
0001
0100
1000
0000
0010
0000
,  // measure 22
0010
1000
0100
1000
0001
0000
0100
0000
1000
0100
0000
0010
0000
0100
0001
0010
,  // measure 23
1000
0000
0001
0100
0010
0100
1000
0001
1000
0000
0010
0100
0010
0000
0100
0001
,  // measure 24
1000
0000
0001
0000
0010
0100
0010
0001
0100
0000
1000
0000
0000
0100
0010
0100
,  // measure 25
0001
1000
0100
0010
0100
1000
0001
0100
1000
0000
0100
0000
0010
1000
0001
1000
,  // measure 26
0001
0000
0010
0000
0100
0000
1000
0001
0100
0000
1000
0000
0100
0000
0001
0010
,  // measure 27
1000
0000
0010
0000
0001
0000
1000
0000
0020
0000
0000
0000
0130
0000
0001
1000
,  // measure 28
0100
0000
0010
0000
0100
0000
1000
0010
0001
0000
0010
0000
0100
0000
0001
0000
,  // measure 29
0010
0000
0010
0100
1000
0000
1000
0000
0001
0000
0001
0100
0010
0000
0100
0001
,  // measure 30
0101
0000
1000
0000
1100
0000
0001
0000
0101
0000
1000
0000
1100
0000
0001
1000
,  // measure 31
1010
0000
0001
0000
0011
0000
1000
0000
1010
0000
0010
0100
0001
0000
1000
0100
,  // measure 32
0001
0000
0100
1000
0010
0000
1000
0010
0001
0000
0010
1000
0001
0000
0100
0000
,  // measure 33
0210
0000
0000
0010
0000
0000
0010
0000
0310
1000
0001
0010
1000
0000
0000
0000
,  // measure 34
0120
0000
0000
0000
0031
0000
1000
0000
0001
0100
0001
0010
0100
0010
0001
0000
,  // measure 35
1000
0010
0100
1000
0100
0001
0010
0000
0100
0000
0010
0100
1000
0000
0010
0000
,  // measure 36
1000
0000
0000
0010
0100
1000
0000
0100
0010
0000
1000
0100
0010
0000
0100
0000
,  // measure 37
0001
0000
0000
0100
0000
0000
0010
0000
0000
0100
0000
0000
1000
0000
0000
0000
0000
0000
0001
0000
0000
0100
0000
0000
0020
0000
0000
0000
0000
0000
0000
0000
0000
0000
0000
0000
0130
0000
0001
0000
0100
0000
0001
0000
0100
0000
0001
0000
,  // measure 38
0020
0000
0000
0000
0130
0000
1000
0000
0001
0010
0100
0010
0001
0100
0010
0000
,  // measure 39
0001
0010
1000
0100
0010
1000
0010
0100
1000
0010
0100
1000
0100
0000
0001
0000
,  // measure 40
1001
0000
1000
0000
0010
0000
0000
0100
0001
0000
0010
0000
0100
1000
0100
0010
,  // measure 41
0001
0000
1000
0010
0100
0000
1000
0100
0001
0010
0100
1000
1001
0000
0000
0000
,  // measure 42
0001
0100
1000
0100
0010
1000
0100
0001
0100
0000
0100
1000
0001
0000
0000
0000
,  // measure 43
1000
0100
0001
0100
0010
0001
0100
1000
0100
0000
0100
0001
1000
0000
0000
0000
,  // measure 44
1100
0000
0011
0000
1100
0000
0001
0010
0100
1000
0100
0010
0001
0000
0000
0000
,  // measure 45
1001
0000
0001
1000
0001
0010
0100
1000
0001
1000
0010
0000
0110
0000
0000
0000
,  // measure 46
0001
0010
1000
0010
0100
1000
0010
0001
0010
0000
0010
1000
0001
0000
0000
0000
,  // measure 47
1000
0010
0001
0010
0100
0001
0010
1000
0010
0000
0010
0001
1000
0000
0000
0000
,  // measure 48
1010
0000
0101
0000
1000
0010
0100
0001
0100
0010
1000
0000
1001
0000
0000
0000
,  // measure 49
0010
0100
0100
0010
0100
0100
0010
0000
0110
0000
0100
0010
1001
0000
0000
0000
,  // measure 50
1001
0000
1000
0000
0010
0000
0100
0000
0001
0000
1000
0100
0001
0000
0100
0000
,  // measure 51
1000
0000
1000
0010
0001
0000
0001
0000
1000
0000
0100
0001
1000
0000
0001
0010
,  // measure 52
0100
0000
0010
0000
0001
0000
1000
0000
0010
0000
0100
0001
0010
0000
0100
0000
,  // measure 53
1000
0000
0000
0000
0000
0000
0001
0000
0000
0100
0000
0000
0010
0000
0000
0000
0000
0000
1000
0000
0000
0100
0000
0000
0020
0000
0000
0000
0000
0000
0100
0000
0000
0000
0000
0000
0130
0000
1000
0000
0100
0000
1000
0000
0100
0000
1000
0000
,  // measure 54
0001
0000
0001
0000
0100
0000
1000
0000
0001
0000
1000
0100
0001
0000
0100
0000
,  // measure 55
0001
0000
0001
0010
1000
0000
1000
0000
0001
0000
0100
1000
0001
0000
0010
0001
,  // measure 56
1000
0000
0010
0000
0100
0000
0010
0000
0001
0010
1000
0100
0001
0000
0100
0000
,  // measure 57
1000
0000
0010
0100
0010
0000
0010
0000
0210
0000
0000
0000
0310
0000
0000
0000
;
