#TITLE:月蝕;
#SUBTITLE:;
#ARTIST:krage;
#TITLETRANSLIT:Lunar Eclipse;
#SUBTITLETRANSLIT:;
#ARTISTTRANSLIT:krage;
#GENRE:ANIME;
#CREDIT:;
#MUSIC:Lunar Eclipse.ogg;
#BANNER:Lunar Eclipse.png;
#BACKGROUND:Lunar Eclipse-bg.png;
#CDTITLE:;
#SAMPLESTART:46.243;
#SAMPLELENGTH:16.964;
#SELECTABLE:YES;
#OFFSET:2.671;
#BPMS:0.000=122.000
,37.000=122.200
,84.500=122.000
;
#STOPS:82.000=0.246
,82.500=0.246
,83.000=0.246
,92.500=0.246
,93.000=0.246
,93.500=0.246
,94.000=0.246
;
#LASTBEATHINT:3.355718;
#BGCHANGES:6.000=Lunar Eclipse.avi=1.000=0=0=0=StretchNoLoop====,
99999.000=-nosongbg-=1.000=0=0=0=StretchNoLoop====
;
#FGCHANGES:;

//--------------- dance-single - ----------------
#NOTES:
     dance-single:
     :
     Hard:
     12:
     0,0,0,0,0:
0000
0000
0000
0000
,
0000
0000
0000
0000
,
0000
0000
0000
0000
0000
0000
0001
0000
0000
1000
0000
0001
,
0100
0000
0000
0000
0001
0000
0100
0000
0000
0000
0000
0000
0010
0000
0000
0000
0000
0000
1000
0000
0000
0100
0000
0000
,
0010
0000
0001
1000
0000
0010
0100
0000
0100
0001
0000
0001
,
1000
0100
0000
0100
1000
0000
0001
0010
,
0100
1000
0001
0100
0010
0000
0010
1000
,
0001
0000
0000
0000
0000
0000
1000
0000
0000
0001
0000
0000
0010
0000
0000
0000
0000
0000
0100
0000
0000
1000
0000
0001
,
0000
2000
0000
0000
0000
0000
0000
0000
0000
0000
0000
0000
0020
0000
0000
0000
0000
0000
0000
0000
0000
0000
0000
0000
,
3030
0000
0000
0000
0002
0000
0000
0000
1003
0000
0000
0010
0100
0000
0001
0000
,
0000
0000
0010
0000
0000
0000
0100
0000
1000
0000
0000
0100
0000
0000
1000
0000
,
0001
0000
0000
0100
0000
0000
0001
0000
1000
0000
0000
0010
0100
0000
0001
0000
,
0000
0000
1000
0000
0000
0000
0001
0000
0010
0000
0000
0100
0000
0000
0010
0000
,
0001
0000
0000
1000
0000
0000
0001
0000
1000
0000
0010
0000
0001
0000
0010
0000
,
1000
0000
0100
0000
0010
0000
0000
0001
0100
0000
0010
0000
0100
0000
0000
0001
,
0010
0000
0100
0000
1000
0001
0100
0001
1000
0000
0010
0000
0100
0000
0001
0000
,
1000
0100
0010
0001
0011
1000
1100
0001
,
0101
1000
1010
0000
0001
0100
1000
0100
,
0001
0000
0010
0000
0100
0000
0000
1000
0001
0000
0100
0000
0010
0000
0000
0000
,
0010
1000
0001
0000
0010
0100
0010
0100
,
1000
0000
0000
0000
0000
0000
0000
0000
0000
0000
0000
0000
0000
0000
0000
0000
0000
0000
0000
0000
0000
0000
0000
0000
0001
0000
0000
0000
0000
0000
0000
0000
0000
0000
0000
0000
0000
0000
0000
0000
0000
0000
0000
0000
0000
0000
0000
0000
1000
0000
0000
0000
0000
0000
0000
0000
0000
0000
0000
0000
0000
0000
0000
0000
0000
0000
0000
0000
0000
0000
0000
0000
0001
0000
0000
0000
0000
0000
0000
0000
0000
0000
0000
0000
0000
0000
0000
0000
0000
0000
0000
0000
0000
0000
0000
0000
0202
0303
0000
0000
0000
0000
0000
0000
0000
0000
0000
0000
0000
0000
0000
0000
0000
0000
0000
0000
0000
0000
0000
0000
2020
3030
0000
0000
0000
0000
0000
0000
0000
0000
0000
0000
0000
0000
0000
0000
0000
0000
0000
0000
0000
0000
0000
0000
2200
3300
0000
0000
0000
0000
0000
0000
0000
0000
0000
0000
0000
0000
0000
0000
0000
0000
0000
0000
0000
0000
0000
0000
0011
0000
0000
0000
0000
0000
0000
0000
0000
0000
0000
0000
0000
0000
0000
0000
0000
0000
0000
0000
0000
0000
0000
0000
,
0000
0000
0101
0000
0000
1010
0000
0000
1000
0000
0100
0000
0001
0000
0100
0000
,
1000
0000
1100
0000
0000
0011
0000
0000
0001
0000
0010
0000
0100
0000
1000
0000
,
0010
0000
0000
0000
0000
0000
0000
0000
0000
0000
0000
0000
0000
0000
0000
0000
0000
0000
0000
0000
0000
0000
0000
0000
2020
3030
0000
0000
0000
0000
0000
0000
0000
0000
0000
0000
0000
0000
0000
0000
0000
0000
0000
0000
0000
0000
0000
0000
0202
0303
0000
0000
0000
0000
0000
0000
0000
0000
0000
0000
0000
0000
0000
0000
0000
0000
0000
0000
0000
0000
0000
0000
0022
0033
0000
0000
0000
0000
0000
0000
0000
0000
0000
0000
0000
0000
0000
0000
0000
0000
0000
0000
0000
0000
0000
0000
2200
3300
0000
0000
0000
0000
0000
0000
0000
0000
0000
0000
0000
0000
0000
0000
0000
0000
0000
0000
0000
0000
0000
0000
0002
0000
0000
0000
0000
0000
0000
0000
0000
0000
0000
0000
0000
0000
0000
0000
0000
0000
0000
0000
0000
0000
0000
0000
0000
0000
0000
0000
0000
0000
0000
0000
0000
0000
0000
0000
0000
0000
0000
0000
0000
0000
0000
0000
0000
0000
0000
0000
0000
0000
0000
0000
0000
0000
0000
0000
0000
0000
0000
0000
0000
0000
0000
0000
0000
0000
0000
0000
0000
0000
0000
0000
,
1003
0000
0000
0010
0000
0000
0000
0100
0000
0001
0000
0000
0000
1000
0000
0002
0000
0000
0100
0000
0000
1003
0000
0000
,
0010
0000
0000
0100
0000
0000
0000
0001
0000
0010
0000
0000
0000
0001
0000
2000
0000
0000
0100
0000
0000
3001
0000
0000
,
0010
0000
0000
0100
0000
0000
0000
1000
0000
0010
0000
0000
0000
0100
0000
0001
0000
0000
0000
0001
0000
0010
0000
0000
,
0000
0010
0000
0100
0000
0000
2000
0000
0000
0000
0000
0000
3001
0000
0000
0200
0000
0000
0000
0000
0000
0310
0000
0000
,
1000
0100
0001
1000
0010
0002
0000
1003
,
0010
0100
0020
0000
1000
0000
0130
0000
0001
0000
2000
0000
0000
0000
3001
0000
,
0010
0100
0020
0000
0001
0000
0130
0000
2100
0000
0000
0000
3010
0000
0000
0000
,
0102
0000
0013
0000
1100
1000
0001
0010
,
1000
0000
0000
0010
0000
0000
0000
0001
0000
0100
0000
0000
0000
0010
0000
2000
0000
0000
0100
0000
0000
3001
0000
0000
,
0010
0000
0000
0100
0000
0000
0000
1000
0000
0010
0000
0000
0000
0100
0000
0002
0000
0000
0100
0000
0000
1003
0000
0000
,
0010
0000
0000
0100
0000
0000
0000
0001
0000
0010
0000
0000
0000
0100
0000
1000
0000
0000
0000
1000
0000
0010
0000
0000
,
0000
0010
0000
0100
0000
0000
0002
0000
0000
0000
0000
0000
0013
0000
0000
0200
0000
0000
0000
0000
0000
1300
0000
0000
,
0001
1000
0001
0100
1000
0200
0000
0301
,
0001
0010
0200
0000
0000
0000
1300
0000
0010
0000
0100
0000
0000
1001
0000
0000
,
1000
0001
1000
0100
0001
0200
0000
1300
,
1000
0010
0200
0000
0000
0000
0301
0000
1000
0001
0010
0000
0000
0110
0000
0000
,
0200
0000
1300
0001
0020
0100
0100
0100
,
0100
0100
0100
0100
0230
0010
0010
0310
,
1001
0000
0000
0000
0110
0000
0000
0000
0000
0000
1000
0000
0000
0100
0000
0000
,
1000
0000
0001
0000
0100
0000
0010
0000
0100
0000
0001
0000
0000
0010
0000
0000
,
0100
0000
0000
1000
0000
0000
0001
0000
0000
0010
0000
0010
0000
0010
0000
0000
0000
0000
0000
0000
0000
0000
0000
0000
;

//--------------- dance-single - ----------------
#NOTES:
     dance-single:
     :
     Challenge:
     16:
     0.788846,0.864302,0.443528,0,0.925864,498,458,40,0,0,0,0.788846,0.864302,0.443528,0,0.925864,498,458,40,0,0,0:
0000
0000
0000
0000
,
0000
0000
0000
0000
,
0000
0000
0000
0000
0110
0000
0001
1000
,
0100
0000
0000
0000
1000
0000
0010
0000
0000
0000
0010
0000
0100
0000
0000
0000
0000
0000
0001
0000
0000
0010
0000
0000
,
0100
0000
1000
0001
0000
0100
0010
0000
1000
0100
0000
0010
,
0001
1000
0000
0001
0200
0000
0310
1000
,
0001
0000
0010
0000
0100
0000
1000
0000
0001
0000
0000
0000
0001
0000
1000
0100
,
1000
0000
0000
0000
0000
0000
1000
0000
0000
0001
0000
0000
0100
0000
0000
0000
0000
0000
0100
0000
0000
0001
0000
1000
,
0000
0200
0000
0000
0000
0000
0000
0000
0000
0000
0000
0000
1300
0001
1000
0001
1000
0001
1000
0001
1000
0001
1000
0001
,
1000
0000
0000
0000
0000
0000
0000
0000
0000
0000
0000
0000
0001
0000
0010
0000
0100
0000
1000
0000
0001
0000
0010
0000
0100
0000
0000
0000
0000
0000
0000
0000
0000
0100
0000
0000
1000
0000
0000
0000
0000
0000
0010
0000
0000
0000
0000
0000
,
0100
0000
0001
1000
0100
0000
0010
0001
1000
0000
1000
0010
0000
0010
0100
0000
,
0001
0010
0000
0010
0100
0000
1000
0000
1001
0000
0000
1000
0100
0000
0010
0000
,
0100
0000
1000
0001
0100
0000
0010
0000
1000
0000
0001
0100
0000
0010
0100
1000
,
0100
0000
0000
0010
0000
0000
1000
0000
0000
0100
0000
0000
0010
0000
0000
0000
0001
0000
0000
0000
1000
0000
0000
0000
0001
0000
0000
0000
0000
0000
1000
0000
0000
0100
0000
0000
1000
0000
0000
0000
0000
0000
0100
0000
0000
0000
0000
0000
,
0001
0000
0100
1000
0100
0000
0010
0000
0001
0000
1000
0010
1000
0000
0001
0100
,
0001
0000
1000
0100
0010
0001
0010
0100
1000
0000
0001
0100
0001
0000
0100
0000
,
1000
0000
0100
0001
0100
0000
0010
0000
1010
0000
1000
0010
0100
0010
1000
0001
,
0010
0000
0010
0100
1000
0001
0100
0010
0110
0000
0100
0001
1000
0000
0100
0000
,
1100
0000
1000
0001
0100
0000
0010
0000
1001
0000
0001
0010
0100
0000
1000
0000
,
1001
0000
1000
0010
0100
0000
0001
1000
0001
0000
0010
0100
0010
0000
1000
0000
,
0001
0000
0000
0000
0000
0000
0000
0000
0000
0000
0000
0000
0000
0000
0000
0000
0000
0000
0000
0000
0000
0000
0000
0000
0100
0000
0000
0000
0000
0000
0000
0000
0000
0000
0000
0000
1000
0000
0000
0000
0000
0000
0000
0000
0000
0000
0000
0000
0100
0000
0000
0000
0000
0000
0000
0000
0000
0000
0000
0000
1000
0000
0000
0000
0000
0000
0000
0000
0000
0000
0000
0000
0001
0000
0000
0000
0000
0000
0000
0000
0000
0000
0000
0000
0000
0000
0000
0000
0000
0000
0000
0000
0000
0000
0000
0000
0202
0303
0000
0000
0000
0000
0000
0000
0000
0000
0000
0000
0000
0000
0000
0000
0000
0000
0000
0000
0000
0000
0000
0000
0220
0330
0000
0000
0000
0000
0000
0000
0000
0000
0000
0000
0000
0000
0000
0000
0000
0000
0000
0000
0000
0000
0000
0000
2020
3030
0000
0000
0000
0000
0000
0000
0000
0000
0000
0000
0000
0000
0000
0000
0000
0000
0000
0000
0000
0000
0000
0000
1000
0000
0000
0000
0000
0000
0000
0000
0000
0000
0000
0000
0000
0000
0000
0000
0001
0000
0000
0000
0000
0000
0000
0000
,
0000
0000
0100
0000
0000
0000
0110
0000
0000
0000
0000
0000
0000
0000
0000
0110
0000
0000
0000
0000
0000
0000
0000
0000
1000
0000
0000
0100
0000
0000
0010
0000
0000
0100
0000
0000
1000
0000
0000
0001
0000
0000
0010
0000
0000
0100
0000
0000
,
0010
0001
1001
0000
0000
1001
0000
0000
0001
0000
0100
0000
0010
1000
0001
0010
,
0100
0000
0000
0000
0000
0000
0000
0000
0000
0000
0000
0000
1000
0000
0000
0000
0000
0000
0000
0000
0000
0000
0000
0000
2002
3003
0000
0000
0000
0000
0000
0000
0000
0000
0000
0000
0000
0000
0000
0000
0000
0000
0000
0000
0000
0000
0000
0000
0220
0330
0000
0000
0000
0000
0000
0000
0000
0000
0000
0000
0000
0000
0000
0000
0000
0000
0000
0000
0000
0000
0000
0000
2020
3030
0000
0000
0000
0000
0000
0000
0000
0000
0000
0000
0000
0000
0000
0000
0000
0000
0000
0000
0000
0000
0000
0000
0202
0303
0000
0000
0000
0000
0000
0000
0000
0000
0000
0000
0000
0000
0000
0000
0000
0000
0000
0000
0000
0000
0000
0000
0001
0000
0000
0000
0000
0000
0000
0000
1000
0000
0000
0000
0000
0000
0000
0000
0001
0000
0000
0000
0000
0000
0000
0000
1000
0000
0000
0000
0000
0000
0000
0000
0001
0000
0000
0000
0000
0000
0000
0000
1000
0000
0000
0000
0000
0000
0000
0000
0001
0000
0000
0000
0000
0000
0000
0000
1000
0000
0000
0000
0000
0000
0000
0000
0001
0000
0000
0000
0000
0000
0000
0000
,
1000
0000
0000
0000
0000
0000
0000
0000
0000
0000
0000
0000
0010
0000
0000
0000
0000
0000
0000
0000
0000
0000
0000
0000
0000
0000
0000
0000
0000
0100
0000
0000
0000
0000
0000
0000
0001
0000
0000
0000
0000
0000
0000
0000
0000
0000
0000
0000
0000
0000
0000
0000
0000
1000
0000
0000
0000
0000
0000
0000
0100
0000
0000
0000
0000
0000
0000
0000
0000
0000
0000
0000
0010
0000
0000
0000
0000
0000
0001
0000
0000
0000
0000
0000
1000
0000
0000
0000
0000
0000
0000
0000
0000
0000
0000
0000
,
0010
0000
0000
0000
0000
0000
0000
0000
0000
0000
0000
0000
0100
0000
0000
0000
0000
0000
0000
0000
0000
0000
0000
0000
0001
0000
0000
0000
0000
1000
0000
0000
0000
0000
0000
0000
0010
0000
0000
0000
0000
0000
0000
0000
0000
0000
0000
0000
1000
0000
0000
0000
0000
0001
0000
0000
0000
0000
0000
0000
0010
0000
0000
0000
0000
0000
0000
0000
0000
0000
0000
0000
0100
0000
0000
0000
0000
0000
1000
0000
0000
0000
0000
0000
0001
0000
0000
0000
0000
0000
0000
0000
0000
0000
0000
0000
,
0100
0000
0000
0000
0000
0000
0000
0000
0000
0000
0000
0000
0010
0000
0000
0000
0000
0000
0000
0000
0000
0000
0000
0000
1000
0000
0000
0000
0000
0001
0000
0000
0000
0000
0000
0000
0010
0000
0000
0000
0000
0000
0000
0000
0000
0000
0000
0000
0100
0000
0000
0000
0000
1000
0000
0000
0000
0000
0000
0000
0010
0000
0000
0000
0000
0000
0100
0000
0000
0000
0000
0000
0001
0000
0000
0000
0000
1000
0000
0000
0000
0000
0000
0000
0100
0000
0000
0000
0000
0000
0010
0000
0000
0000
0000
0000
,
0001
0000
0000
0000
0000
1000
0000
0000
0000
0000
0000
0000
0010
0000
0000
0000
0000
0000
0100
0000
0000
0000
0000
0000
0001
0000
0000
0000
0000
1000
0000
0000
0000
0000
0000
0000
0100
0000
0000
0000
0000
0000
0010
0000
0000
0000
0000
0000
0001
0000
0000
0000
0000
0000
0010
0000
0000
0000
0000
0000
0100
0000
0000
0000
0000
0000
0000
0000
0000
0000
0000
0000
0100
0000
0000
0000
0000
0000
1000
0000
0000
0000
0000
0000
0010
0000
0000
0000
0000
0000
0000
0000
0000
0000
0000
0000
,
0100
0000
0001
0000
1000
0100
0010
0100
1000
0010
0001
0000
1000
0100
0010
0000
,
1000
0000
0001
0010
0001
0010
0100
0000
1000
0000
0001
0100
0000
0010
0100
0010
,
0100
0000
0000
0000
0000
0000
0110
0000
0000
0000
0000
0000
0010
0000
0000
1000
0000
0000
0001
0000
0000
0000
0000
0000
1000
0000
0100
0000
1000
0000
0100
0000
0000
0010
0000
0000
0001
0000
0000
1000
0000
0000
0001
0000
0000
0000
0000
0000
,
0001
0000
0000
0000
0100
0000
0000
0000
0001
0000
0000
0000
0100
0000
0000
0000
0000
0000
0010
0000
0000
0000
0000
0000
1000
0000
0000
0000
0000
0000
0001
0000
0000
0000
0000
0000
1000
0000
0000
0000
0000
0000
0000
0000
0000
0000
0000
0000
0001
0000
0000
0000
0000
0000
1000
0000
0000
0100
0000
0000
1000
0000
0000
0000
0000
0000
0010
0000
0000
0000
0000
0000
0100
0000
0000
0000
0000
0000
0001
0000
0000
0100
0000
0000
0001
0000
0000
0000
0000
0000
0010
0000
0000
0000
0000
0000
,
0100
0000
0000
0000
0000
0000
0010
0000
0000
0000
0000
0000
0001
0000
0000
0000
0000
0000
0010
0000
0000
0000
0000
0000
0100
0000
0000
0000
0000
0000
1000
0000
0000
0000
0000
0000
0001
0000
0000
0000
0000
0000
0100
0000
0000
0000
0000
0000
0010
0000
0000
0000
0000
1000
0000
0000
0000
0000
0000
0000
0001
0000
0000
0000
0000
0000
0000
0000
0000
0000
0000
0000
0001
0000
0000
0000
0000
0000
0010
0000
0000
0000
0000
0000
0100
0000
0000
0000
0000
0000
0000
0000
0000
0000
0000
0000
,
1000
0000
0000
0000
0000
0000
0000
0000
0000
0000
0000
0000
0001
0000
0000
0000
0000
0000
0000
0000
0000
0000
0000
0000
1000
0000
0000
0000
0000
0001
0000
0000
0000
0000
0000
0000
0100
0000
0000
0000
0000
0000
0010
0000
0000
0000
0000
0000
0100
0000
0000
0000
0000
0001
0000
0000
0000
0000
0000
0000
1000
0000
0000
0000
0000
0000
0000
0000
0000
0000
0000
0000
0001
0000
0000
0000
0000
0000
1000
0000
0000
0000
0000
0000
0100
0000
0000
0000
0000
0000
0000
0000
0000
0000
0000
0000
,
0010
0000
0000
0000
0000
0001
0000
0000
0000
0000
0000
0000
1000
0000
0000
0000
0000
0000
0000
0000
0000
0000
0000
0000
0001
0000
0000
0000
0000
1000
0000
0000
0000
0000
0000
0000
0010
0000
0000
0000
0000
0000
0000
0000
0000
0000
0000
0000
0100
0000
0000
0000
0000
0001
0000
0000
0000
0000
0000
0000
0010
0000
0000
0000
0000
0000
0100
0000
0000
0000
0000
0000
1000
0000
0000
0000
0000
0010
0000
0000
0000
0000
0000
0000
0100
0000
0000
0000
0000
0000
0001
0000
0000
0000
0000
0000
,
0010
0000
0000
0000
0000
0100
0000
0000
0000
0000
0000
0000
1000
0000
0000
0000
0000
0000
0010
0000
0000
0000
0000
0000
0100
0000
0000
0000
0000
0000
0001
0000
0000
0000
0000
0000
0010
0000
0000
0000
0000
0000
0000
0000
0000
0000
0000
0000
0010
0000
0000
0000
0000
0000
0100
0000
0000
0000
0000
0000
1000
0000
0000
0000
0000
0000
0000
0000
0000
0000
0000
0000
0001
0000
0000
0000
0000
0000
0100
0000
0000
0000
0000
0000
0010
0000
0000
0000
0000
0000
0000
0000
0000
0000
0000
0000
,
0100
0000
0001
0010
1000
0010
0001
1000
0100
0010
0001
0000
1000
0010
0100
0000
,
0001
0000
1000
0000
0001
0010
0100
0000
1000
0001
0100
0000
0100
0010
0000
1000
,
0001
0000
1000
0100
0001
0100
1000
0001
0010
0100
1100
0000
1000
0000
1001
0000
,
1000
0000
0101
0000
0001
0000
1001
0000
0100
0010
0110
0000
1000
0000
1001
0000
,
0001
0000
0011
0000
0001
1000
1100
0000
1000
0001
0101
0000
0101
0000
1100
0000
,
1100
1010
1010
0011
0011
1001
0110
1001
,
0020
0000
0000
0000
0230
0000
0000
0000
0300
0000
1001
0000
0000
0001
0100
0000
,
0001
0000
1000
0000
0100
0010
0001
0000
1000
0000
1010
0000
0010
0100
0000
0100
,
0001
0000
0000
1000
0000
0000
0001
0000
0010
0000
0100
0000
0010
0000
0100
0000
1000
0000
0001
0000
0000
0000
0100
0000
0000
0000
0110
0000
0000
0000
0000
0000
0000
0000
0000
0000
0000
0000
0000
0000
0000
0000
0000
0000
0000
0000
0000
0000
;
