#TITLE:ラブトリップサマー;
#SUBTITLE:;
#ARTIST:syudou;
#TITLETRANSLIT:Love Trip Summer;
#SUBTITLETRANSLIT:;
#ARTISTTRANSLIT:syudou;
#GENRE:POP;
#CREDIT:;
#MUSIC:Love Trip Summer.ogg;
#BANNER:Love Trip Summer.png;
#BACKGROUND:Love Trip Summer-bg.png;
#CDTITLE:;
#SAMPLESTART:42.776;
#SAMPLELENGTH:15.750;
#SELECTABLE:YES;
#OFFSET:1.474;
#BPMS:0.000=160.000;
#STOPS:;
#LASTBEATHINT:1.208941;
#BGCHANGES:6.250=Love Trip Summer.avi=1.000=0=0=0=StretchNoLoop====,
99999.000=-nosongbg-=1.000=0=0=0=StretchNoLoop====
;
#FGCHANGES:;

//--------------- dance-single - ----------------
#NOTES:
     dance-single:
     :
     Medium:
     12:
     0.562575,0.603557,0.286783,0.321757,0.076942,563,522,41,46,0,0,0.562575,0.603557,0.286783,0.321757,0.076942,563,522,41,46,0,0:
0000
0000
0000
0000
,
0000
0000
0000
0000
,
0000
0000
0000
0000
,
0000
0000
0000
0000
,
0000
0000
0000
0000
,
0000
0000
0000
0000
,
1001
0000
0001
1000
0100
0000
1000
0001
,
0100
0010
0100
0001
0020
0000
0130
0000
,
1100
0000
0101
0001
1000
0000
1100
1000
,
0001
0010
0001
0100
0020
0000
0130
0000
,
0000
0000
0001
0000
1000
0000
0001
0100
0000
0001
1000
0000
0100
0000
0010
0000
,
0000
0000
0010
0000
0001
0000
1000
0100
0000
1000
0001
0000
0010
0000
0001
0000
,
0100
0000
0010
1000
0100
0000
0010
0001
,
0200
0310
0200
0310
0200
0000
0310
0000
,
1020
0000
0230
0000
0302
0000
1003
0100
,
0001
0100
1000
0010
0001
0010
1000
0001
,
1000
0000
0000
0100
0000
0000
1000
0000
0001
0000
0000
0100
0000
0000
0001
0000
,
1000
0100
0010
0001
0010
0100
1000
0001
,
2000
0000
3020
0000
0230
0000
0301
0100
,
1000
0100
0001
0010
1000
0010
0001
1000
,
0001
0000
0000
0100
0000
0000
0001
0000
2000
0000
0000
0000
3200
0000
0000
0000
,
0320
0000
0000
0031
2000
0000
3000
0000
,
0011
0000
0010
0100
0000
0100
1000
0000
,
1000
0001
0100
0001
1000
0010
0100
0000
,
0110
0000
0010
1000
0000
1000
0001
0000
,
0001
0010
0000
0010
0100
1000
0001
1000
,
0002
0000
0103
0100
2000
0000
3100
0100
,
0002
0000
0013
0010
2000
0000
3020
0000
,
2030
3200
0320
0032
,
2003
0000
0000
0000
3001
0010
0100
1000
,
0001
0101
1000
1100
,
0001
0000
0101
0000
1000
0000
1000
0100
,
0001
0000
0001
0100
1000
0010
1000
0100
,
0010
0001
0100
1000
0100
0001
2000
0000
,
3001
0101
1000
1100
,
0001
0000
0101
0000
1000
0000
0001
0100
,
1000
0000
1000
0100
0001
0010
0001
0100
,
0010
1000
0100
0001
0100
0000
0100
1000
,
0020
0000
0000
0130
0002
0000
0000
1003
,
0010
0000
0000
0100
0000
0000
0001
0000
0010
0000
0100
0000
1000
0000
0001
0000
,
0020
0000
0000
0000
,
0000
0000
0000
0000
,
0100
0001
0100
1000
,
0130
1000
0001
0100
0010
1000
0001
0010
,
0100
0000
0000
1000
0001
0000
0000
0000
0100
0000
0000
0001
1000
0000
0000
0000
,
0100
0000
0000
1000
0000
0000
0001
0000
0000
0100
0000
0000
0010
0000
1000
0000
,
0001
0000
1000
0000
0010
0100
0000
0000
0001
0000
1000
0000
0100
0010
0000
0000
,
0001
1000
0001
0020
0000
0130
1000
0001
,
0100
0010
1000
0001
,
0010
0001
1000
0000
0010
1000
0001
0000
,
0010
0000
0100
0000
1000
0000
0001
1000
,
0001
0000
0100
0010
0100
0001
2000
0000
,
3200
0000
0320
0000
0032
0000
1003
0010
,
0001
0010
1000
0100
0001
0100
1000
0001
,
1000
0000
0000
0010
0000
0000
0100
0000
0001
0000
0000
0010
0000
0000
0100
0000
,
1000
0001
1000
0001
0100
0010
1000
0001
,
0200
0000
0320
0000
2030
0000
3001
0010
,
1000
0010
0001
0100
1000
0100
0001
1000
,
0010
0000
0000
0100
0000
0000
0001
0000
1000
0000
0000
0000
0001
0000
0000
0000
,
0020
0000
0000
0230
0000
2300
0000
3001
,
0100
0000
0010
0100
0000
1000
0100
0000
,
0010
1000
0001
0010
0100
1000
0001
0000
,
0010
0000
0100
0001
0000
0100
0010
0000
,
0100
1000
0000
0001
0100
0010
1000
0001
,
0010
1001
0100
1001
,
0010
1001
0100
1001
,
0001
0010
0100
1000
0001
1000
0100
0010
,
0002
0000
0203
0000
,
0000
0000
0000
0000
0310
1000
0001
1000
,
0100
0011
0100
1010
,
0100
0000
0011
0000
0100
0000
1000
0001
,
1000
0000
0010
0100
0010
1000
0001
0010
,
0100
1000
0001
0100
1000
0100
0001
0000
,
0010
1100
0010
0101
,
0010
0000
1100
0000
0010
0000
0001
1000
,
0001
0000
0100
0010
0100
0001
1000
0100
,
0001
0100
1000
0000
0001
0010
0100
1000
,
0001
0100
0101
0000
1000
0100
1100
0000
,
0001
0100
0101
0000
0110
0000
1000
0001
,
1000
0000
0001
0100
1000
0100
0010
0001
,
1000
0100
0001
0010
0100
1000
0001
0000
,
1000
0010
1010
0000
0001
0010
0011
0000
,
1000
0010
1010
0000
0110
0000
0001
1000
,
0001
0000
1000
0100
0001
0100
0010
1000
,
0001
0100
1000
0010
0001
0000
0001
0010
,
0200
0000
0000
0301
2000
0000
0000
3001
,
0010
0000
0000
0010
0000
0000
1000
0000
0100
0000
0000
0100
0000
0000
0001
0000
,
1000
0000
0000
0100
0000
0000
0100
0000
0001
0000
0000
0010
0000
0000
0010
0000
,
1000
0100
0001
0100
1000
0100
0001
0100
,
1100
0000
0011
0000
0001
0010
0100
1000
,
1100
0000
1001
0000
0001
0100
0010
1000
,
1010
0000
0101
0000
0100
0001
0010
0100
,
0110
0000
1001
0000
1000
0100
0010
0001
,
0011
0000
1100
0000
0001
1000
0010
0100
,
0002
0000
0013
0100
2000
0000
3001
1000
,
0001
0000
0000
0100
0000
0000
0010
0000
1000
0000
0001
0000
0010
0000
0100
0000
;

//--------------- dance-single - ----------------
#NOTES:
     dance-single:
     :
     Hard:
     16:
     0.778412,0.804742,0.314762,0.188857,0.531599,779,734,45,27,0,0,0.778412,0.804742,0.314762,0.188857,0.531599,779,734,45,27,0,0:
0000
0000
0000
0000
,
0000
0000
0000
0000
,
0000
0000
0000
0000
,
0000
0000
0000
0000
,
0000
0000
0000
0000
,
0000
0000
0000
0000
,
0110
0000
0000
1000
0010
0000
0100
0000
0101
0000
0000
0001
0010
0000
0100
0000
,
1000
0010
0100
0001
0101
0000
1100
0000
,
0110
0000
0000
0001
0010
0000
0100
0000
1100
0000
0000
1000
0010
0000
0100
0000
,
0001
0010
0001
0100
0020
1000
1030
0000
,
0001
0000
0010
0000
1000
0000
0010
0100
0000
1000
0001
0010
0100
0000
1000
0000
,
0000
0000
1000
0000
0010
0000
0001
0010
0000
0100
0010
0000
1000
0000
0001
0000
,
0020
0000
0130
1000
0002
0000
1003
0001
,
0200
1300
0200
0301
0200
0310
0110
0000
,
2010
0000
3020
0000
0230
0000
0301
0010
,
0100
0000
1000
0000
0001
0000
1000
0010
0100
0000
1000
0000
0100
0000
0001
0000
,
0011
0000
0000
0110
0000
0000
1100
0000
1010
0000
0000
0110
0000
0000
0101
0000
,
0001
0000
0010
0000
1000
0000
0010
0001
0100
0000
0010
0000
1000
0000
0010
0000
,
0102
0000
0023
0000
0230
0000
1300
0010
,
0100
0001
0010
1000
0001
0100
1000
0010
,
0110
0000
0000
1010
0000
0000
0101
0000
1002
0000
0000
0000
0023
0000
0000
0000
,
2030
0000
3010
0001
0200
0010
0310
0000
,
1010
0000
0000
1000
0010
0000
0100
0000
0000
0001
0010
0000
0100
0000
0000
1000
,
0010
0100
0001
0010
0001
0100
0010
1000
,
0001
0000
0000
0010
0100
0000
1000
0000
0000
0010
0100
0000
0001
0000
0000
0010
,
0100
0000
1000
0000
0000
0100
0010
0000
0001
0000
1000
0000
0100
0000
1000
0000
,
0002
0000
1003
0100
2100
0000
3001
0100
,
0102
0000
0013
0100
0120
0000
0032
0000
,
0013
0000
0100
1000
0100
0000
1000
0001
1000
0000
0001
0010
0100
1000
0001
0010
,
0200
0000
1300
0110
,
1001
0000
0001
0010
0001
0000
1000
0100
1000
0000
0001
0010
0001
0000
1000
0100
,
1000
0000
0001
0010
0001
0000
1000
0100
2000
0000
0000
0000
3001
0000
0100
0000
,
0010
0000
0000
1000
0001
0000
0010
0000
0100
0000
1000
0000
0001
0000
1000
0000
,
0010
0000
0100
0001
0010
0000
0100
1000
0010
0000
0100
0001
0020
0000
0000
0000
,
0130
0000
1000
0010
1000
0000
0001
0100
0001
0000
1000
0010
1000
0000
0001
0100
,
0001
0000
1000
0010
1000
0000
0001
0100
0002
0000
0000
0000
1003
0000
0010
0000
,
0100
0000
0000
0100
0001
0000
0010
0000
0100
0000
0010
0001
1000
0000
0010
0000
,
0100
1000
0100
0001
0101
0000
0100
0001
,
0020
0000
0130
1000
0002
0000
0103
1000
,
0200
0000
0000
1000
0000
0000
0010
0000
0301
0000
0010
0000
0100
0000
1000
0000
,
0001
0000
0000
1000
0000
0000
0100
0000
1000
0000
0000
0001
0000
0000
0100
0000
,
0001
0000
0000
1000
0000
0000
0100
0000
1000
0000
0000
0001
0000
0000
0100
0000
,
0010
0000
1000
0001
1000
0000
0010
0000
0100
0001
0100
0001
0010
0000
0100
1000
,
0001
0000
0100
0010
0100
0000
0010
1000
0001
0000
0010
0000
0100
0000
1000
0000
,
1100
0000
0000
1000
0010
0000
0100
0000
0101
0000
0000
0001
0010
0000
0100
0000
,
1100
0000
1000
0010
0000
0010
0100
0000
0100
0001
0000
0001
1000
0000
0100
0000
,
0001
0000
0100
1000
0100
1000
0000
0001
0100
0000
0010
0000
1000
0001
0000
0010
,
0100
0000
0100
1000
0000
1000
0002
0000
0000
0000
0103
0000
0010
0000
0100
0000
,
0010
1000
0001
0000
0010
0000
1000
0000
0010
0000
0001
0000
0010
0001
1000
0000
,
0001
0000
0100
0000
1000
0100
0001
0000
1000
0000
0100
0000
0001
0000
0000
0100
,
1000
0000
0000
0001
0000
0000
1000
0000
0010
0000
0000
0100
0001
0100
0001
0000
,
1000
0000
0100
0010
0000
0100
1000
0000
0001
0000
1000
0000
0010
0000
0100
0000
,
0110
0000
1010
0000
0101
0000
0001
0010
,
0100
0000
1000
0000
0001
0000
0010
0000
1000
0000
0010
0000
0001
0000
1000
0010
,
0001
0000
0000
0011
0000
0000
0110
0000
1001
0000
0000
0011
0000
0000
0001
0000
,
0010
1000
0001
0100
1000
0001
0010
0100
,
1100
0000
1001
0000
0011
0000
0001
0010
,
0100
0010
0001
1000
0010
0001
0010
1000
,
1010
0000
0000
0101
0000
0000
1001
0000
0010
0000
0000
0000
0100
0000
0000
0000
,
0110
0000
0001
1000
0000
1000
0000
1000
,
0110
0000
0000
0001
1000
0000
0100
0000
0000
0100
1000
0000
0010
0000
0000
0010
,
0100
0100
0001
1000
0100
0010
0001
1000
,
1001
0000
0000
1000
0010
0000
0100
0000
0000
0100
0001
0000
0010
0000
0000
0010
,
0100
0000
1000
0000
0001
0000
1000
0000
0010
0000
0100
0000
0010
0000
0100
0001
,
1000
0000
0001
0000
0101
0000
0001
1000
0100
0000
1000
0000
1100
0000
1000
0001
,
0010
0000
0001
0000
1001
0000
0001
1000
0010
0000
0100
0000
0110
0000
0100
0000
,
0001
0000
0010
0100
1000
0000
0001
0010
0100
0000
1000
0001
0010
0100
1000
0001
,
0200
0000
0310
0000
,
0000
0000
0000
0000
0001
1000
0100
0010
,
0011
0000
0001
0010
0100
0000
1000
0100
0010
0000
0001
0010
0100
0000
1000
0100
,
0010
0000
0001
0010
0100
0000
1000
0100
0020
0000
0000
0000
0130
0000
1000
0000
,
0010
0000
0000
0010
0100
0000
0001
0000
1000
0000
1000
0000
0010
0000
0100
0000
,
0001
0000
0100
0010
0100
0000
1000
0100
0001
0000
1000
0000
0001
0000
0000
0000
,
0101
0000
0001
0100
0010
0000
1000
0010
0100
0000
0001
0100
0010
0000
1000
0010
,
0100
0000
0001
0100
0010
0000
1000
0010
0200
0000
0000
0000
0301
0000
0100
0000
,
0010
0000
0000
1000
0001
0000
0010
0000
0100
0000
1000
0001
0100
0000
0010
0000
,
1000
0001
0101
0000
1001
1000
0010
0100
,
0001
0000
0100
0001
0010
0000
0001
0100
1000
0000
0100
0001
0010
0000
0001
0100
,
1000
0000
0100
0001
0010
0000
0001
0100
2000
0000
0000
0000
3100
0000
0001
0000
,
1000
0000
0000
0100
0001
0000
0100
0000
1000
0000
0001
0100
0001
0000
0010
0000
,
0100
0000
1000
0001
0010
0000
0100
1000
0001
0000
1000
0000
0200
0000
0000
0000
,
0310
0000
0100
1000
0010
0000
1000
0100
0001
0000
0100
1000
0010
0000
1000
0100
,
0001
0000
0100
1000
0010
0000
1000
0100
0002
0000
0000
0000
0103
0000
1000
0000
,
0001
0000
0000
0100
0010
0000
1000
0000
0001
0000
0010
0100
1000
0000
0001
0000
,
0100
1000
0100
0010
0002
0000
0013
1000
,
0100
0000
0100
1000
0001
0000
0001
0010
,
0200
0000
0000
1000
0000
0000
0001
0000
0320
0000
0000
0001
0000
0000
1000
0000
,
0230
0000
0000
1000
0000
0000
0010
0000
2300
0000
0000
0001
0000
0000
0010
0000
,
3100
0000
1000
0000
0001
0100
0001
0100
0001
0000
0010
0100
0010
0000
0001
0000
,
1000
0000
0001
0100
0001
0000
1000
0100
1000
0000
0001
0100
0001
0000
0010
0000
,
0110
0000
0000
0000
1000
0100
1000
0100
1000
0000
0010
0100
0010
0000
1000
0000
,
0001
0000
1000
0100
1000
0000
0001
0100
0001
0000
1000
0100
1000
0000
0010
0000
,
0110
0000
0000
0000
0001
0010
0001
0010
0001
0000
0100
0010
0100
0000
0001
0000
,
1000
0000
0001
0010
0001
0000
1000
0010
1000
0000
0001
0010
0001
0000
0010
0000
,
0200
0000
1300
0001
0020
0000
0130
1000
,
0001
0000
0000
0100
0000
0000
0001
0000
1000
0000
0001
0000
0100
0000
0110
0000
;

//--------------- dance-single - ----------------
#NOTES:
     dance-single:
     :
     Challenge:
     17:
     0.975264,1.207114,0.559578,0.090931,0.965271,976,896,80,13,0,0,0.975264,1.207114,0.559578,0.090931,0.965271,976,896,80,13,0,0:
0000
0000
0000
0000
,
0000
0000
0000
0000
,
0000
0000
0000
0000
,
0000
0000
0000
0000
,
0000
0000
0000
0000
,
0000
0000
0000
0000
,
0101
0000
0000
0100
0001
0000
1000
0000
1100
0000
0000
0100
1000
0000
0001
0010
,
0100
0000
0010
0000
0001
0000
1000
0010
0100
0000
0000
0000
0110
0000
0000
0000
,
0101
0000
0000
0001
0100
0000
0010
0000
1010
0000
0000
1000
0100
0000
0010
0000
,
0001
0010
1000
0010
0002
1000
1003
0000
,
0001
0000
0100
0000
1000
0000
0100
0010
0000
1000
0100
0001
0100
0000
0120
0000
,
0000
0000
0130
0000
1000
0000
0001
0100
0000
0010
1000
0000
0001
0000
0100
0000
,
1010
0000
1000
0100
0011
0000
0001
2000
,
3200
0300
1002
0000
0203
0300
2001
0000
3200
0000
0010
0000
0320
0000
0000
0000
,
1030
0000
0010
0100
1000
0000
0100
0000
0001
0000
0010
0100
0001
0000
0100
0000
,
1000
0000
0010
0100
0001
0000
0010
0100
1000
0000
0010
0000
0100
0000
0001
0000
,
0101
0000
0000
0100
0010
0000
0100
0000
1010
0000
0000
1000
0001
0000
0010
0000
,
1100
0000
1000
0000
0001
0010
0100
1000
0020
0000
0100
0000
0130
0000
0010
0000
,
1000
0000
0100
0010
1000
0000
0010
0000
0001
0000
0100
0010
0001
0000
0010
0000
,
1000
0000
0100
1000
0001
0000
0010
0001
1000
0000
0010
0000
0100
0000
0010
0000
,
1010
0000
0000
1000
0010
0000
0100
0000
0010
0000
1000
0000
0002
0000
0000
0000
,
0013
0000
0000
0100
0000
0000
1000
0001
1000
0001
0000
0000
0020
0000
0000
0100
0000
0000
0130
0000
0000
0000
0000
0000
,
1100
0000
0000
1000
0001
0000
0101
0000
0000
0100
0010
0000
1010
0000
0000
1000
,
0001
0000
0000
0010
0000
0000
0010
0000
0000
0100
0000
0000
1000
0000
0000
0001
0000
0000
0010
0000
0000
0100
1000
0100
,
1000
0000
0000
0001
0100
0000
0110
0000
0000
0010
1000
0000
1001
0000
0000
0001
,
0010
0000
0000
0000
0000
0000
0110
0000
0000
0000
0000
0000
0000
0000
0000
0100
0000
0000
1000
0000
0000
0000
0000
0000
0001
0000
0000
0000
0000
0000
0100
0000
0000
0000
0000
0000
0010
0000
0000
0000
0000
0000
1000
0000
0100
0000
0010
0000
,
0002
0000
0000
0000
0103
0010
0100
0000
2100
0000
0000
0000
3100
0010
0100
0000
,
0102
0000
0000
0000
0013
0100
0010
0000
2010
0000
0000
0000
3020
0000
0000
0000
,
0031
1000
0100
1000
0001
0100
0010
0100
0001
0010
0100
1000
0001
0010
0100
1000
,
0010
0100
0010
0100
0010
0100
0010
0100
0010
0100
0010
0100
0010
0000
0000
0000
0000
0000
1001
0000
0000
0000
0000
0000
,
0101
0000
0001
0200
0010
0000
0301
0000
0011
0000
0001
0020
0100
0000
0031
0000
,
0101
0000
0001
0200
0010
0000
0301
0000
0011
0000
0010
0000
0100
0000
1000
0000
,
1001
0000
0001
0100
0010
0100
0010
0100
0001
0000
0010
0000
1000
0000
0010
0000
,
0001
0000
0000
0000
0000
0000
1000
0000
0000
0001
0000
0000
0010
0000
0000
0000
0000
0000
0100
0000
0000
1000
0000
0000
0001
0000
0000
0000
0000
0000
0100
0000
0000
0010
0000
0000
1000
0000
0001
0000
1000
0000
0001
0000
1000
0000
0001
0000
,
1000
0000
1000
0200
0010
0000
1300
0000
1010
0000
1000
0020
0100
0000
1030
0000
,
1100
0000
1000
0200
0010
0000
1300
0000
1010
0000
0010
0000
0100
0000
0001
0000
,
1001
0000
1000
0010
0100
0010
0100
0010
1000
0000
0001
0010
0100
0000
1000
0000
,
0110
0000
0000
0000
0000
0000
1000
0000
0000
0010
0000
0000
0100
0000
0000
0000
0000
0000
0001
0000
0000
0010
0000
0000
0100
0000
0000
0000
0000
0000
1000
0000
0000
0010
0000
0000
0100
0000
0001
0000
1000
0000
0001
0000
1000
0000
0001
0000
,
0010
0000
0000
0010
0100
0000
0100
1000
0001
0000
0000
0001
0100
0000
1000
0000
,
0200
0000
0000
0010
0000
0000
0301
0000
0010
0000
0100
0000
1000
0000
0001
0000
,
0100
0000
0000
0100
0000
0000
0100
0000
0100
0000
0000
0100
0000
0000
0100
0000
,
0100
0000
0000
0100
0000
0000
0100
0000
0100
0000
0000
0100
0000
0000
0100
0000
,
0100
0000
0000
0000
0000
0000
0100
0000
0000
0010
0000
0000
0100
0000
0000
0000
0000
0000
0100
0000
0000
0000
0000
0000
0100
0000
0000
0010
0000
0000
0100
0000
0000
0010
0000
0000
0100
0000
0000
0000
0000
0000
0100
0000
0010
0000
0100
0000
,
0010
1000
0001
1000
0001
0000
0001
0010
0100
0000
1000
0000
0001
0000
0100
0000
,
0110
0000
0000
1000
0001
0000
0100
0000
0110
0000
0000
0001
1000
0000
0100
0000
,
0110
0000
0010
0001
0000
0001
0100
0000
0100
0010
0000
0010
1000
0000
0100
0000
,
0001
0000
0100
1000
0001
1000
0000
0001
0100
0000
1000
0000
0100
0001
0000
0001
,
0010
0000
0010
0100
1000
0001
0020
0000
0000
0000
0230
0000
1000
0000
1300
0000
,
0001
0100
0001
0100
0001
0000
1000
0000
0010
0100
0010
0000
1000
0001
1000
0100
,
0010
0000
0000
0000
0100
0000
0000
0000
1000
0000
0100
0000
1000
0000
0001
0000
0100
0000
0001
0000
0010
0000
0000
0000
0100
0000
1000
0001
0010
0000
0000
0000
,
0000
0000
0000
0000
0000
0000
0010
0000
0000
0000
0000
0000
0100
0000
0000
0000
0000
0000
1000
0000
0000
0000
0000
0000
0001
0000
0000
0000
0000
0000
0000
0000
0000
0000
0000
0000
0000
0000
0000
0000
0000
0000
0000
0000
0000
0000
0000
0000
0001
0000
0000
0000
0000
0000
0000
0000
0000
0100
0000
0000
0000
0000
0000
0010
0000
0000
0000
0000
0000
0000
0000
0000
0000
0000
0000
0000
0000
0000
0000
0000
0000
0100
0000
0000
0000
0000
0001
0000
0000
0000
1000
0000
0000
0000
0000
0000
,
0010
1000
0010
0100
0000
0000
0110
0000
0000
0000
0000
0000
0010
0000
0100
0000
,
0110
0000
0000
1000
0010
0000
0100
0000
0010
0000
0000
0000
0100
0000
0001
0000
,
1000
0000
0100
0010
0100
0000
1000
0000
0001
0000
0010
0000
0100
0000
1000
0100
,
0001
0000
0000
0101
0000
0000
0100
1000
0010
0000
0000
1010
0000
0000
1000
0010
,
0001
0010
1000
0100
0010
0001
0010
0100
,
1100
0000
0000
1000
0010
0000
0100
0000
0001
0000
1000
0100
1000
0000
0010
0000
,
0100
0000
0001
0010
0100
0000
1000
0010
0100
0000
1000
0000
0100
0000
0001
0000
,
1001
0000
1000
0100
0000
0010
0100
0000
1000
0000
0010
0000
0100
0000
0001
0000
,
0101
0000
0100
0002
0000
0203
0000
0310
,
0110
0000
0001
0100
1000
0000
0100
0000
0001
0000
1000
0100
0001
0000
0100
0000
,
0010
0000
0000
0100
0000
0000
1000
0000
0000
0001
0000
0000
1000
0000
0000
0010
0000
0000
0100
0000
0000
0001
1000
0001
,
2000
3100
0010
1002
0103
0010
2001
3100
,
0010
0000
0000
0000
0000
0000
0001
0000
0000
0100
0000
0000
0010
0000
0000
0000
0000
0000
0001
0000
0000
0000
0000
0000
0010
0000
0000
0100
0000
0000
0000
0000
0000
0001
0000
0000
0010
0000
0000
0000
0000
0000
0100
0000
1000
0000
0100
0000
,
1000
0000
0010
0100
0010
0000
0011
0000
1010
0000
1000
0001
1000
0000
1100
0000
,
0110
0000
0000
0000
0000
0000
0100
0000
0000
0010
0000
0000
0100
0000
0000
0000
0000
0000
0110
0000
0000
0000
0000
0000
0011
0000
0000
0000
0000
0000
0001
0000
0000
1000
0000
0000
0001
0000
0000
0000
0000
0000
1000
0000
0100
0000
1000
0000
,
0100
0010
0100
1000
0001
0100
0010
0100
0001
0010
0100
1000
0100
0010
0001
1000
,
0010
0100
0010
0100
0010
0100
0010
0100
0010
0100
0010
0100
0010
0000
0000
0000
0000
0000
0000
0000
0000
0000
0000
0000
,
0000
0000
0000
0110
,
0101
0000
0001
0200
1000
0000
0310
0000
1010
0000
1000
0020
0001
0000
0130
0000
,
0101
0000
0001
0200
1000
0000
0310
0000
0110
0000
0100
0000
0001
0000
1000
0000
,
1001
0000
0001
0010
0100
0010
0100
0010
0001
0000
1000
0100
0001
0000
0100
0000
,
1000
0000
0000
0000
0000
0000
0001
0000
0000
0100
0000
0000
0010
0000
0000
0000
0000
0000
1000
0000
0000
0100
0000
0000
0010
0000
0000
0001
0000
0000
0010
0000
0000
0100
0000
0000
1000
0000
0001
0000
1000
0000
0001
0000
1000
0000
0001
0000
,
0010
0000
1000
0020
0001
0000
0130
0000
1100
0000
1000
0200
0001
0000
0310
0000
,
0011
0000
0001
0020
1000
0000
0130
0000
0110
0000
0010
0000
0001
0000
1000
0000
,
1001
0000
1000
0010
0100
0010
0100
0010
1000
0000
0001
0100
1000
0000
0100
0000
,
0010
0000
1000
0001
0010
0000
0100
0000
1100
0000
1000
0000
0001
0000
0100
0000
,
0101
0000
0001
0100
0010
1000
0001
0010
2000
0000
3010
0001
0100
0010
1000
0010
,
0002
0000
0013
1000
0100
0010
0001
0010
2000
0000
3010
0001
1000
0000
0010
0000
,
0100
0001
0010
0100
1000
0100
0010
0100
1000
0100
0001
0100
0010
0100
1000
0001
,
0100
0000
0000
0010
0000
0000
0100
0000
0000
0001
0000
0000
0100
0000
0000
1000
0000
0000
0100
0000
0000
0010
0000
0000
0100
0000
0000
0001
0000
0000
1000
0000
0000
0100
0000
0000
0010
0000
0001
0000
1000
0000
0100
0000
0010
0000
0001
0000
,
1000
0000
0001
0100
0010
0100
1000
0001
0020
0000
1030
0100
0010
0100
0001
1000
,
0020
0000
0031
0100
0010
0100
1000
0001
0020
0000
0130
0001
1000
0100
0010
0001
,
1000
0000
0001
0100
0010
0000
0001
0000
0010
0000
1000
0100
0010
0000
1000
0000
,
0010
0000
0001
1000
0001
0000
0100
0000
0110
0000
0001
0000
0010
0000
0100
0000
,
2000
0000
0000
0000
3020
0000
0130
0001
2000
0000
0000
0000
3010
0000
0100
0000
,
0101
0000
0000
0110
0000
0000
1010
0000
1100
0000
0000
0110
0000
0000
0011
0000
,
1001
0000
0000
0101
0000
0000
1100
0000
0210
0000
0000
2300
0000
0000
3002
0000
,
0013
0000
0001
0010
1000
0010
0001
0010
1000
0000
0010
0001
1000
0000
0010
0000
,
0100
0000
0001
0100
1000
0000
0001
0010
1000
0000
0100
0000
0010
0000
0001
0000
,
1001
0000
0000
0000
0000
0000
0000
0000
0000
0000
0000
0000
0001
0000
0000
0100
0000
0000
1000
0000
0000
0100
0000
0000
0001
0000
0000
0000
0000
0000
1000
0000
0001
0000
1000
0000
0001
0000
0000
0000
0000
0000
0010
0000
0000
0000
0000
0000
,
0100
0000
0000
0000
0000
0000
1000
0000
0000
0100
0000
0000
0001
0000
0000
0000
0000
0000
1000
0000
0000
0010
0000
0000
0001
0000
0000
0000
0000
0000
0100
0000
0000
0001
0000
0000
1000
0000
0100
0000
1000
0000
0100
0000
1000
0000
0100
0000
,
1000
0000
0000
0000
0000
0000
0000
0000
0000
0000
0000
0000
1000
0000
0000
0010
0000
0000
0001
0000
0000
0010
0000
0000
1000
0000
0000
0000
0000
0000
0001
0000
1000
0000
0001
0000
1000
0000
0000
0000
0000
0000
0100
0000
0000
0000
0000
0000
,
0010
0000
0000
0000
0000
0000
0001
0000
0000
0010
0000
0000
1000
0000
0000
0000
0000
0000
0001
0000
0000
0100
0000
0000
1000
0000
0000
0000
0000
0000
0001
0000
0000
0000
0000
0000
0100
0000
0010
0000
0100
0000
0010
0000
0100
0000
0010
0000
,
0100
0000
0000
0010
1000
0000
0001
0000
0010
0000
0100
1000
0001
0000
0100
0000
,
0010
0000
0000
0010
0000
0000
1000
0000
0001
0000
1000
0000
0010
0000
0110
0000
;
