#TITLE:ラブカ?;
#SUBTITLE:;
#ARTIST:柊キライ feat Ado;
#TITLETRANSLIT:Love Ka?;
#SUBTITLETRANSLIT:;
#ARTISTTRANSLIT:Hiiragi Kirai feat Ado;
#GENRE:POP;
#CREDIT:;
#BANNER:Love Ka.png;
#BACKGROUND:Love Ka-bg.jpg;
#LYRICSPATH:;
#CDTITLE:;
#MUSIC:Love Ka.ogg;
#OFFSET:1.922000;
#SAMPLESTART:67.566002;
#SAMPLELENGTH:14.444000;
#LASTBEATHINT:1.152500;
#SELECTABLE:YES;
#DISPLAYBPM:67.500000:135.000000;
#BPMS:0.000000=75.000000
,4.000000=103.000000
,11.000000=72.000000
,11.500000=90.000000
,12.000000=103.000000
,19.000000=75.000000
,19.500000=90.000000
,20.000000=109.000000
,25.000000=115.000000
,26.000000=124.999992
,27.000000=135.000000
,78.000000=67.500000
,80.000000=135.000000
,92.000000=67.500000
,94.000000=135.000000
,138.000000=67.500000
,139.000000=33.750000
,139.500000=135.000000
,203.500000=67.500000
,205.500000=33.750000
,206.500000=135.000000
,238.500000=138.000000
,238.583328=141.000000
,238.666672=144.000000
,238.750000=147.000000
,238.833328=150.000000
,238.916672=153.000000
,239.000000=156.000000
,239.083328=159.000000
,239.166672=162.000000
,239.250000=165.000000
,239.333328=168.000000
,239.416672=171.000000
,239.500000=174.000000
,239.583328=177.000000
,239.666672=180.000000
,239.750000=183.000000
,239.833328=186.000000
,239.916672=189.000000
,240.000000=192.000000
,240.083328=195.000000
,240.166672=198.000000
,240.250000=201.000000
,240.333328=204.000000
,240.416672=207.000000
,240.500000=210.000000
,240.583328=213.000000
,240.666672=216.000000
,240.750000=219.000000
,240.833328=222.000000
,240.916672=225.000000
,241.000000=228.000000
,241.083328=231.000000
,241.166672=234.000000
,241.250000=237.000000
,241.333328=240.000000
,241.416672=243.000015
,241.500000=246.000000
,241.583328=249.000000
,241.666672=251.999985
,241.750000=255.000000
,241.833328=258.000000
,241.916672=261.000000
,242.000000=264.000000
,242.083328=267.000000
,242.166672=270.000000
,242.250000=273.000000
,242.333328=276.000000
,242.416672=279.000000
,242.500000=282.000000
,242.583328=285.000000
,242.666672=288.000000
,242.750000=291.000000
,242.833328=294.000000
,242.916672=297.000000
,243.000000=300.000000
,243.083328=270.000000
,243.166672=240.000000
,243.250000=210.000000
,243.333328=180.000000
,243.416672=150.000000
,243.500000=120.000000
,243.583328=100.000000
,243.666672=80.000000
,243.750000=60.000000
,243.833328=40.000000
,243.916672=20.000000
;
#STOPS:
;
#BGCHANGES:2.375=Love Ka.avi=1.000=0=0=0=====,
99999=-nosongbg-=1.000=0=0=0 // don't automatically add -songbackground-
;
#KEYSOUNDS:;
#ATTACKS:;

//---------------dance-single - ----------------
#NOTES:
     dance-single:
     :
     Hard:
     14:
     0.626428,0.752855,0.246922,0.408698,0.527902,515.000000,486.000000,29.000000,48.000000,0.000000,0.000000,0.626428,0.752855,0.246922,0.408698,0.527902,515.000000,486.000000,29.000000,48.000000,0.000000,0.000000:
0000
0000
0000
0000
,
1000
0000
0000
0000
0000
0001
0100
0000
0000
0000
0000
0010
1000
0000
0000
0100
0000
0000
0010
0000
0000
0001
0000
0000
,
1000
0000
0000
0000
0000
1000
0100
0000
0000
0000
0000
0010
0001
0000
0000
0000
0000
0000
1002
0000
0000
0000
0000
0000
,
0013
0000
0000
0000
0000
0100
1000
0000
0001
1000
0000
0100
1000
0000
0000
0100
0000
0000
0010
0000
0000
0001
0000
0000
,
1000
0000
0010
0100
0000
0010
0100
0000
0000
0110
0000
0000
1001
0000
0000
0000
0000
0000
0011
0000
0000
0010
0000
0000
,
0200
1000
2300
0010
3020
0100
0230
0001
,
0302
0010
0023
0100
0230
1000
2300
0000
,
3001
0000
0100
0000
0010
0000
0100
0000
0110
0000
0000
0000
1000
0001
1000
0001
,
0100
0100
0100
0100
0110
0010
1000
0010
,
1000
0000
0000
1010
0000
0000
0101
0000
0000
0000
0001
0000
0010
0000
0001
0000
,
0020
0000
0000
0130
1000
0000
0010
0000
0100
0000
0010
0000
1000
0000
0001
0100
,
2000
0000
0000
0000
3100
0001
0010
0100
,
1000
0000
0100
0010
0000
0001
2000
0000
0000
0000
0000
0000
3100
0000
0000
0010
0000
0000
0001
0000
0000
0010
0000
0000
,
0001
0000
0000
0011
0000
0000
1100
0000
0000
0000
1000
0000
0010
0000
1000
0000
,
0020
0000
0000
1030
0001
0000
0011
0000
0010
0000
0100
0000
1000
0000
0001
0010
,
2000
0000
0000
0000
0000
0000
0000
0000
0000
0000
0000
0000
3010
0000
0000
0000
0000
0000
0001
0000
0000
0100
0000
0000
0001
0000
0000
0000
1000
0000
0100
0000
0000
0000
1000
0000
0100
0000
0000
0000
0010
0000
0001
0000
0000
0000
0010
0000
,
0001
0000
0000
0000
1000
0000
0010
0000
0000
0000
1000
0000
0010
0000
0000
0000
0100
0000
0001
0000
0000
0000
0020
0000
0000
0000
0000
0000
0000
0000
0130
0000
0000
0000
0000
0000
1000
0000
0000
0010
0000
0000
0000
0000
0000
0000
0100
0000
,
0000
0000
0001
0000
2000
0000
0000
0000
0000
0000
3100
0010
0100
0010
0000
0110
,
0000
0000
1000
0000
0001
0200
0000
0000
0000
0000
0310
0000
0100
0000
0001
0000
,
0000
0000
0010
0000
0100
0000
2000
0000
0000
3010
0100
0010
0100
0010
0100
0001
,
1000
0000
0000
0000
0000
0000
0001
0000
0000
0000
0000
0000
1000
0000
0000
0100
0000
0000
0000
0000
0000
0010
0000
0000
0000
0000
0000
0000
0000
0001
0000
0000
0000
0000
0000
0000
2000
0000
0000
0000
0000
0000
0000
0000
0000
0000
0000
0000
,
3000
0000
0010
0000
0100
0001
0000
1001
0000
0000
1000
0000
1000
0200
0000
0000
,
0000
0310
0001
0100
0000
0010
1000
0200
,
0000
1300
0001
1000
0001
1000
0010
0100
0010
0000
0100
0000
0001
0010
0000
1100
,
0000
0000
0010
0000
0002
0000
0000
0000
0000
0000
1003
0100
1000
0100
0000
0010
,
0000
0000
0010
0000
0001
2000
0000
0000
0000
0000
3010
0000
0100
0000
0001
0000
,
0000
0010
0100
1000
0000
0001
0100
1000
,
0100
0000
0001
0000
1000
0100
0010
0000
0000
0000
0001
0000
1000
0010
0000
0110
,
0000
0000
0010
0000
2000
0000
0000
0000
0000
0000
3001
0100
0001
0100
0000
0000
,
1000
0000
0100
0000
0001
0020
0000
0000
0000
0000
0130
0000
1000
0000
0010
0000
,
0000
0100
0001
0010
0000
0100
1000
0010
,
1000
0100
0010
0001
1001
0001
0010
0100
,
0110
0000
0010
0100
1001
0000
0010
0100
,
0010
0100
0010
1000
1001
0000
0001
0010
,
0100
0000
1000
0000
0001
0000
0010
0000
0200
0000
1000
0000
0301
0000
1000
0100
,
1000
0100
1000
0001
0000
1000
0010
0000
0100
0002
0000
0000
1003
0000
0000
0001
,
0100
0001
0100
0010
0000
0100
0001
0000
1000
0020
0000
0000
0130
0000
0000
0000
,
0001
0000
0010
0000
0010
0000
0000
0001
0010
0100
1000
0000
0001
0000
0100
0000
,
0010
0000
0100
0000
0010
0000
0100
0000
0001
0000
0010
0000
0100
0000
0000
1000
,
0100
1000
0100
0010
0000
0100
1000
0000
0001
0020
0000
0000
0130
0000
0000
1000
,
0010
1000
0010
0100
0000
0010
1000
0000
0001
0200
0000
0000
0310
0000
0000
0000
,
0100
0000
1000
0000
0100
0000
0001
0010
0001
0010
0001
0000
1000
0000
0100
0000
,
0010
0000
0100
0000
1000
0000
0100
0000
0001
0000
0100
0000
1000
0000
0001
0100
,
0001
0100
0010
1000
0000
0001
0100
0000
0010
2000
0000
0000
3001
0000
0010
0000
,
0200
0000
0000
0000
0000
0000
0000
0000
2300
0000
0000
0000
0000
0000
0000
0000
3002
0000
0000
0000
0000
0103
0000
0000
0010
0000
0000
0100
0000
0000
0010
0000
0000
0100
0000
0000
0001
0000
0000
0000
0000
0000
1000
0000
0000
0100
0000
0000
,
1000
0100
0010
0001
0000
1000
0100
0000
0010
0002
0000
0000
0013
0000
0100
0000
,
1000
0000
0010
0000
0001
0000
2000
3000
0200
0300
0002
0003
0020
0030
0100
0010
,
0100
0010
0100
1000
0000
0001
0010
0000
0100
2000
0000
0000
3010
0000
0000
0100
,
0010
0100
0010
1000
0000
0001
0100
0000
0010
2000
0000
0000
3001
0000
0000
0000
,
0010
1000
0010
0001
0100
1000
0100
0001
,
1010
0001
1010
0001
1100
0001
1100
0002
,
0000
0000
1003
0000
0001
0000
1000
0000
0001
0000
1000
0000
0001
0100
0010
0100
0010
0100
0010
1000
0001
0000
0000
0000
1000
0000
0000
0000
0010
0000
0000
0000
,
1000
0000
0010
0000
0000
1010
0000
0000
0101
0000
0000
0000
0001
0000
0010
0000
,
0001
0000
0020
0000
0000
0130
1000
0000
0010
0000
0100
0000
0010
0000
1000
0000
,
0001
0100
2000
0000
0000
0000
0000
0000
0000
0000
3100
0000
0001
0000
0100
0000
,
0001
0100
0001
0100
0010
1000
0001
0010
,
0001
0000
0010
0000
0000
0011
0000
0000
1100
0000
0000
0000
1000
0000
0010
0000
,
1000
0000
0020
0000
0000
1030
0001
0000
0011
0000
0010
0000
0100
0000
1000
0000
,
0001
0010
2000
0000
0000
0000
3010
0000
0001
0000
0100
0000
0010
0000
0100
0000
,
0010
0100
0010
1000
0001
2002
0000
0000
,
0000
0000
0000
0000
0000
0000
0000
0000
0000
0000
0000
0000
0000
0000
0000
0000
0000
0000
0000
0000
0000
0000
0000
0000
0000
0000
0000
0000
0000
0000
0000
0000
0000
0000
0000
0000
0000
0000
0000
0000
0000
0000
0000
0000
0000
0000
0000
3003
;

//---------------dance-single - ----------------
#NOTES:
     dance-single:
     :
     Challenge:
     16:
     0.833210,0.856990,0.672650,0.280980,1.119663,685.000000,606.000000,79.000000,33.000000,136.000000,0.000000,0.833210,0.856990,0.672650,0.280980,1.119663,685.000000,606.000000,79.000000,33.000000,136.000000,0.000000:
// measure 0
0000
0000
0000
0000
0000
0000
0000
0000
0000
0000
0000
0000
0000
0000
0000
0000
0000
0000
0000
1000
0100
0010
0001
1000
,  // measure 1
0100
0000
0000
1001
0000
0001
0010
0000
0000
1001
0000
1000
0010
0000
0000
0100
0000
0000
0001
0000
0000
1000
0000
0000
,  // measure 2
0010
0000
0000
0100
0000
0001
1000
0000
0000
0010
0000
0100
0001
0000
0000
1000
0000
0000
0001
0100
0010
1000
0001
0100
,  // measure 3
0010
0000
0000
1001
0000
1000
0010
0000
1000
0100
0000
1000
0010
0000
0000
0100
0000
0000
0010
0000
0000
1000
0010
0100
,  // measure 4
0001
0000
1000
0010
0000
0100
0001
0000
0000
0110
0000
0000
1001
0000
0000
0001
0000
0000
0010
0100
0000
1000
0000
0000
,  // measure 5
0002
0100
0023
0001
0230
1000
0320
0001
,  // measure 6
0032
0100
2003
0100
3002
0010
2003
0000
,  // measure 7
3010
0000
0000
0100
0000
0000
0010
0000
0000
0100
0000
0000
0110
0000
0000
0000
0000
0000
1000
0010
0100
0001
1000
0100
,  // measure 8
0010
0000
0000
0010
0000
0000
0010
0000
0000
0010
0000
0000
0110
0000
0100
1000
0000
0100
0010
0000
0100
1000
0000
0100
,  // measure 9
0010
0000
0000
0000
0000
0000
0000
0000
0000
0110
0000
0000
0000
0000
0000
0000
0000
0000
1001
0000
0000
0000
0000
0000
0001
0000
0000
0000
0100
0000
0010
0000
0000
0000
0100
0000
0001
0000
0000
0000
0100
0000
0010
0000
0000
0000
0000
0000
,  // measure 10
2000
0000
0000
0000
0000
3100
0001
0000
0000
0100
0000
0000
1000
0000
0000
0010
0000
0100
0001
0000
1000
0100
0010
0001
,  // measure 11
2000
0000
3001
0100
0010
0100
1000
0100
,  // measure 12
0001
0000
0010
0100
0000
0010
0002
0000
0000
0000
0000
0000
1003
0000
0100
0010
0000
0100
1000
0000
0100
0010
0000
0001
,  // measure 13
1000
0000
0000
0000
0000
0000
0000
0000
0000
1010
0000
0000
0000
0000
0000
0000
0000
0000
0101
0000
0000
0000
0000
0000
0001
0000
0000
0000
0100
0000
0010
0000
0000
0000
0100
0000
1000
0000
0000
0000
0000
0000
0100
0000
0000
0000
0000
0000
,  // measure 14
0002
0000
0000
0000
0000
0013
0100
0000
0000
1100
0000
0000
1000
0000
0000
0001
0000
0100
0010
0000
0000
1000
0100
0010
,  // measure 15
0002
0000
0000
0000
0000
0000
0013
0000
0000
0100
0010
0100
1000
0000
0100
0010
0000
0100
0001
0000
0100
1000
0000
0010
,  // measure 16
0100
0000
0000
0000
0010
0000
0001
0000
0000
0000
0010
0000
0100
0000
0000
0000
0010
0000
1000
0000
0000
0000
0020
0000
0000
0000
0000
0000
0000
0000
0130
0000
0000
0000
0000
0000
0001
0000
0000
1000
0000
0000
0000
0000
0000
0000
0100
0000
,  // measure 17
0000
0000
0010
0000
0002
0000
1000
0000
0013
0000
0100
1000
0001
0100
0000
0110
,  // measure 18
0000
0000
1010
0000
0100
0002
0000
0000
1000
0000
0013
0000
0100
0000
1100
0000
,  // measure 19
0000
0000
0000
0000
0000
0000
0010
0000
0000
0000
0000
0000
0001
0000
0000
0000
0000
0000
2001
0000
0000
0000
0000
0000
0000
0000
0000
3010
0000
0000
0010
0000
0000
0010
0000
0000
0010
0000
0000
0010
0000
0000
0100
0000
0001
0010
0000
0000
,  // measure 20
0100
0000
0000
0000
0000
0000
0010
0000
0000
0000
0000
0000
0001
0000
0000
1000
0000
0000
0000
0000
0000
0100
0000
0000
0000
0000
0000
0000
0000
0011
0000
0000
0000
0000
0000
0000
2100
0000
0000
0000
0000
0000
0010
0000
0000
0000
0000
0000
,  // measure 21
3001
0000
0000
0000
0000
0000
0100
0000
0000
0000
0010
0000
0100
0000
0000
0010
0000
0000
0000
0000
0000
0110
0000
0000
0000
0000
0000
0000
0000
0000
1000
0000
0000
0000
0000
0000
0001
0000
0000
0020
0000
0000
0000
0000
0000
0000
0000
0000
,  // measure 22
0100
0130
0010
0011
0000
0001
1000
1002
,  // measure 23
0003
0000
0000
0100
0000
0000
0100
0000
0000
0100
0000
0000
0100
0000
0000
0100
0000
0100
0001
0000
0001
1000
0000
0000
0010
0000
0000
0000
0000
0000
0100
0000
0000
0000
0000
0000
0001
0000
0000
1000
0000
0000
0000
0000
0000
1100
0000
0000
,  // measure 24
0000
0000
0110
0000
0021
0000
0100
0000
0130
0000
1000
0010
0100
0010
0000
0110
,  // measure 25
0000
0000
0100
0000
0001
2000
0000
0000
0001
0000
3100
0000
0010
0000
0110
0000
,  // measure 26
0000
0100
1000
1001
0000
0001
0100
1000
,  // measure 27
0100
0000
0000
0000
0000
0000
0001
0000
0000
0000
0000
0000
1000
0000
0000
0000
0100
0000
0010
0000
0000
0000
0000
0000
0110
0000
0000
0000
0000
0000
1000
0000
0000
0000
0000
0000
0001
0000
0000
0100
0000
0000
0000
0000
0000
1010
0000
0000
,  // measure 28
0000
0000
0101
0000
1020
0000
0100
0000
0130
0000
0001
0010
0100
0010
0000
0000
,  // measure 29
0100
0000
1000
0000
0001
2000
0000
0000
0100
0000
3010
0000
0100
0000
0101
0000
,  // measure 30
0000
0010
1000
1100
0000
1000
0100
0001
,  // measure 31
0100
0000
0000
1000
0000
0000
0001
0000
0000
0100
0000
0000
0110
0000
0000
0010
0000
0000
0110
0000
0100
0001
0000
0001
,  // measure 32
0010
0000
0000
0110
0000
0100
1000
0000
0000
1100
0000
0000
0011
0000
0000
0010
0000
0001
0100
0000
0010
1000
0000
0000
,  // measure 33
1001
0000
0000
1001
0000
0001
0010
0000
0010
0100
0000
0000
0110
0000
0000
0110
0000
0100
1000
0000
1000
0001
0000
0000
,  // measure 34
0101
0000
0000
0100
1000
0100
0010
0000
0100
0001
0000
0000
0010
0000
0000
0100
0000
0000
0110
0000
0000
1001
0000
0001
,  // measure 35
0100
0000
0000
0000
0100
0000
0010
0000
0000
0000
0010
0000
0000
0000
0000
0000
0100
0000
0001
0000
0000
0000
0000
0000
1000
0000
0000
0001
0000
0000
0000
0000
0000
0000
0000
0000
0011
0000
0000
0000
0000
0000
0000
0000
0000
0000
1000
0000
,  // measure 36
0100
0000
0000
0000
0100
0000
0010
0000
0000
0000
0010
0000
0000
0000
0000
0000
0100
0000
1000
0000
0000
0000
0000
0000
0001
0000
0000
1000
0000
0000
0000
0000
0000
0000
0000
0000
1010
0000
0000
0000
0000
0000
0000
0000
0000
0000
0000
0000
,  // measure 37
0010
0000
0000
0100
0000
0000
0110
0000
0000
0100
0000
0001
1000
0000
1000
0100
0000
0000
0110
0000
0000
0011
0000
0000
,  // measure 38
0001
0000
0000
1010
0000
0000
1000
0000
0000
0101
0000
0000
0001
0000
0000
1100
0000
0000
0110
0000
0000
0000
0000
0001
,  // measure 39
0010
0000
0000
0000
0010
0000
0100
0000
0000
0000
0100
0000
0000
0000
0000
0000
0010
0000
0001
0000
0000
0000
0000
0000
1000
0000
0000
0001
0000
0000
0000
0000
0000
0000
0000
0000
0100
0000
0000
0000
0000
0000
1001
0000
0000
0000
1000
0000
,  // measure 40
0010
0000
0000
0000
0010
0000
0100
0000
0000
0000
0100
0000
0000
0000
0000
0000
0010
0000
1000
0000
0000
0000
0000
0000
0001
0000
0000
1000
0000
0000
0000
0000
0000
0000
0000
0000
1100
0000
0000
0000
0000
0000
0000
0000
0000
0000
0000
0000
,  // measure 41
1001
0000
0000
1000
0000
0010
0100
0000
0000
0100
0000
0001
0010
0000
0010
0100
0000
0000
1000
0000
0000
0100
0000
0000
,  // measure 42
0011
0000
0000
0100
0000
0000
1010
0000
0000
0100
0000
0000
0110
0000
0000
0010
0000
0000
1001
0000
0000
0100
0000
0001
,  // measure 43
0010
0000
0000
0000
0001
0000
0100
0000
0000
0000
1000
0000
0000
0000
0000
0000
0100
0000
0010
0000
0000
0000
0000
0000
0010
0000
0000
1000
0000
0000
0000
0000
0000
0000
0000
0000
0100
0000
0000
0000
0000
0000
0001
0000
0000
0000
0000
0000
,  // measure 44
0200
0000
0000
0000
2300
0000
0000
0000
3020
0000
0000
0130
1000
0100
0010
0100
0000
0001
1000
0000
0000
0100
0000
0010
,  // measure 45
0001
0000
0000
0010
0000
0100
0000
0000
1000
0010
0000
0000
0001
0000
0010
0000
0000
0000
0110
0000
0000
1000
0000
0000
,  // measure 46
1010
0000
0000
0101
0000
0000
1010
0000
0000
0010
0000
0100
0001
0000
0000
1000
0000
0100
0010
0000
0000
0001
0000
0100
,  // measure 47
0010
0000
0000
0000
0100
0000
0001
0000
0000
0000
0010
0000
0000
0000
0000
0000
0100
0000
1000
0000
0000
0000
0000
0000
0001
0000
0000
1000
0000
0000
0000
0000
0000
0000
0000
0000
0010
0000
0000
0000
0000
0000
0100
0000
0000
0000
0001
0000
,  // measure 48
0010
0000
0000
0000
0100
0000
0010
0000
0000
0000
1000
0000
0000
0000
0000
0000
0010
0000
0001
0000
0000
0000
0000
0000
0100
0000
0000
0001
0000
0000
0000
0000
0000
0000
0000
0000
0010
0000
0000
0000
0000
0000
0000
0000
0000
0000
0000
0000
,  // measure 49
0100
0000
0000
1000
0000
0000
1010
0000
0000
0010
0000
0100
0001
0000
0001
0010
0000
0000
0100
0000
0000
1000
0000
0000
,  // measure 50
0011
0001
1010
1000
0101
0001
1100
1001
,  // measure 51
0000
0000
0000
0000
0000
0000
0000
0000
0000
0000
0000
0000
0001
0000
0000
0000
0000
0000
0000
0000
0000
0000
0000
0000
0100
0000
0000
0000
0000
0000
0000
0000
0000
0000
0000
0000
0001
0000
0000
0000
0000
0000
0000
0000
0000
0000
0000
0000
1000
0000
0000
0000
0000
0000
0000
0000
0000
0000
0000
0000
0010
0000
0000
0000
0000
0000
0000
0000
0000
0000
0000
0000
1000
0000
0000
0000
0000
0000
0100
0000
0000
0000
0000
0000
0100
0000
0000
0000
0000
0000
0100
0000
0000
0000
0000
0000
0100
0000
0000
0000
0000
0000
0100
0000
0000
0000
0000
0000
0100
0000
0000
0000
0000
0000
0010
0000
0000
0000
0000
0000
0100
0000
0000
0000
0000
0000
0000
0000
0000
0000
0000
0000
0000
0000
0000
0000
0100
0000
0000
0000
0000
0000
0000
0000
0001
0000
0000
0000
0000
0000
0000
0000
0000
0000
0000
0000
0000
0000
0000
0000
0100
0000
0000
0000
0000
0000
0000
0000
0010
0000
0000
0000
0000
0000
0000
0000
0000
0000
0000
0000
0000
0000
0000
0000
0100
0000
0000
0000
0000
0000
0000
0000
,  // measure 52
0001
0000
0000
0000
0100
0000
0010
0000
0000
0000
0000
0000
0000
0000
0000
0110
0000
0000
0000
0000
0000
0000
0000
0000
1001
0000
0000
0000
0000
0000
1000
0000
0000
0000
0100
0000
0010
0000
0000
0000
0100
0000
1000
0000
0000
0000
0100
0000
,  // measure 53
0010
0000
0000
0002
0000
0000
0000
0000
0103
1000
0000
0000
0100
0000
0000
0001
0000
0000
0010
0000
0100
1000
0000
0001
,  // measure 54
0100
0010
1000
0002
0000
0000
0000
0000
0000
1003
0000
0000
0010
0000
0000
0100
0000
0000
0100
0000
0000
0100
0000
0000
,  // measure 55
0100
0000
0010
0100
0000
0001
0100
0000
0010
0100
0000
0001
0010
0000
0000
0110
0000
0100
0010
0000
0100
0001
0000
0100
,  // measure 56
0010
0000
0000
0000
0001
0000
1000
0000
0000
0000
0000
0000
0000
0000
0000
0011
0000
0000
0000
0000
0000
0000
0000
0000
1100
0000
0000
0000
0000
0000
1000
0000
0000
0000
0100
0000
0010
0000
0000
0000
0100
0000
0001
0000
0000
0000
0000
0000
,  // measure 57
0100
0000
0000
2000
0000
0000
0000
0000
3010
0100
0000
0000
0101
0000
0000
0001
0000
0000
1000
0000
0100
0010
0000
0000
,  // measure 58
0001
0100
0010
2000
0000
0000
0000
0000
0000
3010
0000
0000
0010
0000
0100
0010
0000
1000
0010
0000
0100
0010
0000
1000
,  // measure 59
0010
0000
0000
0000
0100
0000
0010
0000
0100
0000
0010
0000
0100
0000
0010
0000
0100
0000
0010
0000
0000
0000
0000
0000
0110
0000
0000
0000
0000
0000
2MM2
0MM0
0MM0
0MM0
0MM0
0MM0
0MM0
0MM0
0MM0
0MM0
0MM0
0MM0
0MM0
0MM0
0MM0
0MM0
0MM0
0MM0
,  // measure 60
0MM0
0MM0
0MM0
0MM0
0MM0
0MM0
0MM0
0MM0
0MM0
0MM0
0MM0
0MM0
0MM0
0MM0
0MM0
0MM0
0MM0
0MM0
0MM0
0MM0
0MM0
0MM0
0MM0
0MM0
0MM0
0MM0
0MM0
0MM0
0MM0
0MM0
0MM0
0MM0
0MM0
0MM0
0MM0
0MM0
0MM0
0MM0
0MM0
0MM0
0MM0
0MM0
0MM0
0MM0
0MM0
0MM0
0MM0
3MM3
,  // measure 61
MMMM
0000
0000
0000
;
