#TITLE:Los! Los! Los!;
#SUBTITLE:;
#ARTIST:ターニャ・デグレチャフ;
#TITLETRANSLIT:Los! Los! Los!;
#SUBTITLETRANSLIT:;
#ARTISTTRANSLIT:Tanya Degurechaff;
#GENRE:ANIME;
#CREDIT:;
#MUSIC:Los! Los! Los!.ogg;
#BANNER:Los! Los! Los!.png;
#BACKGROUND:Los! Los! Los!-bg.png;
#CDTITLE:;
#SAMPLESTART:54.707;
#SAMPLELENGTH:16.073;
#SELECTABLE:YES;
#OFFSET:1.264;
#BPMS:0.000=120.000;
#STOPS:;
#LASTBEATHINT:0.588842;
#BGCHANGES:2.500=Los! Los! Los!.avi=1.000=0=0=0=StretchNoLoop====,
99999.000=-nosongbg-=1.000=0=0=0=StretchNoLoop====
;
#FGCHANGES:;

//--------------- dance-single - ----------------
#NOTES:
     dance-single:
     :
     Hard:
     15:
     0,0,0,0,0:
0000
0000
0000
0000
,
0001
0100
0010
0100
0001
0010
0100
0010
0001
0100
0001
0100
0010
1000
0010
1000
,
1000
0100
0010
0100
1000
0010
0100
0010
1000
0100
1000
0100
0010
0001
0010
0100
,
1000
0100
0010
0000
0001
0010
0100
0000
1000
0001
1000
0000
1001
0000
0110
0000
,
0001
0100
0010
0000
1000
0010
0100
0000
0001
1000
0001
0000
1001
0000
0110
0000
,
0001
0100
1000
0000
1000
0100
0001
0000
0001
0100
0010
0000
0110
0000
1001
0000
,
1000
0100
0001
0000
0001
0100
1000
0000
1000
0100
1000
0100
0010
0001
0010
0001
,
0010
0100
1000
0001
1000
0000
0001
0100
0010
1000
0001
0000
1000
0100
0010
0000
,
0001
0000
0001
0010
0100
1000
0100
0000
0010
0000
1001
0000
0001
0000
1000
0100
,
1000
0000
0001
0100
0001
0000
1000
0010
1000
0000
0001
0010
0001
0000
0001
0100
,
0010
0100
1000
0100
0001
0010
0100
0010
1000
0010
0100
0001
0100
1000
0010
0100
,
0101
0101
0011
0011
0101
0011
1001
1001
,
1010
1010
1100
1100
1010
1100
1001
0110
,
1001
0000
0001
0000
1000
0010
1000
0100
0010
0000
0010
0001
0000
0001
0100
0001
,
1000
0000
1001
0000
1000
0001
0100
0010
1000
0000
1000
0100
0000
0100
0010
0001
,
0010
0100
1000
0000
1000
0001
0100
0000
0001
1000
0100
0010
0000
0010
0001
0100
,
0101
0000
1010
0000
0101
0000
1010
0000
0010
1000
0010
1000
0001
0010
0001
1000
,
1100
0100
1000
0100
1100
1000
0100
1000
2100
0000
0001
0000
0001
0000
3001
0000
,
0101
0001
0100
0001
0101
0100
0001
0100
0102
0000
1000
0000
1000
0000
1003
0000
,
0001
0100
0010
0000
0010
0100
0001
0000
0001
0010
0100
0010
0001
0000
1001
0000
,
1000
0100
0010
0000
0010
0100
1000
0000
1000
0010
0100
0010
1000
0100
0010
0001
,
1100
0110
1100
0110
0101
0110
0101
0110
,
1010
1010
0011
0011
0101
1100
1010
0011
,
1001
0000
1000
0100
0010
0100
0010
0001
1000
0000
1000
0010
0000
0100
0001
1000
,
0001
0100
0010
0000
0010
1000
0100
0000
0100
0010
0100
1000
0100
1000
0010
0100
,
1001
0001
0101
1000
1001
0001
0011
0010
,
1100
1100
0101
0101
,
2002
0000
0000
0000
0000
0000
3003
0000
1001
0000
0000
0000
1000
0100
0010
0001
,
1000
0100
0001
0100
1000
0000
0001
0100
1000
0100
0001
0000
0001
0010
0100
0000
,
0110
0000
0100
1000
0010
0000
0010
1000
0100
0000
0010
0001
0100
0010
1000
0100
,
0010
0011
1000
1100
0010
0101
0010
1100
,
0100
1000
0001
0000
0100
0001
1000
0000
1000
0100
1000
0100
0001
0100
0001
0000
,
0001
0100
1000
0100
0010
0000
0001
0100
1000
0100
0010
0000
0010
1000
0100
0000
,
1001
0000
0001
0010
0100
1000
0001
0010
0100
0000
0100
0000
1000
0100
1000
0001
,
0100
0000
0001
0100
0001
0000
1000
0100
1000
0000
0001
0010
0001
1000
0100
1000
,
0100
0010
0100
1000
0001
0100
0010
1000
0001
0010
0100
1000
0001
0010
0100
1000
,
1100
0000
1000
0100
0010
0000
0011
0000
0001
0010
0100
1000
0001
1000
0100
1000
,
0010
0000
0100
0001
1000
0001
1000
0100
0010
0100
0000
0100
1000
0000
0001
0010
,
0100
0010
0100
0001
0100
0001
0100
1000
0001
1000
0001
0100
0010
0100
0001
1000
,
0100
1000
0100
0010
0001
0010
0001
0100
0010
1000
0001
0100
0001
1000
0100
1000
,
0001
0010
0100
1000
0010
0010
0010
0010
0100
0100
0100
0100
1001
0000
0000
0000
,
0010
0001
1000
0000
0010
1000
0001
0000
1000
0010
0100
0000
0100
0001
0100
0010
,
1000
0100
0010
0001
1000
0100
1000
0001
0010
0100
1000
0001
1000
0001
0100
0010
,
1000
0100
0001
0000
0001
0100
1000
0000
1000
0010
0001
0010
1000
0000
0110
0000
,
0100
0001
0100
0010
1000
0001
0100
0001
1000
0100
1000
0001
0010
0010
1001
0000
;

//--------------- dance-single - ----------------
#NOTES:
     dance-single:
     :
     Challenge:
     18:
     0.100321,0.082775,0,0,0,64,64,0,0,0,0,0.100321,0.082775,0,0,0,64,64,0,0,0,0:
0000
0000
0000
0000
,
0001
0100
0001
0100
0010
1000
0100
0010
0001
0100
0001
0100
0010
1000
0010
0100
,
0001
0000
0010
0000
0001
0000
0010
0000
0100
0000
1000
0000
0010
0000
0100
0000
0001
0000
0010
0000
0001
0000
0010
0000
0001
0010
0001
0010
0100
1000
0100
1000
,
0001
0010
0011
0000
1000
0010
1010
0000
0001
1000
1001
0000
1001
0000
0110
0000
,
1100
1000
0100
0000
0101
0001
0100
0000
1001
1000
0001
0000
1001
0000
0110
0000
,
0001
0100
1010
0000
1000
0100
0011
0000
0100
0010
1001
0000
1001
0000
0110
0000
,
1010
0000
0100
0000
0001
0000
0000
0000
0011
0000
0100
0000
1000
0000
0000
0000
1001
0000
1000
0000
0001
0000
1000
0000
0001
0010
0100
1000
0001
0010
0100
1000
,
0001
0100
0010
1000
1001
0000
0001
0010
0001
0010
0110
0000
1000
0100
0011
0000
,
1010
0000
1000
0010
0100
0001
0100
0001
0101
0000
1001
0000
0001
0010
0100
1000
,
1100
0100
0010
0011
0001
0100
0101
0100
0010
1010
1000
0100
0110
0100
0101
0100
,
1100
1000
0100
0010
0001
0010
0001
0010
0100
1000
0100
1000
0001
1000
0010
0100
,
1010
1010
0011
0011
1100
0101
1001
1001
,
0011
0100
1000
0001
0100
0010
0100
0001
1000
0010
0100
0010
1000
0001
0100
0001
,
1001
0000
0011
0000
0001
0010
0001
1000
1100
0000
0010
0011
0000
0001
0100
0010
,
0110
0000
0110
0000
1001
0001
0100
0010
1001
0000
0001
0011
0010
0100
1000
0100
,
0110
0001
1000
0000
0110
1000
0001
0000
0110
0001
1000
0001
0011
0010
0100
1000
,
1010
0010
0101
0000
0011
0010
1100
0000
0010
0100
0010
0100
1001
0010
0100
0010
,
1010
0000
0100
0000
0001
0000
0100
0000
1010
0000
0001
0000
0100
0000
0001
0000
1010
0000
1000
0000
0001
0000
1000
0100
1000
0000
0001
0000
0010
0000
0100
0000
,
0011
0000
0100
0000
1000
0000
0100
0000
0011
0000
1000
0000
0100
0000
1000
0000
0011
0000
0001
0000
1000
0000
0001
0000
1000
0000
0001
0100
0001
0000
0010
0000
,
0100
1000
0001
0000
0001
0100
1000
0000
0001
0010
1000
0100
0001
0000
0110
0000
,
1000
0000
0100
0000
0001
0000
0000
0000
1000
0000
0010
0000
0001
0000
0000
0000
0100
0001
0100
0000
0010
1000
0010
0000
0100
0000
0010
0000
0100
0000
0010
0000
,
0110
1000
0001
0000
0110
0001
1000
0000
1000
0100
0010
0100
1000
0001
0011
0000
,
1001
0000
0000
0000
0001
0000
0100
0000
0001
0000
0000
0000
0001
0000
0010
0000
0100
0000
0000
0000
0100
0000
1000
0000
0001
0010
0001
0000
0010
0000
0100
0000
,
1000
0000
0100
0000
1100
0000
0000
0000
0001
0000
0100
0000
0101
0000
0000
0000
0100
0001
0100
0000
0010
0100
0010
0000
1000
0010
1000
0010
0100
0000
0001
0000
,
0010
0000
0100
0000
1100
0000
0000
0000
1000
0000
0010
0000
1010
0000
0000
0000
0001
0000
0010
0000
0011
0000
0010
0100
1000
0000
0100
0000
0010
0000
0100
0000
,
1001
0001
0011
1000
1010
0001
0101
1000
,
1100
1100
0101
0101
,
2002
0000
0000
0000
0000
0000
0000
0000
0000
0000
0000
0000
3003
0000
0000
0000
1001
0000
0000
0000
0000
0000
0000
0000
1000
0100
0010
0001
1000
0100
0010
0001
,
1000
1000
0001
0001
1001
0000
0001
0001
1000
1000
1001
0000
0001
0010
0100
0000
,
0011
0000
0000
0000
1000
0000
0010
0000
0110
0000
0100
0000
0001
0000
1000
0000
1010
0000
0000
0000
1000
0000
0001
0000
1000
0100
1000
0100
1000
0000
0100
0000
,
0110
0000
0011
0000
0100
1000
1100
0000
1001
0000
0001
0000
0101
0000
1100
0000
,
0101
0000
1000
0000
1100
0000
0000
0000
1000
0000
1000
0000
0001
0000
0001
0000
1000
0100
1000
0001
1000
0100
1000
0001
1000
0100
1000
0001
1000
0000
0000
0000
,
0101
0001
0001
0001
1001
0000
1100
1000
1000
1000
1001
0000
0001
1000
0001
0000
,
1001
0000
0000
0000
0001
0000
0010
0000
0110
0000
0100
0000
1000
0000
0001
0000
0011
0000
0000
0000
1100
0000
1000
0000
0001
0100
0001
0000
1000
0100
1000
0000
,
1001
0000
0000
0000
0001
0000
0010
0000
1100
0000
0000
0000
1000
0000
0010
0000
0101
0000
0000
0000
0100
0000
0010
0000
0110
0000
0100
0000
0010
0000
1000
0010
,
0100
0000
0001
0100
0001
0000
0100
0010
1000
0000
0001
0000
1000
0000
0010
0000
0100
0000
0001
0000
0010
0000
0100
0000
1000
0000
0001
0000
0010
0000
0100
0000
,
1100
0000
0000
0000
1100
0000
0100
0010
0001
0000
0000
0000
0011
0000
0000
0000
0011
0000
0001
0000
0010
0000
0100
1000
0100
0000
0010
0000
0001
0000
1000
0000
,
1100
0000
0000
0000
1000
0000
0001
0100
0010
0000
1000
0000
0010
0000
0100
0000
0001
0000
0101
0000
0000
0000
1000
0000
1001
0000
0000
0000
0001
0100
0001
0100
,
0001
0000
0010
0000
0100
0000
1000
0000
0001
0000
0100
0000
1000
0000
0100
0000
0001
0000
1000
0000
0100
0000
0010
0000
0001
0000
1000
0000
0100
0000
0010
0001
,
0100
0010
1000
0001
1000
0001
0010
0100
0010
0001
1000
0100
1000
0001
0100
0001
,
1000
0000
0010
0000
0100
0000
0001
0000
1000
0001
1000
0100
1000
0001
1000
0100
0010
0001
0010
0100
0010
0001
0010
0100
1000
0000
0000
0000
0000
0000
0000
0000
,
0011
0001
1001
0000
1010
1000
1001
0000
1001
0010
0110
0000
1001
0001
0010
0100
,
1100
0000
1000
0000
0101
0000
0001
0000
0011
0000
1000
0000
1010
0000
0010
0000
1000
0000
0100
0000
0010
0001
0010
0100
1000
0000
0001
0000
0100
0000
0001
0000
,
0110
0000
0000
0000
0000
0000
0010
1000
0100
0000
0000
0000
0001
0000
0000
0000
0100
0000
1000
0000
0100
0000
0010
0001
1000
0000
0100
0000
0010
0000
0001
0000
,
0100
0000
0001
0000
0100
0000
0010
0000
1000
0000
0010
0000
1000
0000
0001
0000
1000
0010
0100
0001
1000
0000
0010
0000
0110
0000
0100
0000
1001
0000
0000
0000
;
