#TITLE:ラヴィ;
#SUBTITLE:;
#ARTIST:すりぃ feat.鏡音レン;
#TITLETRANSLIT:Lavie;
#SUBTITLETRANSLIT:;
#ARTISTTRANSLIT:Surii feat.Kagamine Len;
#GENRE:POP;
#CREDIT:;
#MUSIC:Lavie.ogg;
#BANNER:Lavie.png;
#BACKGROUND:Lavie-bg.png;
#CDTITLE:;
#SAMPLESTART:48.552;
#SAMPLELENGTH:10.164;
#SELECTABLE:YES;
#OFFSET:1.284;
#BPMS:0.000=183.000
,147.500=91.500
,149.000=183.000
,280.500=91.500
,282.000=183.000
;
#STOPS:20.000=0.164
,20.500=0.164
,21.000=0.164
,177.000=0.164
,177.500=0.164
,178.000=0.164
,310.000=0.164
,310.500=0.164
,311.000=0.164
;
#LASTBEATHINT:0.764986;
#BGCHANGES:6.500=Lavie.avi=1.000=0=0=0=StretchNoLoop====,
99999.000=-nosongbg-=1.000=0=0=0=StretchNoLoop====
;
#FGCHANGES:;

//--------------- dance-single - ----------------
#NOTES:
     dance-single:
     :
     Medium:
     12:
     0,0,0,0,0:
0000
0000
0000
0000
,
0000
0000
0000
0000
,
0000
0000
0000
0000
,
0000
0000
0000
0000
,
0001
0000
1000
0000
0010
0100
0001
0000
,
2000
3000
0000
0000
0000
0000
0000
0000
0000
0000
0000
0000
0000
0000
0000
0000
0000
0000
0000
0000
0000
0000
0000
0000
0002
0003
0000
0000
0000
0000
0000
0000
0000
0000
0000
0000
0000
0000
0000
0000
0000
0000
0000
0000
0000
0000
0000
0000
2002
3003
0000
0000
0000
0000
0000
0000
0000
0000
0000
0000
0000
0000
0000
0000
0000
0000
0000
0000
0000
0000
0000
0000
1001
0000
0000
0000
0000
0000
0000
0000
0000
0000
0000
0000
0000
0000
0000
0000
0000
0000
0000
0000
0000
0000
0000
0000
0000
0000
0000
0000
0000
0000
0000
0000
0000
0000
0000
0000
0000
0000
0000
0000
0000
0000
0000
0000
0000
0000
0000
0000
0001
0000
0000
0000
0000
0000
0000
0000
0000
0000
0000
0000
0000
0000
0000
0000
0000
0000
0000
0000
0000
0000
0000
0000
1000
0000
0000
0000
0000
0000
0000
0000
0000
0000
0000
0000
0000
0000
0000
0000
0000
0000
0000
0000
0000
0000
0000
0000
0001
0000
0000
0000
0000
0000
0000
0000
0000
0000
0000
0000
0000
0000
0000
0000
0000
0000
0000
0000
0000
0000
0000
0000
,
0000
0001
0010
0100
0000
1000
0001
1000
,
0000
1000
0010
0100
0000
0001
1000
0001
,
0000
0001
0010
0100
0000
1100
0000
0011
,
0000
0101
0000
1010
0000
1000
0001
1000
,
0000
1000
0010
0100
0000
0001
1000
0001
,
0000
0001
0010
0100
0000
1000
0001
1000
,
0000
1000
0010
0100
0000
0101
0000
1010
,
0000
1100
0000
0011
0000
0110
0000
0100
,
0000
1001
0000
0001
1000
0000
1000
0100
,
0000
0010
0000
0011
0000
0001
0000
1000
,
0010
0100
0000
0100
0001
0000
1000
0100
,
0000
1100
0000
0101
0000
1000
0000
0001
,
0000
0010
0000
0100
0000
1000
0000
0001
,
0000
0101
0000
1010
0000
1000
0000
0001
,
0100
0001
0000
1000
0100
0000
0100
0010
,
0100
0010
0000
1001
0000
0001
0100
1000
,
0200
0000
0001
0301
0000
1000
0100
0001
,
0200
0000
1000
1300
0000
0001
0100
1000
,
0200
0000
0010
0310
0000
0101
0000
1010
,
0000
1100
0000
0011
0000
0001
0010
1000
,
0020
0000
0001
0031
0000
1000
0010
0001
,
0020
0000
1000
1030
0000
0001
0010
1000
,
0020
0000
0100
0130
0000
0110
0000
1001
,
0000
0001
0010
0100
0000
1000
0100
0000
,
1000
0100
0000
1000
0100
0000
1000
0001
,
1000
0001
0000
1001
0000
0001
0100
0000
,
0001
0100
0000
0001
0100
0000
0001
1000
,
0001
1000
0000
1001
0000
0010
0100
0000
,
0010
0100
0000
0010
0100
0000
0001
1000
,
0001
1000
0000
0110
0000
0001
0100
0000
,
1000
0000
0000
0000
0000
0000
0000
0000
0000
0000
0000
0000
0000
0000
0000
0000
0000
0000
0000
0000
0000
0000
0000
0000
0100
0000
0000
0000
0000
0000
0000
0000
0000
0000
0000
0000
0000
0000
0000
0000
0000
0000
0000
0000
0000
0000
0000
0000
0000
0000
0000
0000
0000
0000
0000
0000
0000
0000
0000
0000
0000
0000
0000
0000
0000
0000
0000
0000
0000
0000
0000
0000
0001
0000
0000
0000
0000
0000
0000
0000
0000
0000
0000
0000
0000
0000
0000
0000
0000
0000
0000
0000
0000
0000
0000
0000
1000
0000
0000
0000
0000
0000
0000
0000
0000
0000
0000
0000
0000
0000
0000
0000
0000
0000
0000
0000
0000
0000
0000
0000
0000
0000
0000
0000
0000
0000
0000
0000
0000
0000
0000
0000
0000
0000
0000
0000
0000
0000
0000
0000
0000
0000
0000
0000
0000
0000
0000
0000
0000
0000
0000
0000
0000
0000
0000
0000
0000
0000
0000
0000
0000
0000
0000
0000
0000
0000
0000
0000
0002
0003
0000
0000
0000
0000
0000
0000
0000
0000
0000
0000
0000
0000
0000
0000
0000
0000
0000
0000
0000
0000
0000
0000
,
1000
0110
0001
0100
1000
0100
0001
0000
,
1000
0002
0000
0013
1000
0010
0001
0000
,
0011
0000
0001
0010
0100
1000
0001
0010
,
0100
1000
1100
0000
0011
0000
2001
0010
,
3010
0000
1000
0100
0001
0100
1000
0000
,
0001
2000
0000
3010
0001
0010
1000
0000
,
1010
0000
1000
0100
0010
0001
1000
0100
,
0010
0000
0000
0000
0000
0000
0000
0000
0000
0000
0000
0000
0000
0000
0000
0000
0000
0000
0000
0000
0000
0000
0000
0000
0001
0000
0000
0000
0000
0000
0000
0000
0000
0000
0000
0000
0000
0000
0000
0000
0000
0000
0000
0000
0000
0000
0000
0000
2000
3000
0000
0000
0000
0000
0000
0000
0000
0000
0000
0000
0000
0000
0000
0000
0000
0000
0000
0000
0000
0000
0000
0000
0002
0003
0000
0000
0000
0000
0000
0000
0000
0000
0000
0000
0000
0000
0000
0000
0000
0000
0000
0000
0000
0000
0000
0000
1001
0000
0000
0000
0000
0000
0000
0000
0000
0000
0000
0000
0000
0000
0000
0000
0000
0000
0000
0000
0000
0000
0000
0000
1001
0000
0000
0000
0000
0000
0000
0000
0000
0000
0000
0000
0000
0000
0000
0000
0000
0000
0000
0000
0000
0000
0000
0000
0000
0000
0000
0000
0000
0000
0000
0000
0000
0000
0000
0000
0000
0000
0000
0000
0000
0000
0000
0000
0000
0000
0000
0000
1000
0000
0000
0000
0000
0000
0000
0000
0000
0000
0000
0000
0000
0000
0000
0000
0000
0000
0000
0000
0000
0000
0000
0000
,
0001
0100
0010
0000
0010
1000
0001
0000
,
0001
0010
0100
0000
0100
1000
0001
0000
,
0000
1000
0100
0000
0000
0001
0100
0000
,
1000
0002
0000
0103
0010
0100
0000
0010
,
1000
0001
0010
0000
0010
0100
1000
0000
,
1000
0001
0100
0000
0100
0001
0010
0000
,
0000
1000
0010
0000
0000
0001
0010
0000
,
0001
0010
0100
1000
0000
1001
0000
0001
,
0000
1000
0000
0010
0100
0010
0100
0000
,
0001
0010
0100
1000
0001
1000
0100
0020
,
0000
0130
1000
0001
1000
0010
0100
0002
,
0000
0023
0000
0130
1000
0100
1000
0001
,
0100
0001
0100
0010
0000
0010
1000
0000
,
1000
0100
1000
0100
0000
1000
0000
1100
,
0000
0011
0000
0101
0000
1010
0000
0011
,
0000
0101
0000
1100
0000
1010
0000
2001
,
0000
0000
0000
0000
,
0000
0000
0000
0000
0000
0000
0000
3001
,
0100
0000
0001
0100
0000
0001
0100
0000
,
0001
0100
0010
1000
0000
1010
0000
1000
,
0100
0000
1000
0100
0000
1000
0100
0000
,
1000
0100
0010
0001
0000
1001
0000
0010
,
0100
0000
0010
0100
0000
0010
0100
0000
,
0001
0010
0100
1000
0000
0110
0000
1000
,
0100
0000
0001
0100
0000
1000
0100
0000
,
0000
0000
0000
0000
0000
0000
0000
0000
0000
0000
0000
0000
0000
0000
0000
0000
0000
0000
0000
0000
0000
0000
0000
0000
0020
0030
0000
0000
0000
0000
0000
0000
0000
0000
0000
0000
0000
0000
0000
0000
0000
0000
0000
0000
0000
0000
0000
0000
0100
0000
0000
0000
0000
0000
0000
0000
0000
0000
0000
0000
0000
0000
0000
0000
0000
0000
0000
0000
0000
0000
0000
0000
1001
0000
0000
0000
0000
0000
0000
0000
0000
0000
0000
0000
0000
0000
0000
0000
0000
0000
0000
0000
0000
0000
0000
0000
1000
0000
0000
0000
0000
0000
0000
0000
0000
0000
0000
0000
0000
0000
0000
0000
0000
0000
0000
0000
0000
0000
0000
0000
0100
0000
0000
0000
0000
0000
0000
0000
0000
0000
0000
0000
0000
0000
0000
0000
0000
0000
0000
0000
0000
0000
0000
0000
1000
0000
0000
0000
0000
0000
0000
0000
0000
0000
0000
0000
0000
0000
0000
0000
0000
0000
0000
0000
0000
0000
0000
0000
0100
0000
0000
0000
0000
0000
0000
0000
0000
0000
0000
0000
0000
0000
0000
0000
0000
0000
0000
0000
0000
0000
0000
0000
,
1000
0000
0001
0100
0000
0100
0001
0100
,
0001
0000
2000
0000
3001
0010
0100
1000
,
0001
1000
0100
0010
0002
0000
0203
0000
,
0320
1000
1030
0000
1000
0100
0001
0100
,
2000
0000
3001
0200
0000
1300
0100
0001
,
0010
0000
0110
0000
0100
1000
0010
0100
,
0001
0000
0000
0000
0000
0000
0000
0000
0000
0000
0000
0000
0000
0000
0000
0000
0000
0000
0000
0000
0000
0000
0000
0000
0010
0000
0000
0000
0000
0000
0000
0000
0000
0000
0000
0000
0000
0000
0000
0000
0000
0000
0000
0000
0000
0000
0000
0000
0100
0000
0000
0000
0000
0000
0000
0000
0000
0000
0000
0000
0000
0000
0000
0000
0000
0000
0000
0000
0000
0000
0000
0000
1000
0000
0000
0000
0000
0000
0000
0000
0000
0000
0000
0000
0000
0000
0000
0000
0000
0000
0000
0000
0000
0000
0000
0000
0020
0030
0000
0000
0000
0000
0000
0000
0000
0000
0000
0000
0000
0000
0000
0000
0000
0000
0000
0000
0000
0000
0000
0000
0200
0000
0300
0000
0000
0000
0000
0000
0000
0000
0000
0000
0000
0000
0000
0000
0000
0000
0000
0000
0000
0000
0000
0000
0110
0000
0000
0000
0000
0000
0000
0000
0000
0000
0000
0000
0000
0000
0000
0000
0000
0000
0000
0000
0000
0000
0000
0000
1002
0000
0000
0000
0000
0000
0000
0000
0000
0000
0000
0000
0000
0000
0000
0000
0000
0000
0000
0000
0000
0000
0000
0000
,
0000
1003
0100
0001
0100
1000
0001
0010
,
1000
0010
0001
1000
0100
0001
0100
1000
,
0002
0000
0000
0013
0200
0000
0000
1300
,
0002
0000
0103
0010
0000
1000
0100
0010
,
0001
0100
1000
0100
0001
1000
0010
0001
,
0010
1000
0001
0100
1000
0100
0001
0010
,
2000
0000
0000
3010
0002
0000
0003
1000
,
0020
0000
1030
0002
0000
0023
0000
0130
,
1100
0000
0000
1000
1010
0000
0000
0001
,
0101
0000
0001
0010
0100
1000
0000
1001
,
0000
0001
1000
0001
1000
0001
0010
0100
,
0000
1000
0001
1000
0001
1000
0010
0100
,
0000
0001
1000
0001
1000
0001
0010
0100
,
0000
1100
0000
0011
0000
0101
0000
1010
,
0000
1000
0001
1000
0001
1000
0010
0100
,
0000
0001
1000
0001
1000
0001
0010
0100
,
0000
1000
0001
1000
0001
1000
0010
0100
,
0000
0101
0000
1010
0000
1100
0000
0011
,
0000
1001
0000
0000
0001
0010
0100
1000
,
0001
0101
0000
0000
0000
0000
0000
0000
;

//--------------- dance-single - ----------------
#NOTES:
     dance-single:
     :
     Hard:
     16:
     0,0,0,0,0:
0000
0000
0000
0000
,
0000
0000
0000
0000
,
0000
0000
0000
0000
,
0000
0000
0000
0000
,
0001
1000
0001
1000
0010
0100
0010
0100
,
0220
0330
0000
0000
0000
0000
0000
0000
0000
0000
0000
0000
0000
0000
0000
0000
0000
0000
0000
0000
0000
0000
0000
0000
0220
0330
0000
0000
0000
0000
0000
0000
0000
0000
0000
0000
0000
0000
0000
0000
0000
0000
0000
0000
0000
0000
0000
0000
0220
0330
0000
0000
0000
0000
0000
0000
0000
0000
0000
0000
0000
0000
0000
0000
0000
0000
0000
0000
0000
0000
0000
0000
1001
0000
0000
0000
0000
0000
0000
0000
0000
0000
0000
0000
0000
0000
0000
0000
0000
0000
0000
0000
0000
0000
0000
0000
0000
0000
0000
0000
0000
0000
0000
0000
0000
0000
0000
0000
0000
0000
0000
0000
0000
0000
0000
0000
0000
0000
0000
0000
0001
0000
0000
0000
0000
0000
0000
0000
0000
0000
0000
0000
0000
0000
0000
0000
0000
0000
0000
0000
0000
0000
0000
0000
1000
0000
0000
0000
0000
0000
0000
0000
0000
0000
0000
0000
0000
0000
0000
0000
0000
0000
0000
0000
0000
0000
0000
0000
0001
0000
0000
0000
0000
0000
0000
0000
0000
0000
0000
0000
0000
0000
0000
0000
0000
0000
0000
0000
0000
0000
0000
0000
,
1000
0000
0001
0010
0001
0010
0100
1000
0100
1000
0001
0000
1000
0000
0001
0000
,
1000
0000
0001
0100
0001
0100
0010
1000
0010
1000
0001
0000
1000
0000
0001
0000
,
1000
0000
0001
0010
0001
0010
0100
1000
0100
1000
0001
0000
0001
0000
1000
0000
,
1000
0010
0010
0100
0100
1001
0001
1000
,
0001
0000
1000
0100
1000
0100
0010
0001
0010
0001
1000
0000
0001
0000
1000
0000
,
0001
0000
1000
0010
1000
0010
0100
0001
0100
0001
1000
0000
0001
0000
1000
0000
,
0001
0000
1000
0100
1000
0100
0010
0001
0010
0001
1000
0000
1000
0000
0001
0000
,
0001
0100
0100
0010
0010
0110
0000
0100
,
0000
1001
0000
0001
0100
0000
0100
0010
,
1000
0001
0000
1001
0000
1000
0100
0010
,
0001
1000
0000
1000
0010
0000
0010
0100
,
0001
1000
0000
1100
0000
1000
0100
0001
,
0000
0100
0000
1000
0010
0000
0010
0100
,
0001
0101
0000
1010
0000
0001
0010
0100
,
1000
0001
0010
0100
1000
0000
1000
0001
,
0100
0000
1000
0000
0000
0000
0100
0000
0000
0000
0001
0000
1000
0100
1000
0000
,
0020
0000
0000
0000
0130
0001
0100
0000
0001
0000
1000
0000
0001
0100
0001
0000
,
0020
0000
0000
0000
0130
1000
0100
0000
1000
0000
0001
0000
1000
0010
1000
0000
,
0200
0000
0000
0000
0310
0001
0010
0000
0100
0000
1000
0000
0100
0000
1100
0000
,
0000
0000
0101
0000
0000
0000
1001
0000
0000
0000
0001
0000
1000
0010
0100
0000
,
0020
0000
0000
0000
0130
0001
1000
0000
0001
0000
1000
0000
0001
0010
0100
0000
,
0020
0000
0000
0000
0031
1000
0100
0000
0010
0000
0001
0000
1000
0010
0100
0000
,
0020
0000
0000
0000
0130
0001
0010
0000
0100
0000
1000
0000
0001
0000
0010
0000
,
0100
0000
1000
0100
1000
0000
0001
0100
0001
0000
1000
0000
0100
0000
0000
0000
,
0001
0100
0000
1000
0100
0000
0001
0100
,
0010
0110
0000
1001
0000
1000
0010
0000
,
0001
0010
0000
1000
0010
0000
0001
0010
,
0100
0110
0000
1001
0000
1000
0100
0000
,
0001
0100
0000
1000
0010
0000
0001
0010
,
0100
0110
0000
1001
0000
0001
0010
0000
,
1000
0000
0000
0000
0000
0000
0000
0000
0000
0000
0000
0000
0000
0000
0000
0000
0000
0000
0000
0000
0000
0000
0000
0000
0010
0000
0000
0000
0000
0000
0000
0000
0000
0000
0000
0000
0000
0000
0000
0000
0000
0000
0000
0000
0000
0000
0000
0000
0000
0000
0000
0000
0000
0000
0000
0000
0000
0000
0000
0000
0000
0000
0000
0000
0000
0000
0000
0000
0000
0000
0000
0000
0001
0000
0000
0000
0000
0000
0000
0000
0000
0000
0000
0000
0000
0000
0000
0000
0000
0000
0000
0000
0000
0000
0000
0000
1000
0000
0000
0000
0000
0000
0000
0000
0000
0000
0000
0000
0000
0000
0000
0000
0000
0000
0000
0000
0000
0000
0000
0000
0000
0000
0000
0000
0000
0000
0000
0000
0000
0000
0000
0000
0000
0000
0000
0000
0000
0000
0000
0000
0000
0000
0000
0000
0000
0000
0000
0000
0000
0000
0000
0000
0000
0000
0000
0000
0000
0000
0000
0000
0000
0000
0000
0000
0000
0000
0000
0000
0002
0003
0000
0000
0000
0000
0000
0000
0000
0000
0000
0000
0000
0000
0000
0000
0000
0000
0000
0000
0000
0000
0000
0000
,
1000
0000
0110
0000
0001
0000
0100
0000
1000
0000
0100
0000
0010
0000
1000
0001
,
1000
0000
0200
0000
0000
0000
0310
0000
1000
0000
0010
0000
0001
0000
0100
0010
,
0200
0000
0000
0000
1300
0000
0100
0001
0100
0000
0010
0000
1000
0000
0100
0001
,
0100
1000
1100
0000
0011
0000
2001
0100
,
3100
0000
0000
0000
1000
0000
0100
0000
0001
0000
0100
0000
0010
0000
0001
1000
,
0001
0000
0200
0000
0000
0000
0310
0000
0001
0000
0010
0000
1000
0000
0100
0010
,
0200
0000
0000
0000
0301
0000
0100
1000
0100
0000
0010
0000
0001
0000
0100
1000
,
0100
0000
0000
0000
0000
0000
0000
0000
0000
0000
0000
0000
0000
0000
0000
0000
0000
0000
0000
0000
0000
0000
0000
0000
0010
0000
0000
0000
0000
0000
0000
0000
0000
0000
0000
0000
0000
0000
0000
0000
0000
0000
0000
0000
0000
0000
0000
0000
0220
0330
0000
0000
0000
0000
0000
0000
0000
0000
0000
0000
0000
0000
0000
0000
0000
0000
0000
0000
0000
0000
0000
0000
0220
0330
0000
0000
0000
0000
0000
0000
0000
0000
0000
0000
0000
0000
0000
0000
0000
0000
0000
0000
0000
0000
0000
0000
0220
0330
0000
0000
0000
0000
0000
0000
0000
0000
0000
0000
0000
0000
0000
0000
0000
0000
0000
0000
0000
0000
0000
0000
1001
0000
0000
0000
0000
0000
0000
0000
0000
0000
0000
0000
0000
0000
0000
0000
0000
0000
0000
0000
0000
0000
0000
0000
0000
0000
0000
0000
0000
0000
0000
0000
0000
0000
0000
0000
0000
0000
0000
0000
0000
0000
0000
0000
0000
0000
0000
0000
1000
0000
0000
0000
0000
0000
0000
0000
0000
0000
0000
0000
0000
0000
0000
0000
0000
0000
0000
0000
0000
0000
0000
0000
,
0001
0010
0100
0000
0010
0000
0001
0000
1000
0010
0100
0000
0010
0000
1000
0000
,
0001
0010
0100
0000
0010
0000
0001
0000
1000
0010
0100
0000
0101
0000
0000
0000
,
0001
1000
1100
0000
0001
0100
0101
0001
,
1000
0100
0020
0000
0000
0000
0031
0010
0100
1000
0001
0010
0100
1000
0010
0000
,
0100
0001
1000
0000
0100
0000
0010
0000
0001
1000
0010
0000
0100
0000
0001
0000
,
1000
0001
0010
0000
0100
0000
1000
0000
0001
0100
0010
0000
1010
0000
0000
0000
,
0001
0010
0011
0000
1000
0010
0110
0000
,
0001
0010
0100
1100
0000
1001
0000
1000
,
0001
0100
0001
0000
1000
0010
1000
0000
0001
0100
0001
0000
1000
0000
0001
0000
,
1000
0100
1000
0000
0001
0010
0001
0000
1000
0100
1000
0000
0001
0010
0200
0000
,
0000
0310
0001
1000
0001
0100
1000
0100
,
0001
0000
0010
0000
0100
0000
1000
0001
1000
0100
1000
0001
1000
0010
0100
0000
,
0010
0100
0010
0110
0000
1000
0001
0000
,
0001
0000
0100
0000
0001
0000
0101
0000
0000
0000
0001
0000
1000
0100
1000
0000
,
0010
0100
0010
0000
0100
0001
0100
0000
0001
1000
0001
0000
1000
0100
0010
0000
,
0100
1000
0010
0000
0100
0001
1000
0000
0100
0010
0001
0000
0010
0001
2000
0000
,
0000
0000
0000
0000
,
0000
0000
0000
0000
0000
0000
0000
3001
,
0100
0000
1000
0100
0000
0001
0100
0000
,
1000
0100
0010
0110
0000
1001
0000
1000
,
0100
0000
0001
0100
0000
1000
0100
0000
,
0001
0100
0010
0110
0000
1001
0000
0001
,
0100
0000
1000
0100
0000
0001
0010
0000
,
1000
0010
0100
0110
0000
1001
0000
0001
,
0011
0000
1000
1100
0000
0010
0110
0000
,
0000
0000
0000
0000
0000
0000
0000
0000
0000
0000
0000
0000
0000
0000
0000
0000
0000
0000
0000
0000
0000
0000
0000
0000
0020
0030
0000
0000
0000
0000
0000
0000
0000
0000
0000
0000
0000
0000
0000
0000
0000
0000
0000
0000
0000
0000
0000
0000
0100
0000
0000
0000
0000
0000
0000
0000
0000
0000
0000
0000
0000
0000
0000
0000
0000
0000
0000
0000
0000
0000
0000
0000
1001
0000
0000
0000
0000
0000
0000
0000
0000
0000
0000
0000
0000
0000
0000
0000
0000
0000
0000
0000
0000
0000
0000
0000
0001
0000
0000
0000
0000
0000
0000
0000
0000
0000
0000
0000
0000
0000
0000
0000
0000
0000
0000
0000
0000
0000
0000
0000
0100
0000
0000
0000
0000
0000
0000
0000
0000
0000
0000
0000
0000
0000
0000
0000
0000
0000
0000
0000
0000
0000
0000
0000
0001
0000
0000
0000
0000
0000
0000
0000
0000
0000
0000
0000
0000
0000
0000
0000
0000
0000
0000
0000
0000
0000
0000
0000
0100
0000
0000
0000
0000
0000
0000
0000
0000
0000
0000
0000
0000
0000
0000
0000
0000
0000
0000
0000
0000
0000
0000
0000
,
0101
0000
1000
0100
0000
0100
1000
0100
,
1100
0000
2000
0000
3001
0010
0100
1000
,
1100
0101
0002
0203
,
0320
0000
1000
0000
1030
0000
0000
0000
0001
0000
0100
1000
0100
0000
0001
0010
,
0200
0000
0000
0000
1300
0000
0002
0000
0000
0000
0013
0100
0010
0000
0100
1000
,
0001
0000
1001
0000
0001
0010
1000
0010
,
0001
0000
0000
0000
0000
0000
0000
0000
0000
0000
0000
0000
0000
0000
0000
0000
0000
0000
0000
0000
0000
0000
0000
0000
0100
0000
0000
0000
0000
0000
0000
0000
0000
0000
0000
0000
0000
0000
0000
0000
0000
0000
0000
0000
0000
0000
0000
0000
1000
0000
0000
0000
0000
0000
0000
0000
0000
0000
0000
0000
0000
0000
0000
0000
0000
0000
0000
0000
0000
0000
0000
0000
0100
0000
0000
0000
0000
0000
0000
0000
0000
0000
0000
0000
0000
0000
0000
0000
0000
0000
0000
0000
0000
0000
0000
0000
0220
0330
0000
0000
0000
0000
0000
0000
0000
0000
0000
0000
0000
0000
0000
0000
0000
0000
0000
0000
0000
0000
0000
0000
0220
0000
0330
0000
0000
0000
0000
0000
0000
0000
0000
0000
0000
0000
0000
0000
0000
0000
0000
0000
0000
0000
0000
0000
0220
0330
0000
0000
0000
0000
0000
0000
0000
0000
0000
0000
0000
0000
0000
0000
0000
0000
0000
0000
0000
0000
0000
0000
1002
0000
0000
0000
0000
0000
0000
0000
0000
0000
0000
0000
0000
0000
0000
0000
0000
0000
0000
0000
0000
0000
0000
0000
,
0000
0000
0103
0000
0010
1000
0001
0000
0010
0000
0100
0000
0001
0100
1000
0000
,
0001
0000
0010
0000
0100
1000
0001
0000
0100
0000
0010
0000
0001
0010
1000
0000
,
0200
0000
0310
0001
2000
0000
3001
0100
,
2000
0000
0000
0000
3100
0001
0020
0000
0000
0000
0130
1000
0100
1000
0001
0100
,
0001
0100
0010
0000
0100
0001
1000
0000
0001
0000
0010
0000
1000
0010
0001
0000
,
1000
0000
0100
0000
0010
0001
1000
0000
0001
0000
0100
0000
1000
0100
0001
0000
,
0020
0000
0130
1000
0002
0000
1003
0010
,
0002
0000
0013
2000
0000
3200
0000
0310
,
0011
0001
1000
0010
1010
1000
0001
0100
,
0110
0000
1000
0010
0100
0001
0000
0110
,
0000
0000
0001
0000
1000
0000
0001
0000
1000
0000
0001
0010
0100
1000
0001
1000
,
0100
0010
0001
0000
1000
0000
0001
0000
1000
0000
0001
0100
0010
1000
0001
1000
,
0010
0100
0001
0000
1000
0000
0001
0000
1000
0000
0001
0010
0100
1000
0001
1000
,
0100
0010
0001
0000
0001
0000
1000
0000
1000
0000
0010
0000
0010
0000
0100
0000
,
0100
0000
1001
0000
0001
0000
1000
0000
0001
0000
1000
0100
0010
0001
1000
0001
,
0010
0100
1000
0000
0001
0000
1000
0000
0001
0000
1000
0010
0100
0001
1000
0001
,
0100
0010
1000
0000
0001
0000
1000
0000
0001
0000
1000
0100
0010
0001
1000
0001
,
0010
0100
1000
0000
1000
0000
0001
0000
0001
0000
0100
0000
0100
0000
0010
0000
,
0010
0110
0000
0000
0001
0010
0100
1000
,
0010
0110
0000
0000
0000
0000
0000
0000
;

//--------------- dance-single - ----------------
#NOTES:
     dance-single:
     :
     Challenge:
     18:
     0.834612,0.647731,0,0,0,759,759,0,0,0,0,0.834612,0.647731,0,0,0,759,759,0,0,0,0:
0000
0000
0000
0000
,
0000
0000
0000
0000
,
0000
0000
0000
0000
,
0000
0000
0000
0000
,
0001
1000
0001
1000
0010
0100
0010
0100
,
0202
0303
0000
0000
0000
0000
0000
0000
0000
0000
0000
0000
0000
0000
0000
0000
0000
0000
0000
0000
0000
0000
0000
0000
2200
3300
0000
0000
0000
0000
0000
0000
0000
0000
0000
0000
0000
0000
0000
0000
0000
0000
0000
0000
0000
0000
0000
0000
0202
0303
0000
0000
0000
0000
0000
0000
0000
0000
0000
0000
0000
0000
0000
0000
0000
0000
0000
0000
0000
0000
0000
0000
1001
0000
0000
0000
0000
0000
0000
0000
0000
0000
0000
0000
0000
0000
0000
0000
0000
0000
0000
0000
0000
0000
0000
0000
0000
0000
0000
0000
0000
0000
0000
0000
0000
0000
0000
0000
0000
0000
0000
0000
0000
0000
0000
0000
0000
0000
0000
0000
0001
0000
0000
0000
0000
0000
0000
0000
0000
0000
0000
0000
0000
0000
0000
0000
0000
0000
0000
0000
0000
0000
0000
0000
1000
0000
0000
0000
0000
0000
0000
0000
0000
0000
0000
0000
0000
0000
0000
0000
0000
0000
0000
0000
0000
0000
0000
0000
0001
0000
0000
0000
0000
0000
0000
0000
0000
0000
0000
0000
0000
0000
0000
0000
0000
0000
0000
0000
0000
0000
0000
0000
,
1000
0000
0001
0010
0100
1000
0001
1000
0100
0010
0001
0000
1000
0000
0001
0000
,
1000
0000
0001
0100
0010
1000
0001
1000
0010
0100
0001
0000
1000
0000
0001
0000
,
1000
0000
0001
0010
0100
1000
0001
1000
0100
0010
0001
0000
0101
0000
0010
0000
,
1100
0001
1010
0100
0011
1000
0001
1000
,
0001
0000
1000
0100
0010
0001
1000
0001
0010
0100
1000
0000
0001
0000
1000
0000
,
0001
0000
1000
0010
0100
0001
1000
0001
0100
0010
1000
0000
0001
0000
1000
0000
,
0001
0000
1000
0100
0010
0001
1000
0001
0010
0100
1000
0000
1100
0000
0010
0000
,
0101
1000
0011
0100
1010
0110
0000
0010
,
0000
1001
0000
0001
0101
0000
0100
0001
,
1000
0000
1001
0000
0000
0000
1000
0100
0010
0001
1000
0000
0100
0000
0010
0000
,
0001
0011
0000
0001
1001
0000
1000
0010
,
0100
0101
0000
1100
0000
1010
0010
0100
,
0001
0010
0100
0000
1000
0000
0100
0000
0110
0000
0000
0000
0110
0000
0100
0000
,
1000
0000
1001
0000
0000
0000
0001
0100
0010
1000
0001
0000
0010
0000
0100
0000
,
0010
0100
1000
0100
0110
0000
0110
0100
,
1000
0000
0001
1000
0100
0010
0100
1000
0001
1000
0001
0100
1000
0100
0001
0100
,
1000
0100
0001
0000
1000
0100
1000
0000
0001
0000
1000
0100
0001
0100
1000
0100
,
0001
0100
1000
0000
0001
0100
0001
0000
1000
0000
0001
0100
1000
0100
0001
0100
,
1000
0100
0001
0000
1000
0001
1000
0000
0001
0000
0100
0000
0010
1000
0100
0000
,
0010
0001
0100
0000
0010
1000
0001
1000
0001
1000
0001
0010
1000
0010
0001
0010
,
1000
0010
0001
0000
1000
0010
1000
0000
0001
0000
1000
0010
0001
0010
1000
0010
,
0001
0010
1000
0000
0001
0010
0001
0000
1000
0000
0001
0010
1000
0010
0001
0010
,
1000
0010
0001
0000
1000
0001
1000
0000
0100
0000
0010
0000
0100
1000
0010
0000
,
0100
0001
0010
0100
1000
0001
0100
0010
1000
0001
0010
0000
1100
0000
0000
0000
,
0010
0101
0000
0010
1100
0000
1000
0010
,
0100
1001
0000
0110
0000
0010
0101
0000
,
0010
1100
0000
0010
0101
0000
0001
1000
,
0100
0110
0000
1001
0000
0100
1010
0000
,
0100
0011
0000
0100
1010
0000
0001
0010
,
0001
1100
0000
0011
0000
1000
0110
0000
,
0001
0000
0000
0000
0000
0000
0000
0000
0000
0000
0000
0000
0000
0000
0000
0000
0000
0000
0000
0000
0000
0000
0000
0000
0110
0000
0000
0000
0000
0000
0000
0000
0000
0000
0000
0000
0000
0000
0000
0000
0000
0000
0000
0000
0000
0000
0000
0000
0000
0000
0000
0000
0000
0000
0000
0000
0000
0000
0000
0000
0000
0000
0000
0000
0000
0000
0000
0000
0000
0000
0000
0000
1000
0000
0000
0000
0000
0000
0000
0000
0000
0000
0000
0000
0000
0000
0000
0000
0000
0000
0000
0000
0000
0000
0000
0000
0110
0000
0000
0000
0000
0000
0000
0000
0000
0000
0000
0000
0000
0000
0000
0000
0000
0000
0000
0000
0000
0000
0000
0000
0000
0000
0000
0000
0000
0000
0000
0000
0000
0000
0000
0000
0000
0000
0000
0000
0000
0000
0000
0000
0000
0000
0000
0000
0000
0000
0000
0000
0000
0000
0000
0000
0000
0000
0000
0000
0000
0000
0000
0000
0000
0000
0000
0000
0000
0000
0000
0000
0002
0003
0000
0000
0000
0000
0000
0000
0000
0000
0000
0000
0000
0000
0000
0000
0000
0000
0000
0000
0000
0000
0000
0000
,
1000
0000
0110
0000
0101
0000
1000
0000
0101
0000
1000
0000
0110
0000
0001
0010
,
0100
1000
0001
0000
0000
0000
0001
0000
1100
0000
0001
0000
0110
0000
0001
0010
,
0100
0000
1000
0000
0001
1000
0100
1000
0001
0100
0010
0100
0001
1000
0010
1000
,
0001
0010
0100
0010
0001
0000
1000
0010
0001
0000
1000
0100
0001
0000
1000
0100
,
0010
0000
0000
0000
0101
0000
1000
0000
0101
0000
1000
0000
0110
0000
1000
0001
,
0010
0000
0110
0000
0000
0000
1000
0000
0101
0000
1000
0000
0110
0000
0001
1000
,
0100
0000
0000
0000
1000
0100
0010
0100
1000
0001
0100
0010
0100
0001
1000
0100
,
0010
0000
0000
0000
0000
0000
0000
0000
0000
0000
0000
0000
0001
0000
0000
0000
0000
0000
0000
0000
0000
0000
0000
0000
1000
0000
0000
0000
0000
0000
0000
0000
0000
0000
0000
0000
0100
0000
0000
0000
0000
0000
0000
0000
0000
0000
0000
0000
2200
3300
0000
0000
0000
0000
0000
0000
0000
0000
0000
0000
0000
0000
0000
0000
0000
0000
0000
0000
0000
0000
0000
0000
0202
0303
0000
0000
0000
0000
0000
0000
0000
0000
0000
0000
0000
0000
0000
0000
0000
0000
0000
0000
0000
0000
0000
0000
2200
3300
0000
0000
0000
0000
0000
0000
0000
0000
0000
0000
0000
0000
0000
0000
0000
0000
0000
0000
0000
0000
0000
0000
1001
0000
0000
0000
0000
0000
0000
0000
0000
0000
0000
0000
0000
0000
0000
0000
0000
0000
0000
0000
0000
0000
0000
0000
0000
0000
0000
0000
0000
0000
0000
0000
0000
0000
0000
0000
0000
0000
0000
0000
0000
0000
0000
0000
0000
0000
0000
0000
1000
0000
0000
0000
0000
0000
0000
0000
0000
0000
0000
0000
0000
0000
0000
0000
0000
0000
0000
0000
0000
0000
0000
0000
,
0001
0010
0100
0000
0010
0001
1000
0000
0001
0100
1000
0000
0100
0000
0001
0000
,
1000
0100
0010
0000
0100
1000
0001
0000
0100
0000
0010
0000
0101
0000
0000
0000
,
0001
0010
1100
0000
0001
1000
0110
0001
,
1000
0000
0100
0000
0010
0000
0001
0000
0000
0000
0000
0000
0001
0000
0000
0010
0000
0000
0100
0000
0000
1000
0000
0000
0001
0000
0000
0010
0000
0000
0100
0000
0000
1000
0000
0000
0001
0000
0000
0010
0000
0000
0100
0000
0000
0000
0000
0000
,
0010
0001
1000
0000
0010
0100
1000
0000
0001
0010
0100
0000
0001
0000
0010
0000
,
0100
1000
0001
0000
0100
0010
0001
0000
1000
0100
0010
0000
0101
0000
0000
0000
,
0001
0010
1100
0000
1000
0001
0110
0000
,
1010
1001
0101
0110
0000
1001
0000
1001
,
0001
0010
0100
0000
0010
0100
1000
0000
0001
0010
0100
1000
0010
0000
0100
0000
,
0001
0100
0010
0000
0100
0010
1000
0000
0001
0010
0100
0000
1000
0010
0100
0000
,
0000
0100
0001
1000
0001
0010
0100
1000
,
0001
0100
0010
1000
0100
0010
0001
0010
0100
1000
0001
0010
0100
1000
0001
0000
,
1100
0000
0001
0000
1100
0000
0001
0000
1000
0010
0100
0000
0101
0000
0000
0000
,
0101
0000
1000
0000
0101
0000
0110
0000
0010
1000
0100
0010
0001
0010
1000
0000
,
0001
0100
0010
0000
0001
0100
1000
0000
0001
0010
0100
0000
0001
0010
1000
0000
,
0001
0100
1000
0000
0001
0100
1000
0000
0001
0010
1000
0001
0010
0100
2000
0000
,
0000
0000
0000
0000
,
0000
0000
0000
0000
0000
0000
0000
3010
,
0101
0000
0010
1100
0000
0010
0101
0000
,
1000
0001
0100
0110
0000
1001
0000
0001
,
1100
0000
1000
0101
0000
0001
1100
0000
,
0001
1000
0010
0110
0000
1001
0000
0101
,
0101
0000
1100
1100
0000
0101
0101
0000
,
1001
0001
0100
0110
0000
1001
0000
0101
,
1001
0000
1100
1001
0000
0110
1001
0000
,
0000
0000
0000
0000
0000
0000
0000
0000
0000
0000
0000
0000
0000
0000
0000
0000
0000
0000
0000
0000
0000
0000
0000
0000
0020
0030
0000
0000
0000
0000
0000
0000
0000
0000
0000
0000
0000
0000
0000
0000
0000
0000
0000
0000
0000
0000
0000
0000
0100
0000
0000
0000
0000
0000
0000
0000
0000
0000
0000
0000
0000
0000
0000
0000
0000
0000
0000
0000
0000
0000
0000
0000
1001
0000
0000
0000
0000
0000
0000
0000
0000
0000
0000
0000
0000
0000
0000
0000
0000
0000
0000
0000
0000
0000
0000
0000
0101
0000
0000
0000
0000
0000
0000
0000
0000
0000
0000
0000
0000
0000
0000
0000
0000
0000
0000
0000
0000
0000
0000
0000
0001
0000
0000
0000
0000
0000
0000
0000
0000
0000
0000
0000
0000
0000
0000
0000
0000
0000
0000
0000
0000
0000
0000
0000
0100
0000
0000
0000
0000
0000
0000
0000
0000
0000
0000
0000
0000
0000
0000
0000
0000
0000
0000
0000
0000
0000
0000
0000
0001
0000
0000
0000
0000
0000
0000
0000
0000
0000
0000
0000
0000
0000
0000
0000
0000
0000
0000
0000
0000
0000
0000
0000
,
0101
0000
1000
1100
0000
0100
1000
0100
,
1100
0000
1000
0100
0010
0001
1000
0100
0010
0000
0001
0000
0100
0000
0001
0000
,
0110
0110
0002
0023
,
0230
0000
1000
0000
1300
0000
0001
0010
0100
0000
0100
0010
0001
0000
0100
0000
,
0101
0000
0001
0100
0010
1000
0002
0000
0000
0000
1003
0010
0100
0000
0100
0010
,
1000
0100
0110
0000
1000
0100
0010
0001
,
0010
0000
0000
0000
0000
0000
0000
0000
0000
0000
0000
0000
0000
0000
0000
0000
0000
0000
0000
0000
0000
0000
0000
0000
0100
0000
0000
0000
0000
0000
0000
0000
0000
0000
0000
0000
0000
0000
0000
0000
0000
0000
0000
0000
0000
0000
0000
0000
1000
0000
0000
0000
0000
0000
0000
0000
0000
0000
0000
0000
0000
0000
0000
0000
0000
0000
0000
0000
0000
0000
0000
0000
0001
0000
0000
0000
0000
0000
0000
0000
0000
0000
0000
0000
0000
0000
0000
0000
0000
0000
0000
0000
0000
0000
0000
0000
0202
0303
0000
0000
0000
0000
0000
0000
0000
0000
0000
0000
0000
0000
0000
0000
0000
0000
0000
0000
0000
0000
0000
0000
2200
3300
0000
0000
0000
0000
0000
0000
0000
0000
0000
0000
0000
0000
0000
0000
0000
0000
0000
0000
0000
0000
0000
0000
0220
0330
0000
0000
0000
0000
0000
0000
0000
0000
0000
0000
0000
0000
0000
0000
0000
0000
0000
0000
0000
0000
0000
0000
1002
0000
0000
0000
0000
0000
0000
0000
0000
0000
0000
0000
0000
0000
0000
0000
0000
0000
0000
0000
0000
0000
0000
0000
,
0000
0000
1003
0100
0010
0001
1000
0100
0001
0100
1000
0001
0010
0100
1000
0001
,
0010
1000
0010
0001
1000
0100
0001
0100
1000
0001
0010
1000
0010
0001
1000
0000
,
1100
0001
1000
0001
0101
0001
1000
0001
,
1100
0000
0000
0000
0000
0000
1000
0000
0000
0000
0000
0000
0001
0000
0010
0000
0100
0000
1000
0000
0000
0000
0000
0000
0001
0000
0000
0010
0000
0000
0100
0000
0000
1000
0000
0000
0001
0000
0000
0010
0000
0000
0100
0000
0000
1000
0000
0000
,
0001
1000
0001
0100
1000
0100
0001
1000
0010
0100
0001
1000
0010
0001
0010
1000
,
0001
0100
0010
1000
0001
0100
1000
0100
0001
1000
0010
0001
0010
1000
0001
0000
,
0101
0001
1000
0100
1100
1000
0001
1000
,
0110
0000
0101
0011
0000
1100
0000
1001
,
0001
0010
0100
1000
0010
0001
1000
0100
0001
0010
0100
1000
0001
0010
1000
0001
,
0100
1000
0010
0000
1010
0000
0110
0000
0101
0000
1001
0000
0000
0000
0110
0000
,
0000
0000
0001
0000
1000
0000
0001
0000
1000
0000
0001
0100
1000
0001
0010
0001
,
1000
0100
0001
0000
1000
0000
0001
0000
1000
0000
0001
0010
1000
0001
0100
0001
,
1000
0010
0001
0000
1000
0000
0001
0000
1000
0000
0001
0100
1000
0001
0010
0001
,
1000
0100
0001
0000
0101
0000
0010
0000
1100
0000
0010
0000
0101
0000
0011
0000
,
1010
0000
1001
0000
0001
0000
1000
0000
0001
0000
1000
0100
0001
1000
0010
1000
,
0001
0100
1000
0000
0001
0000
1000
0000
0001
0000
1000
0010
0001
1000
0100
1000
,
0001
0010
1000
0000
0001
0000
1000
0000
0001
0000
1000
0100
0001
1000
0010
1000
,
0001
0100
1000
0000
1100
0000
0010
0000
0101
0000
0010
0000
1100
0000
1010
0000
,
0011
1001
0000
0000
1000
0001
1000
0010
,
0100
0110
0000
0000
0000
0000
0000
0000
;
