#TITLE:La Primavera feat.REMAH;
#SUBTITLE:;
#ARTIST:FAKE TYPE;
#TITLETRANSLIT:La Primavera feat.REMAH;
#SUBTITLETRANSLIT:;
#ARTISTTRANSLIT:FAKE TYPE;
#GENRE:POP;
#CREDIT:;
#MUSIC:La Primavera feat.REMAH.ogg;
#BANNER:La Primavera feat.REMAH.png;
#BACKGROUND:La Primavera feat.REMAH-bg.png;
#CDTITLE:;
#SAMPLESTART:74.570;
#SAMPLELENGTH:14.545;
#SELECTABLE:YES;
#OFFSET:-0.025;
#BPMS:0.000=132.000
,35.000=528.000
,36.500=132.000
,132.500=264.000
,134.500=132.000
;
#STOPS:36.000=0.284;
#DISPLAYBPM:132.000;
#ORIGIN:;
#PREVIEWVID:;
#JACKET:La Primavera feat.REMAH-jacket.png;
#CDIMAGE:;
#DISCIMAGE:;
#BGCHANGES:3.750=La Primavera feat.REMAH.avi=1.000=0=0=1,
99999.000=-nosongbg-=1.000=0=0=0=StretchNoLoop====
;
#FGCHANGES:;

//--------------- dance-single - ----------------
#NOTES:
     dance-single:
     :
     Hard:
     12:
     0,0,0,0,0:
0000
0000
0000
0000
,
0000
0000
0000
0000
,
0000
0000
0000
0000
,
0000
0000
0000
0000
,
0000
0000
0000
0000
,
0001
0001
1000
1000
0010
0100
0001
0100
,
0001
0000
0010
0000
0100
0000
1000
0000
0010
0000
1000
0002
0000
0000
0000
0000
,
1003
1000
0001
0001
1000
0010
0100
0001
,
0010
0000
0100
0000
0010
0000
0100
0000
0010
0000
0100
2000
0002
0000
0000
0000
,
3003
0000
2001
0000
0000
0100
0000
0000
3100
0000
0010
0000
0000
0002
0000
0000
,
0103
0000
1002
0000
0000
0100
0000
0000
0103
0000
0020
0000
0000
2030
0000
0000
,
3010
0100
0001
0010
0000
0100
1000
0010
,
0000
0100
0001
0010
1000
0001
0100
1000
,
0000
0000
1020
0000
0000
0100
0000
0000
0130
0000
0002
0000
0000
0023
0000
0000
,
0030
0000
0210
0000
0000
1000
0000
0000
1300
0000
0020
0000
0000
0230
0000
0000
,
0300
0001
0010
1000
0000
1000
0010
0001
,
0000
1000
0010
0100
0001
1001
0000
0100
,
0001
0020
0000
0000
0230
0000
0000
2300
,
0000
3002
0000
0203
0000
0020
0330
2000
,
0000
3020
0000
0000
0230
0000
0000
0302
,
0000
2003
0000
3020
0000
0100
0200
0330
,
0010
0000
1000
0000
1000
0000
0100
0000
0010
0000
0002
0000
0000
1000
0000
0000
,
0003
0000
1000
0000
0010
0000
0100
0000
0001
0000
1000
0000
0010
0100
0000
0000
,
0001
0000
2000
0000
0100
0000
3100
0000
0001
2000
0000
0000
0100
0000
3100
0000
,
0001
2000
0000
0000
0100
0000
3100
0000
0001
2000
0000
0000
3100
0000
0010
0000
,
0010
0000
0020
0000
0000
0000
0031
0000
1000
0100
0000
0010
0000
0100
0010
0000
,
0001
0000
1000
0010
0000
0100
0001
0100
0000
0010
1000
0000
0010
0000
0100
0000
,
0000
0000
0100
0000
0001
0000
1000
0001
0000
0000
1000
0000
0010
0000
0100
0010
,
0000
0100
0001
0010
1000
0010
0001
2000
,
0000
3001
0100
0100
0010
0010
1000
0001
,
0010
0100
1000
0100
1000
0001
0100
0010
,
0100
0000
1001
0000
0010
0000
1000
0001
0000
0100
0000
0100
0000
0001
0010
0000
,
0000
0100
1000
0100
0010
0001
0100
0001
,
2000
0002
0000
0000
3003
0001
1000
0001
,
0100
0001
0010
0100
0000
1100
0000
0001
,
0000
0101
0000
0000
1000
0010
0100
0010
,
0100
0001
1000
0001
0000
0101
0000
1000
,
0000
1100
0000
1001
0000
0000
0000
1000
,
1000
0000
1000
0000
0001
0000
0100
0000
0010
0000
1000
0000
0010
0200
0000
0000
,
0001
0301
0010
0110
1000
0010
1000
0001
,
0001
0101
0010
1000
0001
1000
0001
1001
,
0200
0020
0330
1001
0000
1010
0000
1100
,
0000
0000
0101
0000
0000
0000
0002
0000
0000
2000
3003
0000
1010
0000
0000
0000
,
0010
0000
1000
0000
0100
0000
0002
0000
0000
0103
0000
0000
1000
0000
0010
0000
,
0100
0010
1000
0020
0000
0230
0000
0302
,
0000
0000
0023
0000
0000
0000
1030
0000
0010
0000
0001
0000
0100
0020
0000
0000
,
0100
0000
0100
0000
0130
0000
0010
0000
1000
0000
0100
0000
0010
0002
0000
0000
,
0010
0000
0103
0000
0000
0000
1020
0000
0000
0100
0000
0000
0130
0000
0102
0000
,
0000
0010
0000
0000
0013
0000
2100
0000
0000
3002
0000
0000
0103
0000
1000
0000
,
0100
0010
0000
0110
0000
1010
0000
0101
,
0000
0000
0011
0000
0000
0000
2000
0000
0000
0002
3003
0000
0011
0000
0000
0000
,
0010
0000
0001
0000
0100
0000
2000
0000
0000
3100
0000
0000
0001
0000
0010
0000
,
0100
0010
0001
0020
0000
0230
0000
2300
,
0000
0000
3020
0000
0000
0000
0031
0000
0010
0000
1000
0000
0100
0020
0000
0000
,
0100
0000
0100
0000
0130
0000
0010
0000
0001
0000
0100
0000
0010
2000
0000
0000
,
0010
0000
3100
0000
0000
0000
0021
0000
0000
0100
0000
0000
0130
0000
2100
0000
,
0000
0010
0000
0000
3010
0000
0102
0000
0000
2003
0000
0000
3100
0000
0010
0000
,
0000
0000
1001
0000
0000
0000
2001
0000
0000
0100
0000
0000
3100
0000
0010
0000
,
0000
0002
0000
0000
0103
0000
1002
0000
0000
0100
0000
0000
0103
0000
0020
0000
,
0000
2030
0000
0000
3010
0000
0020
0000
0000
0000
0230
0000
0000
0000
0302
0000
,
0000
2003
0000
3200
0000
0320
0000
0032
,
0000
0000
0013
0000
0000
0000
1002
0000
0000
0100
0000
0000
0103
0000
0010
0000
,
0000
2000
0000
0000
3100
0000
2001
0000
0000
0100
0000
0000
3100
0000
0020
0000
,
0000
0032
0000
0000
0013
0000
0100
0000
0011
0000
0100
0000
1010
0000
0100
0002
,
0000
1003
0000
1001
0000
0110
0100
0002
,
0000
2000
3003
0001
0001
1000
1000
0010
,
0100
0001
0100
0001
0010
0100
1000
0010
,
1000
0002
0000
0000
0000
0000
1003
0000
1000
0000
0001
0000
0001
0000
1000
0000
,
0010
0100
0001
0010
0100
0010
0100
0010
,
0100
1000
0001
1000
1000
0001
0001
0010
,
0100
1000
0100
1000
0010
0100
0001
0010
,
0001
2000
0000
0000
0000
0000
3001
0000
0001
0000
1000
0000
1000
0000
0001
0000
,
0010
0100
1000
0010
0100
0010
0100
0010
,
0100
0002
2000
0000
3003
0000
0000
0000
0000
0000
0000
0000
0000
0000
0000
0000
;

//--------------- dance-single - ----------------
#NOTES:
     dance-single:
     :
     Challenge:
     16:
     0.058351,0.094224,0.007427,0,0.089119,55,54,1,0,0,0,0,0,0,0.058351,0.094224,0.007427,0,0.089119,55,54,1,0,0,0,0,0,0:
0000
0000
0000
0000
,
0000
0000
0000
0000
,
0000
0000
0000
0000
,
0000
0000
0000
0000
,
0000
0000
0000
0000
,
0001
0100
0001
0000
1000
0010
1000
0000
0010
0100
0010
1000
0001
0010
0100
1000
,
0001
0000
0100
0000
0010
0000
1000
0000
0000
0010
0000
0000
0100
0000
0000
0010
0000
0000
1000
0000
0000
0001
0000
0000
0010
0000
0000
0000
0000
0000
0010
0000
0000
0100
0000
0000
0000
0000
0000
0000
0000
0000
0110
0000
0000
0000
0000
0000
,
1000
0100
1000
0000
0001
0010
0001
0000
1000
0100
0010
0100
1000
0001
0100
0001
,
1000
0010
0100
0010
1000
0010
0100
0010
1000
0100
0010
0002
2000
0000
0000
0000
,
3003
0000
1001
0000
0001
0100
0010
0000
0100
0000
0001
0000
0001
2000
0000
0000
,
3010
0000
1001
0000
1000
0100
0010
0000
0100
0000
1000
0000
1000
0002
0000
0000
,
0013
0000
0110
0000
0100
1000
0010
0000
0001
0000
0010
0000
0100
0001
0010
0000
,
1000
0000
0010
0001
0100
0000
0010
0000
1000
0000
0001
0000
0010
0100
0010
0000
,
0100
0000
0110
0000
0100
1000
0001
0000
0100
0000
0010
0000
0010
0200
0000
0000
,
0310
0000
0110
0000
0100
0001
1000
0000
0100
0000
0010
0000
0010
0200
0000
0000
,
0310
0000
0001
0000
1000
0010
0001
0000
0010
0000
1000
0000
0001
0010
1000
0000
,
0001
0100
1000
0010
0100
0110
0000
0100
,
0001
2000
0000
0000
3002
0000
0000
0203
,
0000
0320
0000
2030
0000
0002
3003
1002
,
0000
0023
0000
0000
0230
0000
0000
2300
,
0000
3020
0000
0230
0000
0302
2000
3003
,
0001
0000
1001
0000
1000
0000
0100
0000
0010
0000
0200
0000
0000
1000
0000
0000
,
0000
0310
0001
0000
0100
0000
0010
0000
0100
0000
0001
0000
1000
0001
0110
0000
,
0100
0001
0020
0000
0100
0000
0130
0000
1000
0002
0000
0000
0100
0000
0103
0000
,
1000
0002
0000
0000
0100
0000
0103
0000
1000
0002
0000
0000
0103
0000
0110
0000
,
0110
0000
2002
0000
0003
0000
3001
0000
0010
0100
0000
0100
1000
0100
1000
0010
,
0000
0000
0000
0100
0000
0000
0001
0000
0000
1000
0000
0000
0000
0000
0000
0001
0000
0000
0010
0000
0000
0100
0000
0000
0000
0000
1000
0000
0000
0000
0001
0000
0000
0000
1000
0000
0000
0000
0000
0010
0000
0000
0100
0000
0000
0010
0000
0000
,
0000
0000
0000
0100
0000
0001
0000
0000
0000
0001
0000
1000
0000
0000
0000
1000
0000
0100
0000
0000
0000
0000
0010
0000
0000
0000
0000
0000
0000
0000
0001
0000
0000
0000
1000
0000
0100
0000
1000
0000
0000
0000
0100
0000
0000
0000
0010
0000
,
0000
0000
0000
0001
0000
0100
0000
0000
0000
0001
0000
1000
0000
0000
0000
0100
0000
1000
0000
0000
0000
0010
0000
0000
0000
0000
0100
0000
0000
0000
0001
0000
0000
0000
0010
0000
0000
0000
1000
0000
0000
0000
0020
0000
0000
0000
0000
0000
,
0000
0000
0031
0000
0100
1000
0100
0000
0100
0001
0010
0001
0010
0100
1000
0000
,
1001
0000
1000
0010
0100
0010
0100
0000
1000
0100
0010
0001
0010
1000
0100
0000
,
2000
0000
0002
3003
1001
0000
1000
0100
0000
0010
0000
0010
0000
0100
1000
0000
,
0000
0000
0001
0100
0001
0100
0001
0000
0010
0000
0100
1000
0100
1000
0100
0000
,
2000
0002
0000
0000
3003
0001
0110
1000
,
0110
0000
0000
0001
0000
0000
0110
0000
0000
1000
0000
0000
0000
0000
0010
0100
0000
0000
0000
0000
0000
0101
0000
0000
,
0100
0110
0000
0100
1001
0010
1001
0100
,
1001
0000
0100
0010
0000
0000
0110
0000
0000
0002
0000
0000
0000
0000
1003
0200
0000
0000
0000
0000
0000
0320
0000
0000
,
0000
0000
0031
2000
0000
0000
3000
0000
0000
1010
0000
0000
0000
0000
0000
0101
0000
0000
0000
0000
0000
0011
0000
0000
,
0010
0000
0000
0000
0100
0000
1000
0000
0000
0000
0000
0000
0010
0000
0000
0000
0000
0000
0001
0000
0000
0000
0000
0000
0010
0000
0000
0000
1000
0000
0100
0000
0000
0000
0000
0000
0010
0000
0000
0002
0000
0000
0000
0000
0000
0000
0000
0000
,
0203
0000
0000
0310
0000
0000
0100
0000
0010
1000
0000
0000
0101
0000
0000
1010
0000
0000
1000
0000
1000
0100
0000
0100
,
0010
0011
1100
1010
0110
0101
0011
1001
,
0200
0000
0020
0000
0330
0000
1010
0000
0001
0100
0010
0000
0100
0000
0011
0000
,
0100
1000
0010
0000
0100
0000
0110
0000
0001
1000
0000
0000
2002
0000
3003
0000
,
0101
0000
0000
0000
0010
0000
1000
0000
0000
0000
0000
0000
0011
0000
0000
0000
0100
0000
2000
0000
0000
3000
0000
0000
0000
0000
0000
2002
0000
0000
3003
0000
0000
0000
0000
0000
0100
0000
0000
0000
0000
0000
0001
0000
0000
0000
0000
0000
,
0010
0100
1000
1020
0130
0021
0130
1020
,
0130
0000
0021
0000
0130
0000
1000
0100
0010
0001
0010
0000
0010
0100
0000
0000
,
1100
0000
0110
0000
0011
0000
0001
0100
0010
1000
0010
0000
0010
0100
0000
0000
,
0101
0000
1100
0000
0000
0000
0011
0000
0010
0200
0000
0000
1300
0000
1010
0000
,
0010
0200
0000
0000
0301
0000
0110
0000
1000
0001
0000
0001
0100
0000
0010
0000
,
0100
0001
1000
0000
0000
0000
0011
0000
1000
0100
0010
0000
0100
0000
1010
0000
,
0100
0001
0010
0000
0100
0000
0110
0000
1000
0001
0000
0000
2002
0000
3003
0000
,
1100
0000
0000
0000
0010
0000
0001
0000
0000
0000
0000
0000
1010
0000
0000
0000
0100
0000
0002
0000
0000
0003
0000
0000
0000
0000
0000
2002
0000
0000
3003
0000
0000
0000
0000
0000
0001
0000
0000
0000
0000
0000
0100
0000
0000
0000
0000
0000
,
1000
0000
0100
0000
0010
0000
0110
0000
0100
0001
0010
0000
0100
1000
0010
0000
,
0100
0001
0010
0000
0110
0000
1000
0010
0100
0001
1000
0000
0100
0020
0000
0000
,
0001
0000
0001
0000
0031
1000
0010
0001
0010
0100
0001
0010
0100
2000
0000
0000
,
3001
0000
2002
0000
3003
0000
0101
0000
0100
2000
0000
0000
3001
0000
1100
0000
,
0100
0002
0000
0000
0013
0000
0110
0000
0000
1100
0000
0000
0011
0000
0001
0010
,
0100
2000
0002
0000
3003
0000
0101
0000
0000
0000
0001
0000
0100
0000
0010
0000
,
1000
0002
0000
0000
0013
0000
1100
0000
0000
0000
1000
0000
0100
0000
0010
0000
,
0001
2000
0000
0000
3010
0000
0110
0000
0100
0001
1000
0000
0001
0010
0100
0000
,
0010
0001
1000
0000
0010
0100
1000
0000
0100
0001
0010
0000
0100
1000
0100
0010
,
0001
1000
0010
0100
0001
1000
1010
0000
0000
0000
0100
0000
0001
0000
0010
0000
,
0100
2000
0000
0000
3010
0000
0101
0000
0000
0000
0010
0000
1000
0000
0100
0000
,
0010
0001
0000
0000
0100
0000
0011
0000
1100
0000
1010
0000
0101
0000
0001
0110
,
0000
0000
0000
0110
0000
0000
2000
0000
0000
0000
0000
0000
0000
0000
0000
0000
0000
0000
3001
0000
0000
0000
0000
0000
0000
0000
0000
0000
0010
0000
0100
0000
0000
0000
0000
0000
0010
0000
0000
0000
0000
0000
0210
0000
0000
0000
0000
0000
,
0000
0302
2000
0000
3003
0000
0001
0100
0001
0000
1000
0010
1000
0000
0010
0100
,
0010
0000
0000
1000
0000
0000
0001
0000
0000
0010
0000
0000
0100
0000
0000
1000
0000
0000
0001
0000
0100
0000
0010
0000
1000
0000
0000
0010
0000
0000
0100
0000
0000
0010
0000
0000
1000
0000
0000
0001
0000
0000
0010
0000
0000
0000
0000
0000
,
0010
0100
0000
0000
0110
0000
1000
0100
1000
0000
0001
0010
0001
0000
1000
0100
,
0010
0100
1000
0001
0100
0001
1000
0010
0100
0010
1000
0010
0100
0010
1000
0100
,
0010
0001
1000
0100
0010
0001
1000
0100
1000
0000
0001
0010
0001
0000
0010
0100
,
0010
0000
0000
0001
0000
0000
1000
0000
0000
0010
0000
0000
0100
0000
0000
0001
0000
0000
1000
0000
0100
0000
0010
0000
0001
0000
0000
0010
0000
0000
0100
0000
0000
0010
0000
0000
0001
0000
0000
1000
0000
0000
0010
0000
0000
0000
0000
0000
,
0010
0100
0000
0000
0110
0000
0001
0100
0001
0000
1000
0010
1000
0000
0001
0100
,
0010
0100
0001
1000
0100
1000
0001
0010
0100
0010
0001
0010
0100
0010
0001
0100
,
0010
2000
0002
0000
3003
0000
0000
0000
0000
0000
0000
0000
0000
0000
0000
0000
;
