#TITLE:LILIA;
#SUBTITLE:;
#ARTIST:Royz;
#TITLETRANSLIT:LILIA;
#SUBTITLETRANSLIT:;
#ARTISTTRANSLIT:Royz;
#GENRE:POP;
#CREDIT:;
#MUSIC:LILIA.ogg;
#BANNER:LILIA.png;
#BACKGROUND:LILIA-bg.png;
#CDTITLE:;
#SAMPLESTART:69.717;
#SAMPLELENGTH:15.231;
#SELECTABLE:YES;
#OFFSET:-0.025;
#BPMS:0.000=130.000;
#STOPS:;
#BGCHANGES:3.500=LILIA.avi=1.000=0=0=0=StretchNoLoop====,
99999.000=-nosongbg-=1.000=0=0=0=StretchNoLoop====
;
#FGCHANGES:;

//--------------- dance-single - ----------------
#NOTES:
     dance-single:
     :
     Hard:
     14:
     0,0,0,0,0:
0000
0000
0000
0000
,
0000
0000
0000
0000
,
0000
0000
0000
0000
,
0000
0000
0000
0000
,
0000
0000
0000
0000
,
1000
0000
0001
0000
0100
0010
0100
0000
0001
1000
0001
0000
0010
0100
0010
0000
,
0100
0000
1000
0000
0001
0100
0001
0000
1000
0100
1000
0000
1001
0000
0000
1001
,
0000
0001
1000
0000
1000
0100
0010
0000
0010
0100
1000
0000
1000
0100
0010
0002
,
0000
1003
0001
0000
0001
0100
0010
0000
0010
0100
0001
0000
0001
0100
0010
2000
,
0000
3001
1000
0000
1000
0100
0001
0000
0001
0100
1000
0000
1000
0010
0100
0002
,
0000
0103
0010
0100
0010
0100
0010
0100
0010
0000
1000
0001
0000
1000
0100
0010
,
0000
0001
1000
0000
1000
0010
0100
0000
0100
0010
1000
0000
1000
0010
0100
0002
,
0000
1003
0001
0000
0001
0010
0100
0000
0100
0010
0001
0000
0001
0010
0100
2000
,
0000
3001
1000
0000
1000
0010
0001
0000
0001
0010
1000
0000
1000
0100
0010
0002
,
0000
0013
0100
0010
0100
0010
0100
0010
0100
0000
1000
0001
0000
0100
0010
0000
,
0100
0000
1001
0000
0001
0100
0001
0100
0000
0000
1001
0000
1000
0100
1000
0100
,
0000
0000
1001
0000
0001
0100
0001
0000
0101
0000
1100
0000
0101
0000
1100
0000
,
0010
0000
1001
0000
0001
0010
0001
0010
0000
0000
1001
0000
1000
0010
1000
0010
,
1000
0100
1000
0001
0000
0000
0001
0100
0001
1000
0000
0000
0000
0000
0000
0000
,
0002
0023
0230
2300
3200
0320
0230
2300
,
3002
0000
0203
0000
0320
0000
2030
0000
3010
0100
0001
1000
0010
0100
0001
0000
,
1001
0000
1000
0100
0000
0100
1000
0000
0001
0000
0100
0000
0001
1000
0001
0000
,
1010
0000
0100
0001
0000
0001
0010
0000
0100
0000
1000
0000
0010
0100
0010
0000
,
0110
0000
0100
0001
1000
0000
0100
1000
0001
0000
1000
0100
1000
0100
0010
0001
,
1000
0000
1001
0000
1001
0000
0000
0101
0000
0000
1010
0000
2002
0000
3003
0000
,
1001
0000
0001
0010
0000
0010
0001
0000
1000
0000
0001
0000
0100
0010
0100
0000
,
0110
0000
0010
1000
0000
1000
0100
0000
0010
0000
0010
0001
0000
0001
1000
0000
,
1010
0000
0010
1000
0001
0000
0010
0001
1000
0000
0001
0100
0010
1000
0001
0000
,
0011
0000
0010
0100
1000
0000
1001
0000
0001
0100
0010
0000
1000
0010
0100
0000
,
0000
0000
1001
0000
0001
0100
0000
0010
0000
0100
0001
0000
0011
0000
1100
0000
,
0000
0000
1001
0000
1000
0100
0000
0010
0000
0100
1000
0000
1010
0000
0101
0000
,
1001
0000
0001
0100
0000
0010
1000
0000
1100
0000
1000
0100
0000
0010
0001
0000
,
1001
0000
0001
0100
0010
0000
0010
1000
0010
0100
0010
1000
0100
0010
0001
0000
,
1001
0000
1000
0100
1000
0100
1000
0001
0000
1000
0010
0000
0100
0000
0001
0000
,
0000
0000
0001
0100
0001
0100
0001
1000
0000
0001
0010
0000
0100
0000
1000
0000
,
0001
0000
1000
0000
1100
0000
0001
0100
0001
0000
1000
0000
0101
0000
1000
0100
,
1000
0000
0001
0100
0000
0100
0001
0010
0100
1000
0100
0010
0100
1000
0002
2000
,
0000
0000
0000
0000
0000
0000
0000
0000
0000
0000
0000
0000
3003
0000
1000
0100
,
1000
0000
0001
0000
0100
0000
0010
0000
1010
0000
1000
0100
0000
0100
0010
0000
,
0001
0000
0001
0010
0100
0000
1100
0000
1000
0100
0010
0000
0001
0010
1000
0010
,
0001
0000
1000
0100
1000
0100
0010
0001
1000
0001
1000
0010
0100
0001
1000
0001
,
0010
0000
0110
0000
0100
1000
0001
1000
0001
0000
1001
0000
0100
0001
1000
0001
,
1000
0000
0001
0100
0000
0100
0010
0000
1000
0000
0100
0000
0001
0000
0100
0000
,
1000
0000
0010
0100
0000
0100
0001
0000
0010
0000
1000
0000
0010
0000
0001
0000
,
0011
0011
1010
1010
0101
0101
1100
1100
,
1001
0000
0010
0100
0000
0100
0001
0000
0001
0010
0100
1000
0001
0010
0100
1000
,
0001
0000
1001
0000
0100
0010
0100
0000
0100
0001
0100
1000
0100
0001
1000
0010
,
0001
0000
0010
0000
1000
0000
0100
0000
0001
0100
0010
0000
0010
0001
1000
0100
,
0010
0000
0110
0000
0010
0001
0010
0100
1000
0001
1000
0001
0100
0010
1000
0010
,
0100
0000
0110
0000
0010
1000
0001
1000
0001
0000
1001
0000
0010
0001
1000
0001
,
1000
0000
1100
0000
0010
0000
0010
0001
0000
0001
1000
0000
1000
0010
0001
0000
,
0010
0000
1000
0000
0100
0000
0001
0100
0000
0100
1000
0000
0001
0100
0010
0000
,
0110
0000
1010
0000
0110
0000
0011
0000
0110
0000
1100
0000
0110
0000
0100
0001
,
0020
0000
0000
0000
0000
0000
0000
0000
0000
0000
0000
0000
0130
0000
0000
1001
,
0000
1000
0001
0000
0001
0100
0010
0000
0010
0100
0001
0000
0001
0100
0010
2000
,
0000
3001
1000
0000
1000
0100
0010
0000
0010
0100
1000
0000
1000
0100
0010
0002
,
0000
1003
0001
0000
0001
0100
1000
0000
1000
0100
0001
0000
0001
0010
0100
2000
,
0000
3100
0010
0100
0010
0100
0010
0100
0010
0000
0001
1000
0000
0001
0100
0010
,
0000
1000
0001
0000
0001
0010
0100
0000
0100
0010
0001
0000
0001
0010
0100
2000
,
0000
3001
1000
0000
1000
0010
0100
0000
0100
0010
1000
0000
1000
0010
0100
0002
,
0000
1003
0001
0000
0001
0010
1000
0000
1000
0010
0001
0000
0001
0100
0010
2000
,
0000
3010
0100
0010
0100
0010
0100
0010
0100
0000
0001
1000
0000
0100
0010
0000
,
0100
0000
1001
0000
1000
0100
1000
0100
0000
0000
1001
0000
0001
0100
0001
0100
,
0000
0000
1001
0000
1000
0100
1000
0000
1100
0000
0101
0000
1100
0000
0101
0000
,
0010
0000
1001
0000
1000
0010
1000
0010
0000
0000
1001
0000
0001
0010
0001
0010
,
0001
0100
1000
0001
0000
0000
1000
0100
0001
1000
0000
0000
0000
0000
0000
0000
,
2002
0000
0000
0000
,
0000
0000
0000
0000
,
0000
0000
0000
0000
,
3003
0000
0000
0000
;

//--------------- dance-single - ----------------
#NOTES:
     dance-single:
     :
     Challenge:
     17:
     1.043995,1.040515,0.494931,0.015467,1.631725,945,881,64,2,0,0,1.043995,1.040515,0.494931,0.015467,1.631725,945,881,64,2,0,0:
0000
0000
0000
0000
,
1000
0010
1000
0001
1000
0100
1000
0001
1000
0010
1000
0100
1000
0010
1000
0001
,
0100
0010
0100
0001
0100
0010
0100
1000
0100
0010
0100
0001
0100
1000
0100
0001
,
1001
1000
0001
0010
0001
0100
0001
1000
0001
0010
0001
0100
0001
0010
0001
1000
,
0100
0010
0100
1000
0100
0010
0100
0001
0100
0010
0100
1000
0100
0001
0100
1000
,
1001
0001
0010
0100
0010
0001
0010
0100
0010
1000
0010
0001
0010
1000
0010
0001
,
0100
1000
0100
0010
0100
0001
0100
0010
0100
1000
0100
0001
1001
0000
0000
1100
,
0000
1000
0100
0010
0100
0001
0100
1000
0100
0010
1000
0010
0100
0001
0100
2000
,
0000
3001
0100
0010
0100
1000
0100
0001
0100
0010
0001
0010
0100
1000
0100
0002
,
0000
1003
0100
0010
0100
1000
0001
0100
0010
0100
0001
1000
0100
0001
0100
2000
,
0000
0000
3100
0000
0100
0000
0100
0000
0100
0000
0100
0000
0100
0000
0100
0000
1000
0100
1000
0000
0001
0000
1000
0010
1000
0000
0001
0000
0100
0000
0101
0000
,
0000
0001
0100
0010
0100
1000
0100
0001
0100
0010
0001
0010
0100
1000
0100
0002
,
0000
1003
0100
0010
0100
0001
0100
1000
0100
0010
1000
0010
0100
0001
0100
2000
,
0000
3001
0100
0010
0100
0001
1000
0100
0010
0100
1000
0001
0100
1000
0100
0002
,
0000
0000
0103
0000
0100
0000
0100
0000
0100
0000
0100
0000
0100
0000
0100
0000
0001
0100
0001
0000
1000
0000
0001
0010
0001
0000
1000
0000
0001
0000
0010
0000
,
0100
0000
1001
0000
0001
0001
1000
0100
0000
0000
1001
0000
1000
1000
0001
0100
,
0000
0000
1001
0000
0001
0001
1000
0100
1100
1000
0101
0001
1100
1000
0101
0001
,
0010
0000
1001
0000
0001
0001
0100
0010
0000
0000
1001
0000
1000
1000
0010
0010
,
0100
0001
0010
0110
0000
0000
0100
1000
0010
0110
0000
0000
0000
0000
0000
0000
,
0001
0010
0100
1000
0001
0100
0001
0100
0010
1000
0100
0010
0001
0010
0100
1000
,
0001
0100
0001
0100
0010
1000
0010
1000
0001
0100
0010
1000
0001
0010
0100
1000
,
1001
0000
1000
0010
1000
0100
1000
0000
0001
0100
0001
0010
0001
0100
0010
0000
,
0110
0000
0100
0001
0000
0001
0010
0000
0110
0000
0100
1000
0000
1000
0010
0000
,
0110
0000
0010
1000
0100
0100
0001
1000
0010
0100
0001
0100
0100
1000
0010
0100
,
0001
0000
0000
0000
1001
0000
0000
0000
1001
0000
0000
0000
0000
0000
0001
0000
1000
0100
1000
0100
1000
0000
0000
0000
0001
0100
0001
0100
0001
0000
0000
0000
,
1001
0000
0001
0010
0001
0100
0001
0000
1000
0100
1000
0010
1000
0100
0010
0000
,
0110
0000
0100
1000
0000
1000
0010
0000
0110
0000
0100
0001
0000
0001
0010
0000
,
0110
0000
0010
0001
0100
0100
1000
0001
0010
0100
1000
0100
0100
0001
0010
0100
,
0110
0000
0000
0000
0010
0000
0001
0000
0100
0000
0000
0000
1001
0000
0000
0000
1000
0010
1000
0010
1000
0000
0000
0000
0001
0010
0001
0010
0001
0000
0000
0000
,
0010
0000
1100
0000
1000
2000
0000
3020
0000
0130
0001
0000
1100
0000
0011
0000
,
0000
0000
0101
0000
0001
0002
0000
0023
0000
0130
1000
0000
0101
0000
1010
0000
,
0110
0000
0010
1000
0100
0010
0001
0000
0011
0000
0010
0001
0100
0010
1000
0000
,
1010
0000
1000
0100
0010
0100
0010
0001
0100
0100
1000
0001
0010
0010
1000
0001
,
1001
0000
1000
0100
0010
0001
0010
0200
0000
1000
2300
0000
3002
0000
0103
0000
,
1001
0000
0001
0100
0010
1000
0010
0200
0000
0001
0302
0000
2003
0000
3200
0000
,
0310
0011
0101
0011
1010
1100
1010
0101
,
1001
0000
0000
0000
0001
0000
0100
0000
0000
0000
0100
0000
1000
0000
0100
0000
0001
0100
0001
0000
1000
0010
1000
0000
0001
0100
0001
0000
0200
0000
0020
0000
,
0000
0000
0000
0000
0000
0000
0000
0000
0000
0000
0000
0000
0330
0000
0001
1000
,
0001
0000
1010
0000
0100
0001
0010
0000
1100
0000
1000
0001
0100
0100
1000
0000
,
0001
0100
0001
0000
1000
0000
0100
0000
0010
0000
0000
0000
0110
0000
0000
0000
0010
0001
0010
0000
0100
0000
1000
0000
0001
0000
0100
0000
0010
0000
0100
0000
,
0001
0001
1000
0100
0010
0010
0001
1000
0001
0001
0100
0010
1000
1000
0010
0001
,
0010
0000
0000
0000
0110
0000
0000
0000
0100
0010
0100
0000
0001
0000
1000
0000
0001
0000
0000
0000
1001
0000
0000
0000
1000
0000
0100
0000
1000
0000
0100
0000
,
0001
0000
0001
0100
0000
0100
1000
0000
1000
0010
0100
0000
0100
0100
0001
0010
,
0100
0000
0100
0001
0000
0001
0100
0000
0100
1000
0010
0000
0010
0001
1000
0100
,
0001
0010
0100
0100
1000
0001
1000
0100
0010
0010
0001
0010
1000
0001
0100
1000
,
0100
0000
0100
0000
0010
0000
0001
0000
1000
0000
1000
0000
0100
0000
0010
0000
0100
1000
0100
0000
1000
0001
1000
0000
0001
0100
0001
0000
1000
0001
1000
0000
,
0100
0000
1001
0000
0001
0001
1000
0010
0100
0001
1000
0100
1000
0001
1000
0010
,
0110
0000
0100
0001
0010
0100
1000
0001
0100
0100
1000
0000
1000
0100
0001
1000
,
0001
0100
0010
1000
0010
0001
0010
0100
1000
1000
0100
0001
1000
1000
0100
0010
,
0001
0000
0110
0000
1000
0001
1000
0001
0010
0000
1001
0000
1000
0001
1000
0001
,
0100
0000
1001
0000
0100
0010
1000
0100
0000
0100
1000
0000
0001
0010
0100
0000
,
0010
0000
0001
0000
0001
0010
1000
0010
0000
0010
0001
0000
1000
0100
0010
0000
,
0001
0100
0001
0000
0010
0000
0100
0000
1000
0100
1000
0000
0100
0000
0010
0000
0001
0100
0001
0000
1000
0000
0010
0000
0100
0010
0100
0010
0100
0010
0100
0020
,
0200
0000
0000
0000
0000
0000
0000
0000
0000
0000
0330
0000
0110
0000
0000
1001
,
0000
1000
0100
0010
0100
0001
0100
1000
0100
0010
1000
0010
0100
0001
0100
2000
,
0000
3001
0100
0010
0100
1000
0100
0001
0100
0010
0001
0010
0100
1000
0100
0002
,
0000
1003
0100
0010
0100
1000
0001
0100
0010
0100
0001
1000
0100
0001
0100
2000
,
0000
0000
3100
0000
0100
0000
0100
0000
0100
0000
0100
0000
0100
0000
0100
0000
1000
0100
1000
0000
0001
0000
1000
0010
1000
0000
0001
0000
0100
0000
0101
0000
,
0000
0001
0100
0010
0100
1000
0100
0001
0100
0010
0001
0010
0100
1000
0100
0002
,
0000
1003
0100
0010
0100
0001
0100
1000
0100
0010
1000
0010
0100
0001
0100
2000
,
0000
3001
0100
0010
0100
0001
1000
0100
0010
0100
1000
0001
0100
1000
0100
0002
,
0000
0000
0103
0000
0100
0000
0100
0000
0100
0000
0100
0000
0100
0000
0100
0000
0001
0100
0001
0000
1000
0000
0001
0010
0001
0000
1000
0000
0001
0000
0010
0000
,
0100
0000
1001
0000
0001
0001
1000
0100
0000
0000
1001
0000
1000
1000
0001
0100
,
0000
0000
1001
0000
0001
0001
1000
0100
1100
1000
0101
0001
1100
1000
0101
0001
,
0010
0000
1001
0000
0001
0001
0100
0010
0000
0000
1001
0000
1000
0010
0100
0010
,
1000
0100
0001
1001
0000
0000
1000
0010
0001
1001
0000
0000
0000
0000
0000
0000
,
2002
0000
0000
0000
,
0000
0000
0000
0000
,
0000
0000
0000
0000
,
3003
0000
0000
0000
;
