#TITLE:LEON;
#SUBTITLE:;
#ARTIST:Royz;
#TITLETRANSLIT:LEON;
#SUBTITLETRANSLIT:;
#ARTISTTRANSLIT:Royz;
#GENRE:POP;
#CREDIT:;
#MUSIC:LEON.ogg;
#BANNER:LEON.png;
#BACKGROUND:LEON-bg.png;
#CDTITLE:;
#SAMPLESTART:79.378;
#SAMPLELENGTH:14.222;
#SELECTABLE:YES;
#OFFSET:-0.045;
#BPMS:0.000=135.000;
#STOPS:;
#BGCHANGES:0.500=LEON.avi=1.000=0=0=0=StretchNoLoop====,
99999.000=-nosongbg-=1.000=0=0=0=StretchNoLoop====
;
#FGCHANGES:;

//--------------- dance-single - ----------------
#NOTES:
     dance-single:
     :
     Medium:
     12:
     0,0,0,0,0:
0000
0000
0000
0000
,
2000
0000
0000
0010
0000
0000
3100
0000
0000
0000
1000
0000
0001
0000
0100
0000
,
0002
0000
0000
0010
0000
0000
0103
0000
0001
0100
0001
0000
1000
0001
1000
0000
,
0020
0000
0000
1000
0000
0000
0130
0000
0000
0000
0100
0000
0001
0000
0010
0000
,
0200
0000
0000
0010
0000
0000
1300
0000
0010
1000
0010
0000
1000
0001
1000
0000
,
0001
0000
0000
0100
0000
0000
0010
0000
0000
0100
0000
0000
0001
0000
0001
0000
,
1000
0000
0000
0100
0000
0000
0010
0000
0000
0100
0000
0000
1000
0000
1000
0000
,
0010
0000
0000
0100
0000
0000
0001
0000
0000
0100
0000
0000
0010
0000
0010
0000
,
1000
0100
0000
0100
0000
0100
0010
0000
0010
0001
0000
0001
1000
0000
0000
0000
,
1001
0000
0000
1000
0010
0000
0100
0000
0000
0001
0010
0000
0100
0000
0100
0000
,
1000
0000
0000
1000
0001
0000
0100
0000
0000
0100
0010
0000
1000
0000
1000
0000
,
0001
0000
0000
0010
0001
0000
1000
0000
0000
0001
0010
0000
0100
0000
0100
0000
,
2000
0000
0000
3200
0000
0000
0320
0000
0000
0032
0000
0000
1003
0000
0010
0000
,
1000
0000
0000
0001
0100
0000
0010
0000
0000
1000
0100
0000
0010
0000
0010
0000
,
0001
0000
0000
1000
0001
0000
0100
0000
0000
0010
1000
0000
0001
0000
0001
0000
,
0010
0000
0000
0100
1000
0000
0010
0000
0000
0100
0001
0000
0010
0000
0010
0000
,
0002
0000
0000
0203
0000
0000
0320
0000
0000
2030
0000
0000
3001
0000
0100
0000
,
0002
0000
0013
0100
0020
0000
0130
0010
,
0001
1000
0001
1000
1001
0000
1001
0000
,
1001
0000
0000
0001
0000
0000
0100
0000
1010
0000
0000
0110
0000
0000
0101
0000
,
0000
0000
0001
0000
0001
0000
0010
0000
1100
0000
0000
1100
0000
0000
0011
0000
,
0000
0000
0001
0000
0100
0000
0010
0000
0110
0000
0000
0101
0000
0000
1010
0000
,
0000
0000
1000
0000
0100
0000
0010
0000
0110
0000
0000
0110
0000
0000
1001
0000
,
0000
1000
0010
0001
0010
1000
0100
0010
,
0000
0001
0100
1000
0100
0010
0100
0010
,
1000
0100
0010
0100
0001
0100
0010
0100
,
1000
0010
0100
0010
0001
0010
0100
0001
,
1001
0000
0000
0001
0010
0000
0100
0000
0000
1000
0010
0000
0100
0000
0100
0000
,
0001
0000
0000
0001
1000
0000
0100
0000
0000
0100
0010
0000
0001
0000
0001
0000
,
1000
0000
0000
0010
1000
0000
0001
0000
0000
1000
0010
0000
0100
0000
0100
0000
,
0002
0000
0000
0203
0000
0000
0320
0000
0000
2030
0000
0000
3001
0000
0010
0000
,
0001
0000
1000
0000
0100
0000
0100
0000
0011
0000
0000
0110
0000
0000
1100
0000
,
0000
0000
1000
0000
1000
0000
0010
0000
0101
0000
0000
0101
0000
0000
1010
0000
,
0000
0000
1000
0000
0100
0000
0010
0000
0110
0000
0000
1100
0000
0000
0011
0000
,
0000
0000
0001
0000
0100
0000
0010
0000
0110
0000
0100
0010
0000
1000
0001
0000
,
0000
0001
0010
1000
0020
0001
0001
0130
,
0000
0000
1000
0000
0100
0000
0001
0000
0100
0000
0010
0100
0000
0000
0010
0000
,
0001
0100
0010
0100
1000
0100
0010
0100
,
0001
0010
0100
0010
1000
0010
0100
1000
,
1001
0010
0010
0100
,
0001
1000
0000
0100
0000
0010
0000
0100
,
0110
0000
0000
1000
0000
0000
0001
0000
0100
0000
0001
0000
1000
0000
0010
0000
,
0101
0000
0000
0001
0000
0000
1000
0000
1010
0000
0010
0000
0100
0000
0001
0000
,
1000
0100
0010
0001
1000
0100
0010
0001
,
1000
0010
1000
0010
0200
0000
0000
0000
,
0310
0000
1000
0000
0100
0000
0010
0000
0100
0000
1000
0010
0000
1000
0001
0000
,
1001
0000
0000
0110
0000
0000
1001
0000
0000
0000
0010
0000
0010
0000
1000
0000
,
0200
0000
0000
0000
0320
0000
0000
0000
0032
0000
0000
1000
0000
0000
0103
0000
,
0010
0000
1000
0100
0000
1000
0001
0000
0010
0000
0001
0100
0000
0001
1000
0000
,
0000
0000
0100
0000
1000
0000
0100
0010
0000
0010
0000
0010
0001
0000
0100
0000
,
0000
0000
0010
0000
1000
0000
0100
0010
0000
0001
1000
0000
0010
0000
0100
0000
,
0101
0001
0011
0001
1001
1000
1100
1000
,
1010
0010
0110
0100
0110
1000
0001
0000
,
1100
0000
1000
0100
0000
0010
0100
0000
0010
0000
0001
0100
0000
0010
0100
0000
,
1010
0000
0000
0110
0000
0000
0101
0000
0000
0000
0001
0000
0010
0000
0100
0000
,
1100
1000
1010
1000
1001
0001
0101
0001
,
1001
0000
1000
0010
0000
0010
0100
0000
0110
0000
0100
0001
0000
0001
0010
0000
,
0110
0000
1000
0000
1000
0000
0001
0100
0000
0100
0000
0100
0010
0000
1000
0000
,
0000
0000
1100
0000
0100
0000
1000
0010
0000
0010
0000
0010
0100
0000
0001
0000
,
0011
1000
1100
0001
0101
1000
1010
0100
,
0210
0000
0000
0000
0010
0000
0320
0000
0000
0000
0000
0000
0130
0000
0000
0010
,
1000
0000
0000
1000
0100
0000
0010
0000
0000
0001
0100
0000
0010
0000
0010
0000
,
1000
0000
0000
1000
0001
0000
0010
0000
0000
0010
0100
0000
1000
0000
1000
0000
,
0001
0000
0000
0100
0001
0000
1000
0000
0000
0001
0100
0000
0010
0000
0010
0000
,
2000
0000
0000
3020
0000
0000
0230
0000
0000
0302
0000
0000
1003
0000
0100
0000
,
1000
0000
0000
0001
0010
0000
0100
0000
0000
1000
0010
0000
0100
0000
0100
0000
,
0001
0000
0000
1000
0001
0000
0010
0000
0000
0100
1000
0000
0001
0000
0001
0000
,
0100
0000
0000
0010
1000
0000
0100
0000
0000
0010
0001
0000
0100
0000
0100
0000
,
0002
0000
0000
0023
0000
0000
0230
0000
0000
2300
0000
0000
3001
0000
0100
0000
,
0001
0100
0000
0010
0100
0000
0001
0100
0000
0010
0100
0000
0110
0000
1001
0000
,
1000
0100
0000
0010
0100
0000
1000
0100
0000
0010
0100
0000
0110
0000
1001
0000
;

//--------------- dance-single - ----------------
#NOTES:
     dance-single:
     :
     Hard:
     16:
     0.952351,0.912881,0.60888,0.070255,1.252888,854,776,78,9,0,0,0.952351,0.912881,0.60888,0.070255,1.252888,854,776,78,9,0,0:
0000
0000
0000
0000
,
1100
0000
0000
0011
0000
0000
1100
0000
0000
0000
1000
0000
0010
0000
1000
0000
,
0101
0000
0000
1010
0000
0000
0101
0000
0001
0010
0001
0010
0100
1000
0100
1000
,
0010
0000
0000
0110
0000
0000
1010
0000
0000
0000
0001
0000
0100
0000
0001
0000
,
1010
0000
0000
0011
0000
0000
0101
0000
0100
0010
0100
0010
1000
0001
1000
0000
,
0001
0100
0000
0010
0100
0000
0001
0010
0000
0001
1000
0000
0001
0100
0001
0100
,
0001
0010
0000
0100
0010
0000
0001
0100
0000
0001
1000
0010
0100
0010
1000
0010
,
1000
0100
0000
0010
0100
0000
1000
0010
0000
1000
0001
0010
0001
0010
0001
0100
,
0001
0010
0000
0010
0100
0010
0001
0000
0001
0100
0010
0100
1000
0000
1000
0100
,
0001
0010
0000
0100
1000
0000
0001
0100
0000
0010
1000
0000
0110
0000
0100
0001
,
0010
0100
0000
0010
0001
0000
1000
0001
0000
0100
0010
0000
1010
0000
1000
0100
,
0010
0001
0000
1000
0100
0000
0010
0001
0000
1000
0100
0000
0110
0000
0010
0001
,
0100
1000
0000
0100
0001
0000
0010
1000
0000
0010
0001
0000
1000
0001
0100
0010
,
1000
0010
0000
0100
0001
0000
1000
0100
0000
0010
0001
0000
0110
0000
0100
1000
,
0010
0100
0000
0010
1000
0000
0001
1000
0000
0100
0010
0000
0011
0000
0001
0100
,
0010
1000
0000
0001
0100
0000
0010
1000
0000
0001
0100
0000
0110
0000
0010
1000
,
0100
0001
0000
0100
1000
0000
0010
0001
0000
0010
1000
0000
0001
1000
0100
0010
,
0001
0000
0000
1000
0010
0000
0010
0100
0020
0000
0000
0000
0130
0000
0010
0000
,
1000
0000
1100
0000
0001
0000
0101
0000
0100
0001
0100
0001
1000
0100
1000
0100
,
0010
0000
0010
0001
0000
0001
1000
0000
1010
0000
0010
0100
0000
0100
0001
0000
,
0000
0000
0001
0010
0001
0010
0100
0010
0100
0000
0100
1000
0000
1000
0010
0000
,
0110
0000
0100
0001
0100
0001
1000
0100
0010
0000
0010
0100
0000
0100
1000
0000
,
0000
0000
1000
0010
0100
0001
0010
0001
0010
0100
1000
0001
1000
0001
1000
0001
,
0100
1010
0100
0011
0100
1100
1010
0101
,
0010
0000
1100
0000
0010
0000
0101
0000
1001
0000
1000
0001
0000
1000
0100
0010
,
0001
0010
0100
0010
0100
0010
0100
0010
1000
0010
0100
0010
0100
0010
0100
0010
,
0001
0010
0100
0010
1000
0010
0100
0010
0001
0010
0100
0010
1000
0010
0100
0010
,
0001
0010
0000
0100
1000
0000
0001
0100
0000
0010
1000
0000
0110
0000
0100
0001
,
0010
0100
0000
0010
0001
0000
1000
0001
0000
0100
0010
0000
1010
0000
1000
0100
,
0010
0001
0000
1000
0100
0000
0010
0001
0000
1000
0100
0000
0110
0000
0010
0001
,
0100
1000
0000
0100
0001
0000
0010
1000
0000
0010
0001
0000
1000
0001
0100
0010
,
0100
0000
0100
0001
0000
0001
1000
0000
1100
0000
0100
0010
0000
0010
0001
0000
,
0000
0000
0001
0100
0001
0100
0010
0100
0010
0000
0010
1000
0000
1000
0100
0000
,
0110
0000
0010
0001
0010
0001
1000
0010
0100
0000
0100
0010
0000
0010
1000
0000
,
0000
0000
1000
0100
0010
0001
0100
0001
0100
0010
1000
0001
1000
0001
1000
0001
,
0010
1100
0010
0101
0010
1010
1100
0011
,
0100
0000
1010
0000
0100
0000
0011
0000
1001
0000
1000
0001
0000
1000
0010
0100
,
0001
0100
0010
0100
0010
0100
0010
0100
1000
0100
0010
0100
0010
0100
0010
0100
,
0001
0100
0010
0100
1000
0100
0010
0100
0001
0100
0010
0100
1000
0100
0010
0100
,
0002
1000
1000
0203
,
0010
0001
0000
0001
0000
1000
0000
0310
,
1010
0000
1000
0100
0000
1000
0001
0000
0100
0001
0000
1001
0000
1000
0100
0010
,
0001
0000
1000
0010
0000
0100
0001
0000
1010
0000
0010
0100
0000
0001
0100
0010
,
1000
0000
0100
0000
0010
0001
0010
0100
0010
0000
0100
1000
0100
0010
0100
1000
,
0001
0100
0001
0100
0001
0100
0001
2000
0000
0000
0000
0000
0000
0000
0000
0000
,
3100
0000
0110
0000
0010
0001
0100
0001
0100
0000
0110
0000
0010
1000
0001
1000
,
0001
0000
0011
0000
0010
0100
0010
0100
1000
0000
1010
0000
0010
0100
0001
0100
,
0010
0000
0010
1000
0100
0000
0100
0010
0001
0000
0001
0010
0100
0000
0110
0000
,
0010
0001
0100
1000
0001
0010
1000
0100
0010
0001
1000
0100
0001
1000
0010
0001
,
0100
0000
0010
1000
0010
1000
0000
0110
0000
0110
0000
0100
0001
0000
0101
0000
,
1001
0000
1100
0000
0100
0010
0100
0010
0000
0010
0001
0000
0011
0000
0001
0100
,
0010
1010
0100
0101
0010
1010
0100
0101
,
1000
0000
0001
0100
0010
0100
0010
1000
0001
0010
0001
0010
0100
0000
0000
0000
,
1100
0000
1000
0100
1000
0001
0100
0010
0100
0000
0110
0000
0100
0001
0010
0000
,
0110
0000
0100
1000
0100
0010
0001
0100
0010
0100
0010
0001
0010
0000
0110
0000
,
1010
0000
1000
0100
0010
0000
0010
0001
0100
0000
0100
0010
1000
0000
0001
0000
,
2000
0000
0010
3002
0000
0013
0200
0001
0320
0000
1030
0002
0000
0100
1003
0000
,
1010
0000
0100
0000
0100
0000
0010
1000
0000
1000
0100
0010
0001
0000
0011
0000
,
1000
0000
0010
0000
0100
0000
0001
0010
0000
0100
0000
0010
0001
0000
1000
0000
,
1010
0000
0010
0100
0010
0000
0100
0001
0010
0100
0010
0001
0100
0010
0100
0010
,
1000
0000
1000
0000
0001
0100
0001
0100
0001
0000
0000
0000
0010
0000
0000
0010
,
0100
0010
0000
0100
1000
0000
0001
0100
0000
0010
1000
0000
0110
0000
0100
0001
,
0010
0100
0000
0010
0001
0000
1000
0001
0000
0100
0010
0000
1010
0000
1000
0100
,
0010
0001
0000
1000
0100
0000
0010
0001
0000
1000
0100
0000
0110
0000
0010
0001
,
0100
1000
0000
0100
0001
0000
0010
1000
0000
0010
0001
0000
1000
0001
0100
0010
,
1000
0010
0000
0100
0001
0000
1000
0100
0000
0010
0001
0000
0110
0000
0100
1000
,
0010
0100
0000
0010
1000
0000
0001
1000
0000
0100
0010
0000
0011
0000
0001
0100
,
0010
1000
0000
0001
0100
0000
0010
1000
0000
0001
0100
0000
0110
0000
0010
1000
,
0100
0001
0000
0100
1000
0000
0010
0001
0000
0010
1000
0000
0001
1000
0100
0010
,
0001
0100
0000
1000
0100
0000
0001
0100
0000
1000
0100
0000
0101
0000
1001
0000
,
1000
0100
0000
0001
0100
0000
1000
0100
0000
0001
0100
0000
1100
0000
1001
0000
;

//--------------- dance-single - ----------------
#NOTES:
     dance-single:
     :
     Challenge:
     18:
     1.154196,1.35549,0.460563,0.062449,1.861768,1035,976,59,8,0,0,1.154196,1.35549,0.460563,0.062449,1.861768,1035,976,59,8,0,0:
0000
0000
0000
0000
,
0101
0000
0000
1010
0000
0000
0101
0000
0000
0000
0002
0103
0020
1030
0002
0013
,
1100
0000
0000
0011
0000
0000
1100
0000
1000
0100
1000
0010
0100
0001
0100
0010
,
1010
0000
0000
1001
0000
0000
1100
0000
0000
0000
2000
3100
0020
0031
0200
0310
,
1010
0000
0000
1001
0000
0000
0101
0000
0001
0100
0001
1000
0010
0100
0010
0000
,
0100
0001
0001
0010
0100
0100
1000
0001
0001
0100
1000
0100
0001
1000
0100
0010
,
0001
1000
1000
0001
0010
0010
0100
1000
1000
0010
0100
0010
1000
0010
0100
0010
,
1000
0010
0010
1000
0001
0001
0010
0100
0100
1000
0001
0010
1000
0010
0001
0100
,
0001
1000
0000
0010
0100
0010
0001
0000
1000
0100
0010
0100
0101
0000
0001
0010
,
0001
0100
0000
0001
1000
0000
0010
0100
0000
0001
0010
0100
0010
1000
0001
0100
,
1000
0010
0000
0100
0001
0000
1000
0001
0000
0010
0001
0100
0001
0010
0001
1000
,
0100
0001
0000
0100
1000
0000
0010
0100
0000
0010
0001
0000
0010
1000
0010
0100
,
0010
1000
0100
0001
0100
1000
0001
0010
0001
0100
1000
0100
0010
0100
1000
0001
,
0010
1000
0000
0001
0010
0000
0100
1000
0000
0001
0100
0010
0001
1000
0100
0010
,
1000
0001
0000
0010
0100
0000
0001
0100
0000
1000
0100
0010
0100
1000
0001
0010
,
0001
0100
0000
0010
1000
0000
0010
0001
0000
0010
0100
0001
1000
0001
0010
1000
,
0001
0100
0001
1000
0010
1000
0001
0100
1000
0100
0010
0001
0010
0100
1000
0001
,
0100
0000
0000
0100
0010
0000
0010
1000
0020
0000
0000
0000
1000
0000
0130
0000
,
0101
0000
0110
0000
1100
0000
1001
0000
0100
1000
0100
1000
0010
0100
0001
0100
,
0001
0000
1000
0001
0000
1000
0100
0010
0001
0000
0100
0010
1000
0001
0100
0000
,
0000
0000
0100
0010
0100
0001
0010
0100
1000
0000
0001
1000
0000
0010
1000
0100
,
0010
0000
0001
0100
1000
0100
1000
0100
0001
0000
1000
0100
0000
0010
0100
0000
,
0000
0000
0010
0001
0100
1000
0001
0010
1000
0100
0010
0100
1000
0001
0100
0010
,
0110
1010
0110
0101
0011
0110
1100
0110
,
0011
0000
1100
0000
1010
0000
0101
0000
0011
0000
0110
1000
0000
0110
0001
0010
,
0100
1000
0001
0100
0001
1000
0010
1000
0100
0010
0100
1000
0001
0100
0010
0100
0001
0010
0100
1000
0001
0100
0001
1000
,
0010
0100
0001
1000
0100
1000
0001
0010
0100
1000
0001
1000
0100
0010
0001
1000
0001
0100
0010
1000
0001
1000
0010
0100
,
0001
0010
0100
0010
0001
1000
0010
0100
0010
1000
0001
0010
1100
0000
0011
0000
,
0001
0100
0001
0010
0100
1000
0001
0100
1000
0100
0010
1000
0101
0000
0010
0001
,
0100
0001
0010
0100
1000
0010
1000
0100
0010
0001
0100
0010
1010
0000
0101
0000
,
0001
0100
0001
1000
0100
1000
0010
0100
0010
1000
0001
1000
0100
0010
0100
1000
,
0001
0100
0001
0010
0100
1000
0010
1000
0100
0010
0001
1000
0010
1000
0101
0000
,
0000
0000
0011
0000
0001
1000
0010
0100
0001
1000
0010
1000
0010
0100
0001
0100
,
0001
0010
0100
1000
0001
1000
0010
0100
0010
1000
0010
1000
0001
0100
0110
0000
,
0000
0000
1010
0100
0010
1000
0010
0100
0001
0010
0001
0100
0001
0010
0100
1000
,
0001
1000
0010
1000
0001
0010
0001
1000
0001
0100
0010
0100
0001
1000
0001
0100
,
1000
0100
0010
1000
0100
0001
0100
0001
0100
0010
0100
1000
0001
0100
0010
1000
,
0001
1000
0100
0010
0100
1000
0010
0100
0001
0010
0001
0100
0001
1000
0100
1000
0010
0100
0001
0100
0010
1000
0100
1000
,
0001
0100
0001
0010
0100
1000
0010
0100
0010
1000
0001
0010
0100
0010
0100
1000
0010
0100
0010
0100
0001
1000
0100
0010
,
0001
0000
0000
0010
0000
0000
0010
0000
0010
0000
0001
0000
0100
0010
0100
0010
,
1000
0000
0100
0000
0010
0000
0001
0000
1000
0000
0100
0000
0010
0001
0010
0100
,
1000
0010
1000
0010
0000
0010
0100
0000
0100
0001
0100
0010
0000
0010
1000
0100
,
0010
0000
0010
0001
0000
0001
1000
0000
1001
0000
0001
0100
0001
0010
0001
0010
,
0100
0000
0100
1000
0010
1000
0010
0100
0010
0000
0010
1000
0100
0010
0100
1000
,
0001
0100
0010
0100
0001
0010
1000
0002
0000
0000
0000
0000
0000
0000
0000
0000
,
0103
1000
0010
0100
0010
1000
0001
0100
0001
0010
0100
1000
0100
0010
0100
1000
,
0001
0100
1000
0100
0001
0100
1000
0100
0001
0010
0100
1000
0001
0010
0100
1000
,
0100
1000
0001
0100
0010
0100
1000
0100
0010
0001
0010
0100
0001
0010
0100
1000
,
0001
0010
0001
1000
0100
0010
0001
1000
0100
0010
0100
0001
0100
0010
0100
1000
,
0001
0000
1000
0010
0100
0001
0000
0001
0010
0100
1000
0001
0011
0000
1100
0000
,
1001
0000
1000
0010
0100
0001
0100
0010
0000
1000
0100
0010
0100
1000
0001
0100
,
1010
0000
0000
0100
0010
0100
0001
0100
0001
0010
0100
0000
1100
0000
1001
0000
,
1000
0100
1000
0001
0010
0001
1000
0010
0100
0001
0100
0010
0110
0000
0000
0000
,
0100
0001
0010
0100
0010
0001
1000
0100
1000
0010
0100
0001
0100
0010
0100
0001
,
1000
0100
0001
0100
1000
0100
0001
0100
1000
0010
0100
0001
1000
0010
0100
0001
,
0100
0001
1000
0100
0010
0100
0001
0100
0010
1000
0010
0100
1000
0010
0100
0001
,
1000
0010
1000
0001
0100
0010
1000
0001
0100
0010
0100
1000
0100
0010
0100
0001
,
0101
0000
0001
1000
0001
0010
1000
0010
0000
0100
0010
0001
0101
0000
1010
0000
,
0110
0000
0100
0010
0001
0010
1000
0001
0100
1000
0100
0010
1000
0100
0010
0001
,
0011
0000
0010
0100
0010
0001
0010
1000
0010
0100
0001
1000
0010
0001
0100
0010
,
0100
0010
1000
0100
0010
0001
0100
0010
1010
0000
0000
0000
1000
0010
0000
0010
,
0100
0010
0000
1000
0001
0000
0010
0100
0000
1000
0010
0100
0010
0001
1000
0100
,
0001
0010
0000
0100
1000
0000
0001
1000
0000
0010
1000
0100
1000
0010
1000
0001
,
0100
1000
0000
0100
0001
0000
0010
0100
0000
0010
1000
0000
0010
0001
0010
0100
,
0010
0001
0100
1000
0100
0001
1000
0010
1000
0100
0001
0100
0010
0100
0001
1000
,
0010
0001
0000
1000
0010
0000
0100
0001
0000
1000
0100
0010
1000
0001
0100
0010
,
0001
1000
0000
0010
0100
0000
1000
0100
0000
0001
0100
0010
0100
0001
1000
0010
,
1000
0100
0000
0010
0001
0000
0010
1000
0000
0010
0100
1000
0001
1000
0010
0001
,
1000
0100
1000
0001
0010
0001
1000
0100
0001
0100
0010
1000
0010
0100
0001
1000
,
0001
0100
0100
1000
0100
0100
0001
0100
0100
1000
0100
0100
0101
0000
1100
0000
,
1000
0100
0100
0001
0100
0100
1000
0100
0100
0001
0100
0100
1100
0000
1001
0000
;
