#TITLE:LADY CRAZY;
#SUBTITLE:;
#ARTIST:HIMEHINA;
#TITLETRANSLIT:LADY CRAZY;
#SUBTITLETRANSLIT:;
#ARTISTTRANSLIT:HIMEHINA;
#GENRE:POP;
#CREDIT:;
#MUSIC:LADY CRAZY.ogg;
#BANNER:LADY CRAZY.png;
#BACKGROUND:LADY CRAZY-bg.png;
#CDTITLE:;
#SAMPLESTART:71.521;
#SAMPLELENGTH:13.617;
#SELECTABLE:YES;
#OFFSET:1.670;
#BPMS:0.000=141.000;
#STOPS:;
#LASTBEATHINT:1.525979;
#BGCHANGES:4.750=LADY CRAZY.avi=1.000=0=0=0=StretchNoLoop====,
99999.000=-nosongbg-=1.000=0=0=0=StretchNoLoop====
;
#FGCHANGES:;

//--------------- dance-single - ----------------
#NOTES:
     dance-single:
     :
     Hard:
     12:
     0,0,0,0,0:
0000
0000
0000
0000
,
0000
0000
0000
0000
,
0002
0000
1003
0100
0020
0000
0130
1000
,
0001
0010
0001
1000
0002
0100
0100
0103
,
0110
0010
1000
0001
0020
0000
0100
0130
,
1000
0001
0100
0001
2000
0000
0000
0010
,
3020
0000
0130
0001
0020
0000
0130
1000
,
0001
1000
0010
1000
0200
0000
1000
1300
,
0002
0103
2000
3100
0002
0013
0200
1300
,
0002
0013
2000
3010
0002
0000
1003
0000
,
1001
0000
0000
0000
0001
0000
0010
0000
0100
0000
0000
0100
0000
0000
1000
0000
,
0000
1100
0000
0101
0000
0011
0000
0100
,
1100
0000
0000
0000
1000
0000
0010
0000
0100
0000
0000
0100
0000
0000
0001
0000
,
0000
0101
0000
1100
0000
1010
0000
0100
,
0101
0001
0010
0100
1000
0010
0100
0010
,
1000
0100
0001
0100
1000
0001
0100
1000
,
0100
0001
0010
0100
1000
0001
0010
0100
,
0000
0000
1000
0001
1000
0000
0001
0100
,
0001
0000
1000
0100
0000
1000
0100
0000
0010
0000
0000
0000
0010
0000
0001
0000
,
1000
0000
0001
0100
0000
0001
0100
0000
0010
0000
0000
0000
0010
0000
1000
0000
,
0001
0020
0000
0230
0000
1300
0001
1000
,
0001
0200
2300
3200
0302
0023
0230
2300
,
3001
0000
0100
0010
0000
0100
0001
0000
1000
0000
0000
0000
1000
0000
0001
0000
,
1000
0000
0100
0010
0000
0100
1000
0000
0001
0000
0000
0000
0001
0000
0010
0000
,
0100
1000
0000
1100
0000
0101
0000
1100
,
0000
2000
3020
0230
0302
1003
1100
0000
,
2100
0000
3100
0000
2001
0000
3100
0000
2100
0000
0000
0001
0000
0000
3020
0000
,
0000
0130
0001
1000
0100
0010
0001
0010
,
0100
0000
1000
0000
0001
0100
0001
0000
1000
0000
0001
0000
0100
0000
0010
1000
,
0000
0001
1000
0000
0001
0000
0010
0000
0100
0010
0000
0001
1000
0000
0010
0000
,
0110
0000
0000
1001
0000
0001
0010
0000
0100
1000
0000
0001
,
0100
0000
0000
0000
0010
0000
1000
0000
0000
0000
1000
0000
0001
0000
0000
0000
0001
0000
0010
0000
0000
0100
0000
0000
,
1100
0000
1000
0010
0100
0010
1000
0100
,
1000
0001
0000
1000
0100
0000
1000
0001
0000
1000
0010
0000
0200
0000
0000
0000
,
0302
0000
2003
3200
2300
0000
0000
3002
,
0203
2300
3200
0302
2003
0000
0000
0000
,
3002
0023
2030
3020
0032
0000
0000
2003
,
0020
3000
0230
0000
0302
0000
2003
0000
3200
0000
0000
0000
0310
0000
0000
0000
,
0110
0000
0001
0010
0100
0000
0100
1000
,
0010
1000
0001
0100
0010
0000
0010
0100
,
1000
0100
0010
1000
0100
0010
0100
0001
,
0100
1000
0001
0100
0010
1000
0001
0000
,
0010
0000
0010
0100
0010
0000
1001
0000
,
0011
0000
0000
0000
1100
0000
0000
0000
1001
0000
0000
1010
0000
0000
0101
0000
,
0000
0001
0100
0010
0100
1000
0100
0001
,
1001
0000
0000
0000
0110
0000
0000
0000
1010
0000
0000
1001
0000
0000
0101
0000
,
0000
0001
0010
0100
1000
0100
0010
0000
,
0010
0001
1000
0010
0100
1000
0100
0001
,
0000
0001
0010
0100
0001
0100
1000
0010
,
0110
0000
1000
1001
0000
0001
0100
0110
,
0000
0010
1000
0001
0010
0100
1000
0000
,
1010
0000
0000
0000
0101
0000
0000
0000
1001
0000
0000
0011
0000
0000
1100
0000
,
0000
1000
0100
0010
0100
0001
0100
1000
,
1001
0000
0000
0000
0110
0000
0000
0000
0011
0000
0000
1001
0000
0000
1100
0000
,
0000
1000
0010
0100
0001
0100
1000
0000
,
1000
0000
0100
0000
0001
0000
0000
0000
0001
0000
0000
0010
0100
0000
1000
0000
,
0000
0000
0001
0000
1000
0000
0000
0000
1000
0000
0000
0010
0100
0000
0001
0000
,
1000
0100
0000
0000
0001
0100
0000
0000
1000
0010
0000
0000
0001
0010
0000
0000
,
0100
0010
0000
0000
1000
0001
0000
0000
0010
0100
0000
0000
2000
0000
0000
0000
,
3001
0000
0000
0000
0001
0000
1000
0100
1000
0000
0001
0000
0010
0000
0100
0000
,
1000
1000
0010
0010
0100
0001
0001
1000
,
1100
0000
0000
0000
0000
0000
0001
0100
0001
0000
1000
0000
1000
0000
0010
0000
,
0100
0100
0100
0001
1000
0100
0100
0110
,
1001
0000
0000
0000
0001
0000
1000
0000
0010
0000
0000
0010
0000
0000
0200
0000
,
0001
2300
0001
3020
0001
2030
0001
3200
,
0310
0000
0000
0000
1000
0000
0100
0000
0010
0000
0000
0010
0000
0000
0200
0000
,
1000
0302
1000
0023
1000
0032
1003
0100
,
0110
0000
0000
0000
;

//--------------- dance-single - ----------------
#NOTES:
     dance-single:
     :
     Challenge:
     16:
     0,0,0,0,0:
0000
0000
0000
0000
,
0000
0000
0000
0000
,
0101
0000
1000
0000
0001
0000
0100
0000
0020
0000
0000
0000
1030
0000
0001
0010
,
0100
0010
0001
1000
0020
0100
0100
0130
,
2001
0000
0100
0000
3010
0000
1002
0000
0010
0000
0100
0000
1003
0000
0010
0100
,
0010
0000
1000
0000
0010
0000
0100
0000
0001
0000
0010
0000
0100
0000
1000
0001
,
2000
0000
0100
0000
0010
0000
3001
1000
0002
0000
0100
0000
0010
0000
1003
0010
,
0100
0001
0010
0100
2000
0010
0100
3001
,
0102
0013
0210
1300
2100
3010
0210
0301
,
1002
0000
0000
2003
0000
0000
3020
0000
0000
0230
0000
0000
0302
0000
0000
1003
0100
0010
0001
1000
0100
0010
0001
1000
,
0010
0000
0010
0100
0001
0000
1000
0100
0010
0000
0100
1000
0000
1000
0001
0000
,
0100
0000
1000
0100
0010
0000
0100
0000
0001
0000
1000
0100
1000
0001
0010
0100
,
1100
0000
1000
0010
0100
0000
0010
1000
0001
0000
0010
0100
0000
0100
1000
0000
,
0010
0000
0001
0010
0100
0000
0001
0010
1000
0000
0001
0000
0100
0000
1100
0000
,
1001
0001
0101
0010
1100
1000
1001
0010
,
0110
1000
0110
0001
1100
0010
0101
1000
,
0001
0010
0100
1000
0100
0010
0100
1000
0001
0010
0100
1000
0001
0010
2000
0000
,
0000
0000
0000
0000
0000
0000
0000
0000
0000
0000
0000
0000
0010
0000
0000
0000
0000
0000
0010
0000
0000
0000
0000
0000
3010
0000
0000
0001
0000
0000
1000
0000
0000
0010
0000
0000
0100
0000
0001
0000
0100
0000
0001
0000
0100
0000
0001
0000
,
0010
0000
0100
1000
0000
0001
0010
0000
0200
0000
1000
0000
1300
0010
0100
0001
,
1000
0000
1000
0010
0000
0100
0001
0000
0020
0000
0100
0000
0031
0010
0100
1000
,
0001
0000
0020
0000
0100
0000
0230
0000
0000
0000
1300
0000
0001
0100
0010
0100
,
0001
0000
2000
0000
3020
0000
0230
0000
0302
0000
0023
0000
0130
1000
0001
0100
,
1000
0000
0100
0010
0000
1000
0001
0000
0010
0000
0100
0000
1000
0001
1000
0100
,
0001
0000
0100
0010
0000
0001
1000
0000
0001
0000
0100
0000
0010
0000
1000
0000
,
0001
1000
0100
0011
0100
1010
0100
0011
,
0100
0000
0000
0000
0000
0000
1000
0000
0000
0000
0000
0000
0001
0000
0000
0000
0100
0000
0000
0000
0010
0000
0000
0000
1000
0000
0000
0000
0000
0000
0010
0000
0000
0000
0000
0000
0110
0000
0000
0000
0000
0000
0100
0000
0000
0001
0000
0000
,
1001
0000
0010
0000
0110
0000
1000
0000
1100
0000
0100
1000
0000
1000
0001
0000
,
0100
0000
1000
0100
0010
0000
1000
0100
0010
0000
1000
0010
0001
0000
0100
0000
,
0010
1000
0010
0100
1000
0100
0001
0010
0100
1000
0010
0000
0001
0000
0010
0100
,
0000
0001
0010
1000
0001
1000
0010
0001
1000
0001
0100
1000
0001
0000
0010
0000
,
0110
0000
0000
1001
0000
0001
0010
0000
0100
1000
0000
1000
,
0010
0000
0000
0000
0100
0000
0001
0000
0000
0000
0010
0000
0100
0000
0000
0000
1000
0000
0001
0000
0000
0100
0000
0000
,
0110
0000
0000
0000
0010
0000
1000
0000
0001
0000
0100
0000
0001
0000
0010
0000
0100
0000
1000
0001
1000
0000
0010
0000
0100
0000
0010
0000
1000
0000
0001
0000
,
0010
0000
0000
0100
0000
0000
1000
0000
0000
0010
0000
0000
0001
0000
0000
0000
0000
0000
1000
0000
0000
0100
0000
0000
0000
0000
0000
0100
0000
0000
0001
0000
0010
0000
0100
0000
1000
0000
0000
0001
0000
0000
0100
0000
0000
0000
0000
0000
,
0210
0000
0000
0000
0320
0000
2030
0001
3020
0000
0100
0000
0000
0000
0230
0000
,
2300
0000
3020
0000
0230
0000
0302
1000
0203
0000
0010
0000
0000
0000
0010
0000
,
0302
0000
2003
0000
3020
0000
0230
0001
0320
0000
1000
0000
0000
0000
2030
0000
,
0020
3000
0032
0000
0203
0000
0320
1000
0032
0000
0103
0000
0010
0000
1000
0000
,
0110
0000
1000
0000
0101
0000
0001
1000
1100
0000
0010
0000
0110
0000
0001
0000
,
1100
0000
0010
0000
0101
0000
0100
0010
1010
0000
0100
0000
1001
0000
0010
0000
,
1100
0000
0001
0000
1010
0000
0010
0100
0101
0000
0010
0000
1100
0000
1000
0000
,
0001
0100
1000
0100
0001
0010
0100
1000
0100
0001
0100
1000
0010
0100
0001
0010
,
0200
0000
0000
0000
0010
0000
0010
0000
0310
0001
1000
0010
0100
0000
0000
0000
,
0110
0000
1000
0010
0100
0000
1000
0100
0001
0000
0010
0100
0000
1000
0020
0000
,
0100
0000
1030
0100
0100
0001
1000
0010
0010
0001
1000
0100
0100
0001
0010
0100
,
1100
0000
0001
0010
0100
0000
0001
0100
1000
0000
0010
0100
0000
0001
0020
0000
,
0100
0000
0130
1000
0010
0001
1000
0001
0010
1000
0001
0010
0100
0000
0001
0100
,
0010
0000
0001
0000
0100
0000
1000
0100
0010
0000
1000
0100
0000
0010
0001
0000
,
1001
0000
1000
0010
0100
0000
1000
0000
0100
0000
0001
0010
0000
0100
1000
0000
,
1100
0000
1000
0010
0100
0000
0101
0000
0001
0010
0100
0000
1000
0000
0110
0000
,
0001
0000
1000
0100
0001
0100
1000
0010
0001
0010
1000
0001
0010
0000
0100
0000
,
0110
0000
1000
0010
0100
0000
1000
0100
0001
0000
0010
0100
0000
1000
0020
0000
,
0100
0000
0130
0001
0001
0010
0100
1000
1000
0010
0100
0001
0001
0010
0100
1000
,
1100
0000
1000
0010
0100
0000
1000
0100
0001
0000
0010
0100
0000
1000
0020
0000
,
0100
0000
0130
0001
0010
1000
0001
1000
0010
0001
1000
0010
0100
0000
0010
1000
,
0001
0000
1010
0000
0102
0000
0000
0000
0013
0000
0000
0100
1000
0000
0010
0000
,
1000
0000
0011
0000
2100
0000
0000
0000
3010
0000
0000
0100
0001
0000
0010
0000
,
0100
2000
0000
0000
3001
0200
0000
0000
0310
2000
0100
0000
3100
0020
0001
0000
,
0031
0200
0010
0000
0310
2000
0001
0000
3001
0010
0100
1000
0020
0000
0000
0000
,
0230
0000
0000
0000
0000
0000
0301
0000
0000
1000
0100
0010
0001
0000
0000
0010
0000
0000
0100
0000
0000
1000
0000
0000
,
1100
0100
0011
0010
0101
0100
1010
0010
,
1001
0000
0000
0000
0000
0000
1000
0000
0000
0001
0100
0010
1000
0000
0000
0001
0000
0000
0001
0000
0000
0010
0000
0000
,
2100
0100
3100
0011
0102
0100
0103
0110
,
1001
0000
0000
0000
0001
0000
1000
0010
0100
0000
0100
0010
0000
1000
0001
0000
,
0010
0000
0000
0000
0000
0000
0100
0000
0000
1000
0000
0000
0001
0000
0000
0000
0000
0000
1000
0000
0100
0000
0010
0000
0001
0000
0000
0000
0000
0000
0010
0000
0000
0000
0000
0000
0100
0000
0000
0000
0000
0000
1000
0000
0000
0001
0000
0000
,
0100
0000
0000
0000
0010
0000
1000
0001
0010
0000
0010
0100
0000
1000
0010
0000
,
0100
0001
0010
0100
1000
0100
0010
0001
,
0110
0000
0000
0000
;
