#TITLE:きゅうくらりん;
#SUBTITLE:;
#ARTIST:いよわ feat.可不;
#TITLETRANSLIT:Kyu-kurarin;
#SUBTITLETRANSLIT:;
#ARTISTTRANSLIT:Iyowa feat.Kafu;
#GENRE:POP;
#CREDIT:;
#MUSIC:Kyu-kurarin.ogg;
#BANNER:Kyu-kurarin.png;
#BACKGROUND:Kyu-kurarin-bg.png;
#CDTITLE:;
#SAMPLESTART:40.381;
#SAMPLELENGTH:16.364;
#SELECTABLE:YES;
#OFFSET:1.074;
#BPMS:0.000=220.000;
#STOPS:156.000=0.136
,156.500=0.136
,157.000=0.136
,157.500=0.136
,213.000=0.136
,349.500=0.136
,350.000=0.136
,350.500=0.136
,351.000=0.136
;
#DISPLAYBPM:220.000;
#LASTBEATHINT:0.168637;
#BGCHANGES:13.000=Kyu-kurarin.avi=1.000=0=0=0=StretchNoLoop====,
99999.000=-nosongbg-=1.000=0=0=0=StretchNoLoop====
;
#FGCHANGES:;

//--------------- dance-single - ----------------
#NOTES:
     dance-single:
     :
     Medium:
     13:
     0,0,0,0,0:
0000
0000
0000
0000
,
0000
0000
0000
0000
,
0000
0000
0000
0000
,
0000
0000
0000
0000
,
0000
0000
0000
0000
,
0000
0000
0000
0000
,
0001
0000
1000
0010
0100
0000
0001
0010
,
0100
0000
1000
0001
0100
0001
0100
0010
,
1000
0000
1000
0100
0001
0100
1000
0001
,
0100
1000
0100
0020
0000
0000
1030
0000
,
1001
0000
0001
0010
1000
0000
0001
0100
,
1000
0001
0100
0001
0010
0000
0100
0000
,
1001
0000
1000
0010
0001
0000
1000
0100
,
0001
1000
0100
1000
0010
0000
0100
0000
,
0102
0013
2100
3001
,
0101
0000
0100
0010
0000
0010
0100
0000
,
0001
0000
1000
0100
0010
0000
0100
0000
,
1000
0000
0001
0100
0000
0100
0001
0010
,
1000
0000
1000
0010
0001
0000
0001
1000
,
0010
0100
0010
1000
0001
0000
0100
0000
,
1001
0000
1000
0010
0001
0000
0001
0010
,
1000
0001
0010
0100
1000
0000
0001
0000
,
0101
1100
0101
1100
,
1001
0000
0001
0100
0000
0100
0001
0000
,
1000
0010
0000
0010
0100
0001
1000
0000
,
0100
0000
0010
0001
0000
0001
1000
0100
,
0001
0000
0001
0100
1000
0000
1000
0010
,
0100
0001
1000
0010
0100
0000
0010
0000
,
1001
0000
0001
0100
1000
0000
1000
0100
,
0001
0010
0100
1000
0001
0000
1000
0000
,
0010
0000
0100
0001
0000
0001
0010
0100
,
1000
0000
0010
0000
0100
0000
0100
0001
,
1000
0000
0010
1000
0001
0000
0010
0000
,
0100
0000
0100
1000
0000
1000
0010
0100
,
0001
0000
1000
0100
1000
0100
0001
0000
,
0100
0000
1000
0010
0000
0010
0100
0000
,
0001
0000
1000
0100
1000
0010
0100
0010
,
1000
0001
0000
0001
0010
0000
0100
0000
,
2001
0000
0000
0000
3001
0010
0100
1000
,
2200
3300
0000
0000
0000
0000
0000
0000
0000
0000
0000
0000
0000
0000
0000
0000
0000
0000
0000
0000
0000
0000
0000
0000
0202
0303
0000
0000
0000
0000
0000
0000
0000
0000
0000
0000
0000
0000
0000
0000
0000
0000
0000
0000
0000
0000
0000
0000
2200
3300
0000
0000
0000
0000
0000
0000
0000
0000
0000
0000
0000
0000
0000
0000
0000
0000
0000
0000
0000
0000
0000
0000
0202
0303
0000
0000
0000
0000
0000
0000
0000
0000
0000
0000
0000
0000
0000
0000
0000
0000
0000
0000
0000
0000
0000
0000
1002
0000
0000
0000
0000
0000
0000
0000
0000
0000
0000
0000
0000
0000
0000
0000
0000
0000
0000
0000
0000
0000
0000
0000
0000
0000
0000
0000
0000
0000
0000
0000
0000
0000
0000
0000
0000
0000
0000
0000
0000
0000
0000
0000
0000
0000
0000
0000
0000
0000
0000
0000
0000
0000
0000
0000
0000
0000
0000
0000
0000
0000
0000
0000
0000
0000
0000
0000
0000
0000
0000
0000
0000
0000
0000
0000
0000
0000
0000
0000
0000
0000
0000
0000
0000
0000
0000
0000
0000
0000
0000
0000
0000
0000
0000
0000
,
1003
0100
0010
0001
1000
0000
1000
0010
,
0100
0001
0010
0000
0100
0000
1000
0001
,
0100
0010
1000
1010
0000
0110
0000
0101
,
0000
0001
0010
0000
0100
1000
0100
1000
,
0001
0010
0100
1000
1100
0000
0011
0000
,
1100
0000
0011
0000
0001
1000
0001
0100
,
1000
0100
0001
1000
0001
0000
0001
1000
,
0000
1000
0001
0000
1000
0001
1000
0100
,
0001
0100
1000
0001
1000
0000
1000
0001
,
0000
0001
0020
0000
0130
0000
0100
1000
,
0000
1000
0001
0100
0010
0001
0010
1000
,
0000
0001
0010
0000
0010
0000
0000
0100
,
1000
0000
0001
0100
0001
0000
0100
0000
,
0010
0000
0000
0000
0000
0000
0000
0000
0000
0000
0000
0000
0000
0000
0000
0000
0000
0000
0000
0000
0000
0000
0000
0000
0000
0000
0000
0000
0000
0000
0000
0000
0000
0000
0000
0000
0000
0000
0000
0000
0000
0000
0000
0000
0000
0000
0000
0000
2002
3003
0000
0000
0000
0000
0000
0000
0000
0000
0000
0000
0000
0000
0000
0000
0000
0000
0000
0000
0000
0000
0000
0000
1000
0000
0000
0000
0000
0000
0000
0000
0000
0000
0000
0000
0000
0000
0000
0000
0000
0000
0000
0000
0000
0000
0000
0000
0100
0000
0000
0000
0000
0000
0000
0000
0000
0000
0000
0000
0000
0000
0000
0000
0000
0000
0000
0000
0000
0000
0000
0000
0010
0000
0000
0000
0000
0000
0000
0000
0000
0000
0000
0000
0000
0000
0000
0000
0000
0000
0000
0000
0000
0000
0000
0000
0001
0000
0000
0000
0000
0000
0000
0000
0000
0000
0000
0000
0000
0000
0000
0000
0000
0000
0000
0000
0000
0000
0000
0000
0000
0000
0000
0000
0000
0000
0000
0000
0000
0000
0000
0000
0000
0000
0000
0000
0000
0000
0000
0000
0000
0000
0000
0000
,
1000
0000
1000
0000
0010
0100
0010
0000
,
1000
0010
0100
0001
0000
0011
0000
0010
,
0100
0000
0100
1000
0001
0100
0001
0010
,
0000
0100
0000
1000
0001
0100
0101
0000
,
1010
0000
1100
0000
0011
0001
0000
1000
,
0000
0101
0200
0000
0001
0000
1000
0000
,
0301
1000
0100
0000
1100
0000
1000
0001
,
0000
0100
0000
0120
0000
0000
0000
0130
,
0001
0100
0001
0010
0000
0100
0000
1000
,
0000
0001
0000
1000
0000
0000
0000
0000
,
0000
0000
0000
0000
,
0000
0000
0100
0010
0000
0000
0001
1000
,
0001
1000
0010
0000
0100
0000
0010
0000
,
0000
0000
0000
0000
,
0000
0000
0000
0000
,
0000
0000
0000
1000
0100
1000
0001
0100
,
0001
1000
0100
0010
0000
0001
1000
0000
,
0000
0000
0000
0001
0100
0001
1000
0100
,
1000
0001
0100
0010
0000
1000
0001
0000
,
0000
0000
0000
1000
0000
0000
0010
0000
,
0100
0001
0010
0001
1000
0100
0010
0000
,
0000
0100
0000
0100
0000
0000
1000
0010
,
0000
0100
0001
1000
0000
0000
0000
0000
,
0000
0000
0000
0101
0000
0001
0100
0001
,
0000
0001
0010
0100
0000
1100
0000
1010
,
0000
1000
0010
0100
1000
0100
0010
1000
,
0000
0001
0000
0010
0000
0010
0100
0000
,
1000
0001
0000
0100
0000
0010
1000
0100
,
0010
0001
0000
0001
0010
0100
1000
0000
,
0010
0000
0010
0100
0000
0100
0001
0010
,
0100
0001
0100
0010
0001
0000
0001
1000
,
0000
1000
0010
0100
0001
0000
0001
1000
,
0000
0010
0000
0110
0000
0000
0000
1000
,
0010
0000
0000
0000
0000
0000
0000
0000
0000
0000
0000
0000
0000
0000
0000
0000
0000
0000
0000
0000
0000
0000
0000
0000
0100
0000
0000
0000
0000
0000
0000
0000
0000
0000
0000
0000
0000
0000
0000
0000
0000
0000
0000
0000
0000
0000
0000
0000
0001
0000
0000
0000
0000
0000
0000
0000
0000
0000
0000
0000
0000
0000
0000
0000
0000
0000
0000
0000
0000
0000
0000
0000
0202
0303
0000
0000
0000
0000
0000
0000
0000
0000
0000
0000
0000
0000
0000
0000
0000
0000
0000
0000
0000
0000
0000
0000
2200
3300
0000
0000
0000
0000
0000
0000
0000
0000
0000
0000
0000
0000
0000
0000
0000
0000
0000
0000
0000
0000
0000
0000
0202
0303
0000
0000
0000
0000
0000
0000
0000
0000
0000
0000
0000
0000
0000
0000
0000
0000
0000
0000
0000
0000
0000
0000
2200
3300
0000
0000
0000
0000
0000
0000
0000
0000
0000
0000
0000
0000
0000
0000
0000
0000
0000
0000
0000
0000
0000
0000
1001
0000
0000
0000
0000
0000
0000
0000
0000
0000
0000
0000
0000
0000
0000
0000
0000
0000
0000
0000
0000
0000
0000
0000
,
0000
0000
0000
0010
0100
0001
0010
1000
,
0000
0010
0000
0001
0000
0100
0010
0100
,
0000
0001
1000
0010
0100
0001
0011
0000
,
1100
0000
0101
0000
0001
1000
0000
0010
,
0100
0010
0100
0001
0010
0100
1000
0010
,
0000
0100
0001
1000
0000
1001
0000
0001
,
0100
0000
1000
0100
0000
0001
0000
1000
,
0100
0010
0001
0000
1000
0001
0000
1000
,
0010
1000
0001
0100
1000
0100
0010
1000
,
0000
0001
0010
0000
0100
1000
0000
0001
,
0000
0100
0010
0000
0010
0100
0001
0010
,
0100
1000
0010
0000
0100
0001
0000
0001
,
0000
1000
0100
1000
0000
1001
0000
0001
,
0100
0001
0100
0010
0100
0001
0010
0110
,
0000
1001
0000
0110
0000
1001
0000
0001
,
1000
0100
1000
0001
0100
0010
0100
0001
,
1000
0100
0010
0100
0001
0100
0000
0100
,
1000
0010
0100
0010
1000
0001
0010
0100
,
1000
0001
0100
1000
0100
0010
0000
0010
,
1000
0100
0001
0100
1000
0001
0100
0101
,
0000
1100
0000
0101
0000
1100
0000
1000
,
0010
1000
0100
1000
0010
1000
0100
0010
,
0000
0010
0001
0000
0001
1000
0000
0001
,
0100
0001
0010
0001
0100
0001
0010
0100
,
0000
0100
1000
0000
1000
0010
0100
0001
,
0000
0001
0010
0000
0100
1000
0010
0100
,
0001
0010
1000
0000
1000
0020
0000
0100
,
0000
0000
0001
0001
0000
1000
0000
0130
;

//--------------- dance-single - ----------------
#NOTES:
     dance-single:
     :
     Hard:
     16:
     0,0,0,0,0:
0000
0000
0000
0000
,
0000
0000
0000
0000
,
0000
0000
0000
0000
,
0000
0000
0000
0000
,
0000
0000
0000
0000
,
0000
0000
0000
0000
,
0101
0000
0000
0000
0001
0000
0010
0000
0100
0000
1000
0010
1000
0000
0001
0000
,
0200
0000
0000
0000
0310
0000
1000
0000
0010
0000
0100
0001
0100
0000
0001
0000
,
2000
0000
0000
0000
3001
0100
0001
0000
0100
0010
0100
0000
0010
1000
0010
0000
,
1000
0001
1000
0000
0100
0000
0020
0000
0000
0000
0000
0000
0130
0000
0000
0000
,
1100
0000
0100
1000
0010
0000
0010
1000
,
0100
1000
0010
1000
0100
0000
1100
0000
,
0011
0000
0010
0001
0100
0000
0100
0001
,
0010
0001
0100
0001
0010
0000
0010
0100
,
1100
1010
0011
0101
,
0001
0000
0100
0000
1000
0000
0100
0000
0001
0000
1000
0001
1000
0000
0000
0000
,
1100
0101
0011
1010
,
0010
0000
1000
0100
1000
0000
0002
0000
0000
0000
0103
0000
0000
0000
0001
0000
,
1000
0000
0010
0100
0010
0000
1000
0000
0001
0000
0100
0010
0100
0000
0001
0000
,
1000
0010
1000
0000
0001
0100
0001
0000
1000
0010
1000
0000
0001
0000
0000
0000
,
1000
0000
0100
0010
0100
0000
1000
0000
0001
0000
0010
0100
0010
0000
0001
0000
,
1000
0100
1000
0000
0001
0010
0001
0000
1000
0100
1000
0000
0001
0000
0000
0000
,
1000
0001
0100
0001
1000
0001
0100
0000
,
0020
0000
0000
0000
0130
0000
0001
0000
0000
0000
1000
0100
1000
0000
0001
0000
,
0010
0100
0000
0100
1000
0001
1000
0000
,
1100
0000
0000
0000
0100
0000
0020
0000
0000
0000
0031
0000
1000
0000
0010
0100
,
0010
0000
1000
0000
0001
0000
0010
0100
0010
0000
0001
0000
1000
0000
0001
0000
,
1000
0100
1000
0000
0001
0100
0001
0000
0020
0000
0000
0000
0130
0000
0000
0000
,
1000
0000
0010
0100
0010
0000
0001
0000
1000
0000
0100
0010
0100
0000
0001
0000
,
0010
0100
1000
0100
0010
0000
0010
0001
,
1000
0000
1010
0000
0101
0000
0001
0010
,
0100
0000
0100
1000
1100
0000
1001
0000
,
0001
0010
0100
1000
0001
0000
0001
0100
,
1000
0000
0000
0000
1000
0000
0100
0000
0000
0000
0100
0000
0001
0000
1000
0100
,
1000
0100
1000
0000
0001
0000
0010
0000
0100
0000
1000
0000
0010
0000
0000
0000
,
0010
0100
0001
0010
0000
0010
0100
0000
,
0110
0000
0010
0001
1000
0001
1000
0010
,
0100
0001
0000
0001
1000
0000
0000
0000
,
0020
0000
0000
0000
0130
0001
1000
0001
,
0022
0033
0000
0000
0000
0000
0000
0000
0000
0000
0000
0000
0000
0000
0000
0000
0000
0000
0000
0000
0000
0000
0000
0000
2200
3300
0000
0000
0000
0000
0000
0000
0000
0000
0000
0000
0000
0000
0000
0000
0000
0000
0000
0000
0000
0000
0000
0000
0022
0033
0000
0000
0000
0000
0000
0000
0000
0000
0000
0000
0000
0000
0000
0000
0000
0000
0000
0000
0000
0000
0000
0000
2200
3300
0000
0000
0000
0000
0000
0000
0000
0000
0000
0000
0000
0000
0000
0000
0000
0000
0000
0000
0000
0000
0000
0000
1002
0000
0000
0000
0000
0000
0000
0000
0000
0000
0000
0000
0000
0000
0000
0000
0000
0000
0000
0000
0000
0000
0000
0000
0000
0000
0000
0000
0000
0000
0000
0000
0000
0000
0000
0000
0000
0000
0000
0000
0000
0000
0000
0000
0000
0000
0000
0000
1003
0000
0000
0000
0000
0000
0000
0000
0000
0000
0000
0000
0000
0000
0000
0000
0000
0000
0000
0000
0000
0000
0000
0000
0100
0000
0000
0000
0000
0000
0000
0000
0000
0000
0000
0000
0000
0000
0000
0000
0000
0000
0000
0000
0000
0000
0000
0000
,
1000
0000
0010
0100
0010
0000
1000
0000
0001
0000
0000
0000
0001
0000
0010
0000
,
0100
0000
1000
0001
1000
0000
0010
0000
0110
0000
0000
0000
0010
0000
1000
0000
,
0001
0100
0010
1010
0000
1001
0000
0101
,
0000
0000
0001
0010
0100
0000
0000
0000
1000
0000
0100
0000
0001
0000
0100
0000
,
0001
0100
1000
0010
0110
0000
1001
0000
,
0110
0000
1000
0000
0001
0100
0001
0100
0001
0000
0010
0000
0000
0000
0010
0000
,
0100
1000
0100
1000
0001
0100
1000
0100
,
0000
0000
0010
0100
0010
0000
0000
0000
1000
0000
0001
0000
0010
0000
0001
0000
,
0010
0100
1000
0010
0110
0000
1000
0001
,
0000
0001
0020
0000
0130
0000
0100
1000
,
0000
0000
0001
0000
1000
0000
0001
0000
0100
0010
0100
0010
0100
0000
0001
0000
,
0000
0001
0010
0000
0010
0000
0100
1000
,
0001
0000
0100
0010
0100
0001
0010
0100
,
1000
0000
0000
0000
0000
0000
0000
0000
0000
0000
0000
0000
0000
0000
0000
0000
0000
0000
0000
0000
0000
0000
0000
0000
0001
0000
0000
0000
0000
0000
0000
0000
0000
0000
0000
0000
0000
0000
0000
0000
0000
0000
0000
0000
0000
0000
0000
0000
0202
0303
0000
0000
0000
0000
0000
0000
0000
0000
0000
0000
0000
0000
0000
0000
0000
0000
0000
0000
0000
0000
0000
0000
0100
0000
0000
0000
0000
0000
0000
0000
0000
0000
0000
0000
0000
0000
0000
0000
0000
0000
0000
0000
0000
0000
0000
0000
0001
0000
0000
0000
0000
0000
0000
0000
0000
0000
0000
0000
1000
0000
0000
0000
0000
0000
0000
0000
0000
0000
0000
0000
0001
0000
0000
0000
0000
0000
0000
0000
0000
0000
0000
0000
0000
0000
0000
0000
0000
0000
0000
0000
0000
0000
0000
0000
0010
0000
0000
0000
0000
0000
0000
0000
0000
0000
0000
0000
0000
0000
0000
0000
0000
0000
0000
0000
0000
0000
0000
0000
0000
0000
0000
0000
0000
0000
0000
0000
0000
0000
0000
0000
0000
0000
0000
0000
0000
0000
0000
0000
0000
0000
0000
0000
,
0011
0110
1100
1001
,
0001
0100
0001
0000
0010
0000
0110
0000
0000
0000
1001
0000
0000
0000
1000
0000
,
0010
0000
0010
0100
0001
0000
0001
1000
,
0000
0001
0000
0010
0011
0000
1100
0000
,
0101
0000
1010
0000
0110
0010
0000
0010
,
1000
0001
0101
0000
1100
0000
0101
0000
,
0001
1000
0010
0000
0010
0100
0001
1000
,
0000
0001
0000
1001
0000
0000
0000
0001
,
0010
0100
1000
0001
0000
0101
0000
1001
,
0000
0000
0000
1100
0000
0000
0000
0000
0000
1001
0000
0000
0000
0000
0000
0000
0000
0000
0000
0000
0001
0000
0000
0000
,
0000
0000
0100
0000
0000
0000
0000
0000
0000
0110
0000
0000
0000
0000
0000
0000
0000
0000
0000
0000
0000
1001
0000
0000
,
0000
0000
0000
1010
0000
0000
1000
0010
,
0100
0001
0101
0000
1001
0000
1100
0000
,
0000
0000
0000
0000
0000
0000
0000
0000
0010
0000
0000
0000
0000
0000
0000
0000
0000
0000
0000
0000
0000
0110
0000
0000
,
0000
0000
0000
0000
0000
0000
0000
0000
0000
0000
0000
0000
1000
0000
0000
0000
0001
0000
0000
0000
0000
0000
0000
0000
0000
0000
0000
0000
0000
0010
0000
0000
0000
0000
0000
0000
0000
0000
0000
0000
0000
0100
0000
0000
0000
0000
0000
0000
,
0000
0000
0000
0000
0000
1000
0000
0000
0000
0000
0000
0000
0000
0000
0000
0000
0000
0000
0001
0000
0000
0000
0000
0000
0100
0000
0000
0000
0000
0000
0010
0000
0000
0000
0000
0000
1000
0000
0000
0000
0000
0000
0001
0000
0000
0000
0000
0000
,
1000
0001
0000
0010
0000
0010
0100
0000
,
0000
1000
0000
0001
0010
0100
0010
0001
,
0010
0100
1000
0001
0000
0001
1000
0000
,
0000
1010
0000
0101
0000
0000
1001
0000
,
0001
0100
1000
0100
0001
0000
0010
0000
,
0000
0100
0000
0100
0000
0000
1000
0001
,
0000
0100
0010
0100
0000
0000
0000
0000
,
0000
0000
0000
1001
0000
1000
0001
0010
,
0001
0100
0001
0000
1000
0000
0010
0000
0000
0000
0010
0000
0100
0000
0001
1000
,
0001
0010
0000
0100
1000
0100
0001
0100
,
1000
0010
1000
0000
0001
0000
0100
0000
0000
0000
0100
0000
0001
0000
0000
0000
,
0001
0000
0010
0000
0000
0000
0100
1000
0100
0000
1000
0000
0001
0000
1000
0000
,
0010
0000
0100
0000
0000
0000
0001
0100
0001
0000
0010
0000
0100
0000
0010
0000
,
0001
0000
1000
0100
0000
0100
0010
0001
,
1000
0010
0100
0001
1000
0000
0010
0100
,
0000
0001
0010
0100
1000
0000
0001
0100
,
0000
0000
0000
0110
0000
0000
0000
1000
,
0010
0000
0000
0000
0000
0000
0000
0000
0000
0000
0000
0000
0000
0000
0000
0000
0000
0000
0000
0000
0000
0000
0000
0000
0100
0000
0000
0000
0000
0000
0000
0000
0000
0000
0000
0000
0000
0000
0000
0000
0000
0000
0000
0000
0000
0000
0000
0000
0001
0000
0000
0000
0000
0000
0000
0000
0000
0000
0000
0000
0000
0000
0000
0000
0000
0000
0000
0000
0000
0000
0000
0000
0202
0303
0000
0000
0000
0000
0000
0000
0000
0000
0000
0000
0000
0000
0000
0000
0000
0000
0000
0000
0000
0000
0000
0000
2020
3030
0000
0000
0000
0000
0000
0000
0000
0000
0000
0000
0000
0000
0000
0000
0000
0000
0000
0000
0000
0000
0000
0000
0202
0303
0000
0000
0000
0000
0000
0000
0000
0000
0000
0000
0000
0000
0000
0000
0000
0000
0000
0000
0000
0000
0000
0000
2020
3030
0000
0000
0000
0000
0000
0000
0000
0000
0000
0000
0000
0000
0000
0000
0000
0000
0000
0000
0000
0000
0000
0000
1002
0000
0000
0000
0000
0000
0000
0000
0000
0000
0000
0000
0000
0000
0000
0000
0000
0000
0000
0000
0000
0000
0000
0000
,
0000
0000
1003
0000
0000
0000
0001
0000
0100
0010
0100
0000
0001
0000
0101
0000
,
0000
0000
1000
0000
0010
0000
0100
0000
0001
1000
0001
0000
0010
0000
0110
0000
,
0000
0100
1000
0010
0100
0001
0011
0000
,
1001
0000
0000
0000
1100
0000
0000
0000
1000
0010
0100
0000
0010
0000
1000
0000
,
0001
0000
1000
0000
0001
0000
0010
0000
0100
1000
0001
0000
0100
0000
0101
0000
,
0000
0000
1100
0000
0000
0000
0101
0000
0000
0000
0001
0100
0001
0100
0010
0000
,
1000
0000
0000
0000
0001
0000
1000
0000
0100
0010
0100
0000
1000
0000
0001
0000
,
0010
0000
0100
0000
1000
0000
0000
0000
0001
0100
0001
0000
0010
0000
0100
0000
,
1000
0100
1000
0000
0001
0000
1000
0000
0001
0100
0001
0000
0010
0000
0100
0000
,
0000
0000
0100
0000
1000
0000
0000
0000
0001
0010
0100
0000
1000
0000
0002
0000
,
0000
0000
1003
0000
0010
0000
0000
0000
0010
0000
0100
0000
0001
0000
1000
0100
,
1000
0100
1000
0000
0010
0000
0000
0000
0100
0000
0001
0000
0000
0000
0010
0000
,
0000
0000
0010
0100
0010
0100
0000
1000
,
0001
0100
0001
0000
0100
0010
0100
0000
0001
1000
0001
0000
0010
0000
0011
0000
,
0000
1100
0000
1010
0000
0101
0000
0101
,
0001
0100
0001
0000
0010
0000
0100
0000
1000
0100
1000
0000
0010
0000
0100
0000
,
0001
0100
0001
0000
1000
0100
1000
0000
0001
0100
0001
0000
1000
0000
0010
0000
,
0100
0000
0001
0000
0010
0000
0100
1000
0100
1000
0001
0000
0101
0000
0000
0000
,
1010
0000
0000
0000
1100
0000
0000
0000
0100
1000
0001
0000
0100
0000
0001
0010
,
0100
0010
0001
0000
1000
0000
0001
0100
0010
0100
0001
0000
1000
0000
1100
0000
,
0000
0000
1010
0000
0000
0000
0101
0000
0000
0000
0001
0100
0001
0100
0010
0000
,
0100
0000
0001
0000
1000
0000
0100
0000
0010
0100
1000
0000
0001
0000
0100
0000
,
0000
0000
0010
0000
0100
0000
0000
0000
0001
1000
0001
0000
0000
0000
0010
0000
,
0100
1000
0001
0000
0100
0000
0010
0000
0100
0001
1000
0000
0100
0000
0010
0000
,
0000
0010
0100
0000
1000
0001
0000
1001
,
0000
0000
1000
0000
0010
0000
0000
0000
0010
0000
0100
0000
0001
0000
1000
0100
,
0010
0001
1000
0000
0020
0000
0000
0000
1000
0000
0100
0000
0000
0000
0001
0000
,
0000
0100
1000
1000
0000
0001
0000
0130
;

//--------------- dance-single - ----------------
#NOTES:
     dance-single:
     :
     Challenge:
     18:
     0.994269,0.778583,0,0,0,889,889,0,0,0,0,0.994269,0.778583,0,0,0,889,889,0,0,0,0:
0000
0000
0000
0000
,
0000
0000
0000
0000
,
0000
0000
0000
0000
,
0000
0000
0000
0000
,
0000
0000
0000
0000
,
0000
0000
0000
0000
,
0001
0000
0100
0000
0001
0000
1000
0000
0100
0000
0010
0001
1000
0000
0010
0000
,
0100
0000
0010
0000
1000
0000
0001
0000
1000
0000
0010
0100
0010
0000
0100
0001
,
1000
0000
0000
0000
0001
0000
0100
0000
0010
1000
0010
0100
0010
1000
0001
0100
,
0010
0100
0001
0100
0010
1000
0002
0000
0000
0000
0013
0100
1000
0000
0000
0000
,
1100
0000
0001
0100
0101
0000
0001
1000
,
1100
0000
0001
0000
0101
0000
0010
0000
1001
0000
1000
0100
0010
0000
0100
0000
,
1100
0000
0000
0000
0001
0000
0100
0000
0101
0000
0001
0010
0100
0000
1000
0000
,
1100
0000
0001
0000
0101
0000
1000
0000
1100
0000
0100
1000
0001
0000
0100
0010
,
0100
0000
0010
0000
1000
0000
0001
0000
0010
0000
0100
1000
0001
0000
0010
0000
,
0100
0000
1000
0000
0010
0000
1000
0000
0100
0000
1000
0001
1000
0000
0001
0100
,
0001
0000
0010
0000
0100
0000
1000
0100
1000
0001
0100
0001
1000
0000
0010
1000
,
0010
0000
0100
0001
0100
0001
1000
0001
1000
0010
0100
0001
1000
0000
0001
0010
,
0001
0000
0010
0000
0100
0000
1000
0000
1001
0000
0001
0010
0100
0000
1000
0000
,
1010
0000
0000
0000
0010
0000
0110
0000
0100
0000
0001
1000
0001
0000
1000
0100
,
1000
0000
0001
0000
1000
0100
1000
0001
0010
0001
0010
0100
1000
0000
0001
0000
,
1000
0100
0010
0001
1000
0100
0010
0001
1000
0001
0100
0001
1000
0001
0010
0100
,
1000
0000
0010
0000
0100
0000
0101
0000
0000
0000
0001
1000
0001
0000
0010
0000
,
0110
0000
0000
0000
0100
0000
1100
0000
1000
0000
0001
0010
0100
0000
1000
0000
,
1001
0000
0000
0000
0001
0000
0101
0000
0100
0000
0010
1000
0001
0000
0010
0000
,
0011
0000
0000
0000
0100
0000
1100
0000
1000
0000
0001
1000
0001
0000
0010
0000
,
0110
0000
0100
0000
1000
0001
1000
0001
0100
0010
0100
0001
1000
0000
0010
0000
,
0100
0000
0001
0000
1000
0000
0001
0000
0010
0000
0100
1000
0001
0000
0010
0000
,
0100
0000
1000
0000
0001
0000
0100
0000
0010
0000
0100
0001
1000
0000
0001
0000
,
0101
0000
0000
0000
1100
0000
0000
0000
1001
0000
1000
0000
0001
0000
0100
0010
,
0100
0000
0000
0000
0100
0001
1000
0000
0100
0000
0010
0001
1000
0000
0010
0000
,
0100
0001
0000
0000
0000
0000
0000
0000
0010
0000
0000
0000
0100
0000
0000
0000
1000
0001
0000
0000
0010
0000
0100
0000
0010
0000
0100
0000
0010
0000
0100
0000
,
1000
0000
0000
0100
0000
0000
0010
0000
0001
0000
1000
0000
0100
0000
0000
0010
0000
0001
0000
1000
0000
0010
0000
0000
,
0110
0000
1001
1000
0001
0100
0010
1000
,
0001
0010
0100
0000
1000
0000
0001
0000
1000
0000
0010
0000
0100
0000
0001
0000
,
0100
0000
0000
0010
0000
0000
1000
0000
0000
0001
0000
0010
0000
0100
0000
1000
0000
0000
0001
0000
0000
0100
0000
0000
,
0010
0000
1000
0000
0001
0000
0100
0000
0000
0010
0000
0000
1000
0000
0000
0001
0000
0000
0100
0000
0000
0001
0000
0000
,
1000
0000
0000
0100
0000
0000
0010
0000
0000
0001
0000
0000
1000
0000
0000
0000
0100
0000
0000
0000
0000
0010
0000
0000
,
1001
0000
0001
0100
0001
1000
0001
0010
,
0022
0033
0000
0000
0000
0000
0000
0000
0000
0000
0000
0000
0000
0000
0000
0000
0000
0000
0000
0000
0000
0000
0000
0000
2002
3003
0000
0000
0000
0000
0000
0000
0000
0000
0000
0000
0000
0000
0000
0000
0000
0000
0000
0000
0000
0000
0000
0000
2200
3300
0000
0000
0000
0000
0000
0000
0000
0000
0000
0000
0000
0000
0000
0000
0000
0000
0000
0000
0000
0000
0000
0000
2002
3003
0000
0000
0000
0000
0000
0000
0000
0000
0000
0000
0000
0000
0000
0000
0000
0000
0000
0000
0000
0000
0000
0000
0001
0000
0000
0000
0000
0000
0000
0000
0000
0000
0000
0000
0000
0000
0000
0000
0000
0000
0000
0000
0000
0000
0000
0000
1000
0000
0000
0000
0000
0000
0000
0000
0000
0000
0000
0000
0100
0000
0000
0000
0000
0000
0000
0000
0000
0000
0000
0000
1000
0000
0000
0000
0000
0000
0000
0000
0000
0000
0000
0000
0000
0000
0000
0000
0000
0000
0000
0000
0000
0000
0000
0000
0010
0000
0000
0000
0000
0000
0000
0000
0000
0000
0000
0000
0000
0000
0000
0000
0000
0000
0000
0000
0000
0000
0000
0000
,
0100
0000
0001
0010
0001
0000
0100
0000
0010
0000
0100
0000
0001
0000
1000
0000
,
0100
0000
0010
0100
0010
0000
0001
0000
1000
0000
0010
0000
1000
0000
0010
0000
,
0100
0000
0001
1000
0001
0000
0010
0000
0100
0000
1000
0000
0001
0000
0100
0000
,
0001
0000
1000
0100
1000
0000
0010
0000
0100
0000
0001
0000
0100
0000
0001
0000
,
1000
0000
0100
1000
0100
0000
1000
0000
1100
0000
0000
0000
0101
0000
0000
0000
,
1100
0000
1000
0100
1000
0000
0001
1000
0001
0000
0100
0010
0100
0000
0001
0000
,
0010
0000
0100
1000
0001
0000
0100
0000
0010
0000
0100
0001
1000
0000
0100
0000
,
0010
0000
0100
1000
0001
0000
1000
0000
0001
0000
0010
0100
0010
0000
0001
0000
,
1000
0000
0010
0100
0010
0000
1000
0000
0001
0000
0010
0000
0100
0000
1000
0000
,
0001
0000
1000
0010
0100
0000
0010
0000
1000
0000
0001
0000
0010
0000
0011
0000
,
0000
0000
1000
0000
0100
0000
0010
0000
0001
0010
0100
1000
0001
0000
0101
0000
,
0000
1000
0001
0100
0010
1000
0001
0100
,
0001
0010
0100
1000
0001
0010
0001
1000
,
0001
0000
0000
0000
0000
0000
0000
0000
0000
0000
0000
0000
0100
0000
0000
0000
0000
0000
0000
0000
0000
0000
0000
0000
0010
0000
0000
0000
0000
0000
0000
0000
0000
0000
0000
0000
1000
0000
0000
0000
0000
0000
0000
0000
0000
0000
0000
0000
0002
0003
0000
0000
0000
0000
0000
0000
0000
0000
0000
0000
0000
0000
0000
0000
0000
0000
0000
0000
0000
0000
0000
0000
0010
0000
0000
0000
0000
0000
0000
0000
0000
0000
0000
0000
0000
0000
0000
0000
0000
0000
0000
0000
0000
0000
0000
0000
0000
0000
0000
0000
0000
0000
0000
0000
0100
0000
0000
0000
0000
0000
0000
0000
0000
0000
0000
0000
0000
0000
0000
0000
1000
0000
0000
0000
0000
0000
0000
0000
0000
0000
0000
0000
0000
0000
0000
0000
0000
0000
0000
0000
0000
0000
0000
0000
0001
0000
0000
0000
0000
0000
0000
0000
0000
0000
0000
0000
0000
0000
0000
0000
0000
0000
0000
0000
0000
0000
0000
0000
0000
0000
0000
0000
0000
0000
0000
0000
0000
0000
0000
0000
0000
0000
0000
0000
0000
0000
0000
0000
0000
0000
0000
0000
,
1010
0101
1100
0011
,
0001
0000
0000
0000
0000
0000
0000
0000
0010
0000
0000
0000
0100
0000
0000
0000
0000
0000
0000
0000
0000
0000
0000
0000
1000
0000
0000
0000
0000
0000
0000
0000
0000
0000
0000
0000
0101
0000
0000
0000
0000
0000
0000
0000
0000
0000
0000
0000
0000
0000
0000
0000
0000
0000
0000
0000
0000
1001
0000
0000
0000
0000
0000
0000
0000
0000
0000
0000
0000
0000
0000
0000
0000
0000
0000
0000
0000
0000
0000
0000
0000
0000
0000
0000
0010
0000
0000
0000
0000
0000
0000
0000
0100
0000
0000
0000
,
0000
0000
0000
0000
0000
0000
0010
0000
0000
1000
0000
0000
0001
0000
0000
0000
0000
0000
0010
0000
0100
1000
0000
0000
,
0001
0000
0000
1000
0000
0000
0001
0000
0000
0010
0000
0100
0010
0000
0000
0000
0000
0001
0010
0000
0000
0000
0000
0000
,
1000
0000
0001
0100
0000
0000
0010
0000
0000
1000
0000
0001
0010
0000
0100
0000
0010
0000
0000
0000
0000
1100
0000
0000
,
1000
0000
0000
0000
0010
0000
0000
0100
0001
0000
0000
0000
1000
0000
0000
0001
0010
0000
0000
0000
0100
0000
0000
1000
0001
0000
0000
0000
0100
0000
0000
0010
,
1000
0000
0001
0000
0010
0000
0000
0000
0100
0000
0010
0000
0001
1000
0001
1000
,
0001
1000
0001
1000
0001
1000
0100
0000
0000
0000
0000
0000
0000
0000
0100
0000
,
0010
0000
0001
0000
0000
0010
0000
0100
0000
1000
0000
0000
0000
0000
0000
1100
0000
0000
0000
0000
0000
1001
0000
0000
,
0000
0000
0000
0011
0000
0000
0000
0000
0101
0000
0000
0000
0000
0000
0000
0000
0000
0000
0000
0000
0010
0000
0000
0000
,
0000
0000
1000
0000
0000
0000
0000
0000
0000
1010
0000
0000
0000
0000
0000
0000
0000
0000
0000
0000
0000
1001
0000
0000
,
0000
0000
0000
0000
0001
0000
0000
0000
0000
0000
0000
0010
0000
0000
0000
0000
0000
0000
0000
0000
0000
0000
0000
0000
0100
0000
0000
0000
1000
0000
0000
0000
,
0001
0000
0000
0000
0000
0000
0000
0000
0000
0000
0000
0000
1000
0000
0000
0000
0000
0000
0000
0000
0000
0000
0000
0000
0001
0000
0000
0000
0000
0000
0000
0000
0000
0000
0000
0000
0101
0000
0000
0000
0000
0000
0000
0000
0000
0000
0000
0000
0000
0000
0000
0000
0000
0000
0000
0000
0000
0000
0000
0000
0000
0000
0000
0000
0000
0000
0000
0000
0000
0000
0000
0000
0000
0000
0000
1000
0000
0000
0000
0000
0010
0000
0000
0000
0000
0000
0000
0000
0000
0000
0000
0000
0000
0000
0000
0000
,
0000
0000
0000
0000
0000
0000
0000
0000
0100
0000
0000
0000
0000
0000
0000
0001
0000
0000
1000
0000
0000
0110
0000
0000
,
0001
0000
0000
0000
0000
0000
0010
0000
0100
0000
0010
0000
0100
0000
0000
0000
1000
0000
0000
0000
0000
0000
0000
0000
0000
0000
0000
0000
0000
1100
0000
0000
0000
0000
0000
0000
0000
0000
0000
0000
0000
1010
0000
0000
0000
0000
0000
0000
,
0000
0000
0000
0000
0000
0101
0000
0000
0000
0000
0000
0000
0000
0000
0000
0000
0000
0001
0010
0000
0000
0000
0000
0000
0000
0000
0000
0000
0000
0100
0000
0000
0000
0000
0000
0000
0000
0000
0000
1000
0000
0000
0000
0000
0000
0000
0000
0000
,
0000
1000
0000
1000
0000
0000
0000
0010
0000
0010
0000
0000
0000
0000
0000
0000
0100
0000
0000
0000
0000
0000
0000
0001
,
0000
0001
0000
0000
0010
0000
0000
0100
0000
0100
0000
0000
,
1000
0000
0000
0000
1000
0000
0000
0000
0000
0000
0000
0000
0001
0000
0000
0000
0000
0000
0000
0100
0000
0000
0000
0000
0000
0000
0000
0010
0000
0000
0000
1000
0000
0000
0000
0000
0000
0000
0000
1000
0000
0000
0000
0000
0000
0000
0000
0000
,
0000
0000
0000
0000
0000
0000
0000
0001
0000
0000
0000
0000
0000
0000
0000
0000
0000
0011
0000
0000
0000
0000
0000
0000
0000
0000
0000
0000
0000
0000
0000
0000
0000
0000
0000
0000
1001
0000
0000
0000
0000
0000
0000
0000
0000
0000
0000
0000
,
0001
0000
0000
0000
0000
0010
0000
0000
0000
0000
0000
0000
0000
0000
0100
0000
0000
1000
0000
0000
0000
0000
0000
0000
0010
0000
0000
0000
0000
0000
0000
0000
0000
0000
0100
0000
0000
0000
0000
0000
0100
0000
0000
0000
0000
0000
0000
0000
,
0001
0000
0000
0000
1000
0000
0000
0000
0001
0000
0000
0000
0000
0000
0000
0000
0000
0000
0000
0000
0000
0010
0000
0000
,
0000
0000
0000
0000
0000
0000
0000
0100
0000
0000
0000
0000
0000
0000
0000
0000
0000
0100
0000
0000
0000
0000
0000
0000
0000
0000
0000
0000
0000
0000
0000
0000
0000
0000
0000
0000
0000
0000
0000
0000
0000
0000
0000
0000
0000
0000
0000
0000
,
0000
0000
0000
0000
0000
0000
1000
0000
0001
0000
1000
0010
0100
0000
0001
0000
,
1000
0000
0100
0000
0010
0000
0000
0000
0100
0000
0000
0000
1000
0010
0000
0000
0000
0000
0000
0100
0001
0000
0000
0000
0010
0000
0000
0000
0100
0000
1000
0000
,
0001
0000
0000
0000
0000
0000
0100
0000
0000
0000
0000
0000
0010
0000
0000
0100
0000
0000
0010
0000
0000
0000
0000
0000
1000
0000
0000
0000
0000
0000
0001
0000
0000
0000
0010
0000
0000
0000
0001
0000
0000
0000
1000
0000
0000
0000
0000
0000
,
0010
0100
0001
0101
0000
1000
0100
0010
,
0100
0000
1100
0000
0000
0000
1000
0001
0100
0000
0010
0000
0100
0000
0010
0000
,
0100
0000
0000
0000
0101
0000
0000
0000
0000
0000
0000
0000
0001
1000
0000
0000
0000
0000
0000
0000
1000
0000
0000
0000
0010
0000
0100
0000
0010
0000
0000
0000
,
0100
0000
0001
0000
0010
0000
0100
1000
0001
0000
0010
0000
0100
0000
1000
0000
,
0001
0100
0010
1000
0100
0010
0001
1000
,
0000
0100
0000
0000
0000
0000
0010
0000
0000
0001
0000
0000
0100
0000
0000
0010
0000
0000
1000
0000
0000
0001
0000
0000
,
0000
0100
0000
0000
0000
0000
0010
0000
0000
1000
0000
0000
0001
0000
0000
0010
0000
0000
0100
0000
0000
1100
0000
0000
,
0000
0000
0000
0000
0000
0000
0000
0000
0000
0000
0000
0000
0000
0000
0000
0000
0000
0000
0000
0000
0000
0000
0000
0000
1000
0000
0000
0000
0000
0000
0000
0000
0000
0000
0000
0000
0000
0000
0000
0000
0000
0000
0000
0000
0000
0000
0000
0000
0001
0000
0000
0000
0000
0000
0000
0000
0000
0000
0000
0000
0000
0000
0000
0000
0000
0000
0000
0000
0000
0000
0000
0000
0220
0330
0000
0000
0000
0000
0000
0000
0000
0000
0000
0000
0000
0000
0000
0000
0000
0000
0000
0000
0000
0000
0000
0000
2002
3003
0000
0000
0000
0000
0000
0000
0000
0000
0000
0000
0000
0000
0000
0000
0000
0000
0000
0000
0000
0000
0000
0000
0220
0330
0000
0000
0000
0000
0000
0000
0000
0000
0000
0000
0000
0000
0000
0000
0000
0000
0000
0000
0000
0000
0000
0000
2002
3003
0000
0000
0000
0000
0000
0000
0000
0000
0000
0000
0000
0000
0000
0000
0000
0000
0000
0000
0000
0000
0000
0000
1000
0000
0000
0000
0000
0000
0000
0000
0000
0000
0000
0000
0000
0000
0000
0000
0000
0000
0000
0000
0000
0000
0000
0000
,
0001
0000
0100
0000
0001
0000
1000
0000
0001
0010
0100
0000
0010
0000
0001
0000
,
1000
0000
0010
0000
0100
0000
0001
0000
1000
0100
0010
0000
0100
0000
1000
0000
,
0001
0000
1000
0000
0100
0000
0010
0000
0100
1000
0010
0000
1010
0000
1000
0000
,
0101
0000
0001
0000
1100
0000
1000
0000
0001
0100
0010
0000
0100
0000
0001
0000
,
1000
0000
0001
0000
1000
0000
0010
0000
0100
0001
0010
0000
0100
0000
1100
0000
,
0000
0000
0101
0000
0000
0000
1001
0000
0001
0010
0100
0010
0100
0010
0001
0000
,
1000
0010
0100
0000
0010
0000
1000
0000
0010
0100
0001
0000
1000
0000
0100
0000
,
0010
0100
1000
0000
0100
0000
0010
0000
0100
1000
0001
0000
0100
0010
0100
0000
,
0010
1000
0001
0000
0010
0000
0100
0000
0010
0001
1000
0000
0010
0000
0100
0000
,
0001
0010
0100
0000
1000
0000
0010
0000
0100
0001
1000
0000
0100
0000
1100
0000
,
0001
0000
0100
0000
0101
0000
0000
0000
0001
0100
0001
0000
0010
0000
0100
1000
,
0100
0010
0001
0000
1001
0000
1000
0000
0001
0000
0110
0000
0000
0000
1000
0000
,
0001
0000
0100
0000
0010
0000
0100
0000
0010
1000
0001
1000
0001
0010
0100
0000
,
1000
0100
1000
0100
0010
0000
0100
1000
0001
0000
0100
0000
0010
0000
0100
0001
,
1000
0000
0100
1000
0001
0000
0100
0001
1000
0000
0100
1000
0001
0000
0010
0000
,
0100
0000
1000
0001
0100
0000
0010
0000
0100
0000
0010
1000
0001
0000
0010
0000
,
0100
0000
1000
0100
1000
0000
0010
0100
0001
0000
0010
0100
0010
0100
1000
0001
,
0100
0000
0010
1000
0010
0000
0100
0001
0010
0100
1000
0100
0010
0100
1000
0000
,
0010
0100
0001
0000
0010
0100
0010
0001
1000
0100
1000
0100
1000
0001
0100
0000
,
0010
1000
0001
0100
0001
0000
0010
0100
1000
0100
1000
0000
0010
0100
0010
0000
,
1000
0001
1000
0000
0001
0010
0100
1000
0001
0010
0100
1000
0001
0010
0100
0000
,
1000
0000
0001
0000
0101
0000
0000
0000
1000
0010
1000
0010
0100
0000
0001
0000
,
0010
0000
0100
0000
1100
0000
0000
0000
1000
0001
0100
0001
0100
0001
1000
0000
,
0100
0000
0110
0000
0001
0000
0010
0000
0100
1000
0001
1000
0001
1000
0010
0000
,
0100
0101
0001
1000
0001
0011
1000
1100
,
0000
0000
0100
0000
0110
0000
0000
0000
1000
0010
0100
0000
0001
0000
1000
0100
,
1000
0001
0100
0000
0120
0000
0000
0000
0100
0000
1000
0000
0100
0000
1000
0000
,
0000
0100
0001
0100
0000
0100
0000
0130
;
