#TITLE:虚像のCarousel;
#SUBTITLE:;
#ARTIST:Mori Calliope × Reol;
#TITLETRANSLIT:;
#SUBTITLETRANSLIT:;
#ARTISTTRANSLIT:;
#GENRE:;
#CREDIT:;
#MUSIC:Kyozou no Carousel.ogg;
#BANNER:Kyozou no Carousel.png;
#BACKGROUND:Kyozou no Carousel-bg.png;
#CDTITLE:;
#SAMPLESTART:45.366;
#SAMPLELENGTH:8.848;
#SELECTABLE:YES;
#OFFSET:1.639;
#BPMS:0.000=108.500
,13.000=54.250
,14.000=108.500
,16.000=217.000
,48.000=108.500
,48.333=434.000
,49.000=108.500
,49.333=434.000
,50.000=108.500
,50.333=434.000
,51.000=108.500
,51.333=434.000
,52.000=217.000
,79.500=108.500
,81.500=24.110
,82.000=217.000
,138.000=108.500
,142.000=217.000
,204.000=108.500
,205.000=217.000
,277.000=108.500
,277.500=217.000
,338.500=108.500
,339.500=217.000
;
#STOPS:;
#DISPLAYBPM:108.500:217.000;
#LASTBEATHINT:1.104877;
#BGCHANGES:5.000=Kyozou no Carousel.avi=1.000=0=0=0=StretchNoLoop====,
99999.000=-nosongbg-=1.000=0=0=0=StretchNoLoop====
;
#FGCHANGES:;

//--------------- dance-single - ----------------
#NOTES:
     dance-single:
     :
     Medium:
     13:
     0,0,0,0,0:
0000
0000
0000
0000
,
0000
0000
0000
0000
,
0000
0000
0000
0000
,
0000
0000
0000
0000
,
0001
1000
0100
0000
0010
0001
0100
0001
,
1000
0001
0100
0000
0010
1000
0100
1000
,
0001
1000
0010
0000
0100
0001
1000
0100
,
0010
0010
0001
0001
1000
1000
0010
0000
,
0100
0001
1000
0000
0001
0100
0010
0100
,
0001
1000
0100
0000
0010
0001
1000
0000
,
1100
0011
0101
1010
,
0001
0100
0010
1000
0001
0010
0100
0000
,
0110
1001
0110
1001
,
0001
0000
1000
0000
0010
1000
0001
0000
,
0010
0000
0100
1000
0000
1000
0001
0000
,
0100
0010
1000
0000
1000
0001
0010
0000
,
0100
0000
1000
0001
0000
0001
0100
0000
,
0010
1000
0001
0000
0010
0000
0100
0000
,
0010
0000
0001
1000
0000
1000
0010
0000
,
0100
0001
1000
0000
0001
0010
0100
2000
,
0000
0000
0000
3000
0001
0100
0010
0000
,
0110
0000
1001
0000
1000
0100
0010
0000
,
0110
0000
1001
0000
0001
0100
0010
0000
,
1000
0100
0010
0000
0001
0010
0100
0000
,
1000
0010
0100
0000
0002
0000
2003
0000
,
3020
0230
0302
0023
,
0230
0000
0310
0000
1001
0000
1000
0010
,
0100
0000
0001
0010
0200
0000
2300
0000
,
3020
0000
0230
0000
0301
0000
1000
0100
,
1000
0000
0001
0000
0100
0010
0100
0000
,
0001
1000
0000
0000
1100
0000
0100
1000
,
0010
0000
0010
1000
0100
0000
0100
1000
,
0010
0100
0000
0000
0001
0010
0100
0000
,
1100
0011
1010
0101
,
0001
0000
0000
0000
0000
0000
0000
0000
0000
0000
0000
0000
0000
0000
0000
0000
0000
0000
0000
0000
0000
0000
0000
0000
1000
0000
0000
0000
0000
0000
0000
0000
0000
0000
0000
0000
0000
0000
0000
0000
0000
0000
0000
0000
0000
0000
0000
0000
0000
0000
0000
0000
0000
0000
0000
0000
0000
0000
0000
0000
0000
0000
0000
0000
0000
0000
0000
0000
0000
0000
0000
0000
0000
0000
0000
0000
0000
0000
0000
0000
0000
0000
0000
0000
0000
0000
0000
0000
0000
0000
0000
0000
0000
0000
0000
0000
0002
0003
0000
0000
0000
0000
0000
0000
0000
0000
0000
0000
0000
0000
0000
0000
0100
0000
0000
0000
0000
0000
0000
0000
0000
0000
0000
0000
0000
0000
0000
0000
0001
0000
0000
0000
0000
0000
0000
0000
0000
0000
0000
0000
0000
0000
0000
0000
1000
0000
0000
0000
0000
0000
0000
0000
0000
0000
0000
0000
0000
0000
0000
0000
0100
0000
0000
0000
0000
0000
0000
0000
0000
0000
0000
0000
0000
0000
0000
0000
1000
0000
0000
0000
0000
0000
0000
0000
0000
0000
0000
0000
0000
0000
0000
0000
,
0010
0010
0100
1001
0001
1000
0100
0000
,
0010
0001
1000
0000
0010
0100
1000
0100
,
0001
0010
0100
0000
1000
0001
0010
0000
,
0100
1000
0001
0000
1000
0010
0001
0010
,
0100
0000
0110
0000
0001
0010
0100
0000
,
0100
0010
0001
0000
1000
0010
0100
0000
,
0100
0010
1000
0000
1010
0000
0101
0000
,
1010
0101
0002
0023
,
0230
0000
2300
0000
3001
0100
0001
0000
,
0001
0010
0100
0000
1000
0100
1000
0000
,
1000
0010
0100
0000
0010
0000
1001
0000
,
0100
0000
1001
0000
0001
1000
0100
0000
,
1100
0000
0101
0000
0001
0100
0010
1000
,
0100
1000
0010
0000
1000
0100
0010
0001
,
0100
0001
0010
0000
1100
0000
0101
0000
,
1100
0000
0101
0000
0001
0100
1000
0100
,
0002
0003
0000
0000
0000
0000
0000
0000
0000
0000
0000
0000
0000
0000
0000
0000
0000
0000
0000
0000
0000
0000
0000
0000
0000
0000
0000
0000
0000
0000
0000
0000
0000
0000
0000
0000
0000
0000
0000
0000
0000
0000
0000
0000
0000
0000
0000
0000
1000
0000
0000
0000
0000
0000
0000
0000
0000
0000
0000
0000
0000
0000
0000
0000
0000
0000
0000
0000
0000
0000
0000
0000
0001
0000
0000
0000
0000
0000
0000
0000
0000
0000
0000
0000
0000
0000
0000
0000
0000
0000
0000
0000
0000
0000
0000
0000
0010
0000
0000
0000
0000
0000
0000
0000
0000
0000
0000
0000
0000
0000
0000
0000
0000
0000
0000
0000
0000
0000
0000
0000
0100
0000
0000
0000
0000
0000
0000
0000
0000
0000
0000
0000
0000
0000
0000
0000
0000
0000
0000
0000
0000
0000
0000
0000
2000
0000
0000
0000
0000
0000
0000
0000
0000
0000
0000
0000
0000
0000
0000
0000
0000
0000
0000
0000
0000
0000
0000
0000
0000
0000
0000
0000
0000
0000
0000
0000
0000
0000
0000
0000
0000
0000
0000
0000
0000
0000
0000
0000
0000
0000
0000
0000
,
0001
0100
0001
3002
,
0023
0000
0130
1000
0010
0100
0002
0000
,
0100
0000
1000
0000
0203
0000
0301
0010
,
0100
0000
1100
0000
1000
0010
0002
0000
,
1003
0100
0001
0100
1000
0100
0002
0000
,
1000
0000
1003
0100
0010
0001
1000
0001
,
0010
0100
1000
0000
1100
0000
0101
0000
,
1001
0000
0001
0100
0001
0010
0001
0100
,
0010
0000
1000
0100
1000
0010
1000
0100
,
0010
0000
0011
0000
0001
1000
0100
0000
,
1000
0001
0100
0000
0010
1000
0001
0000
,
1000
0100
0010
0000
0001
0100
1000
0100
,
0001
0100
1000
0100
0001
0100
0020
0000
,
0230
0000
0301
0010
0100
1000
0001
0010
,
0100
1000
0002
0000
2003
0000
3002
0000
,
2003
0010
0010
0010
,
3010
0110
1001
0110
,
1001
0000
0000
0000
0000
0000
0000
0000
0000
0000
0000
0000
0000
0000
0000
0000
0000
0000
0000
0000
0000
0000
0000
0000
0000
0000
0000
0000
0000
0000
0000
0000
0000
0000
0000
0000
0000
0000
0000
0000
0000
0000
0000
0000
0000
0000
0000
0000
0220
0330
0000
0000
0000
0000
0000
0000
0000
0000
0000
0000
0000
0000
0000
0000
0000
0000
0000
0000
0000
0000
0000
0000
1001
0000
0000
0000
0000
0000
0000
0000
0000
0000
0000
0000
0000
0000
0000
0000
0000
0000
0000
0000
0000
0000
0000
0000
0000
0000
0000
0000
0000
0000
0000
0000
0000
0000
0000
0000
0000
0000
0000
0000
0000
0000
0000
0000
0000
0000
0000
0000
0001
0000
0000
0000
0000
0000
0000
0000
0000
0000
0000
0000
0000
0000
0000
0000
0000
0000
0000
0000
0000
0000
0000
0000
1000
0000
0000
0000
0000
0000
0000
0000
0000
0000
0000
0000
0000
0000
0000
0000
0000
0000
0000
0000
0000
0000
0000
0000
0100
0000
0000
0000
0000
0000
0000
0000
0000
0000
0000
0000
0000
0000
0000
0000
0000
0000
0000
0000
0000
0000
0000
0000
,
0000
0010
0100
0001
0100
1000
0010
0100
,
0000
0001
1000
0010
0000
0100
0001
1000
,
0000
0001
0010
1000
0010
0100
0000
0110
,
0000
1000
0010
0100
0000
0100
0010
1000
,
0000
0001
0010
0100
0000
0100
0010
0001
,
0000
0011
0000
1100
0000
0011
0000
1100
,
0000
2000
0000
3020
0000
0230
0000
0302
,
0000
1003
0100
1000
0000
1000
0010
0100
,
0000
0001
0100
0001
0000
0001
0010
0100
,
0000
0010
0000
1001
0000
0100
0000
1001
,
0000
1000
0001
0100
0000
0101
0000
1100
,
0000
1000
0100
0010
0001
0100
0001
0010
,
0000
0001
0100
0010
1000
0100
1000
0010
,
0000
0010
0100
0001
1000
0001
0010
0100
,
1000
0000
0000
0000
0000
0000
0000
0000
0000
0000
0000
0000
0000
0000
0000
0000
0000
0000
0000
0000
0000
0000
0000
0000
0010
0000
0000
0000
0000
0000
0000
0000
0000
0000
0000
0000
0000
0000
0000
0000
0000
0000
0000
0000
0000
0000
0000
0000
0100
0000
0000
0000
0000
0000
0000
0000
0000
0000
0000
0000
0000
0000
0000
0000
0000
0000
0000
0000
0000
0000
0000
0000
0001
0000
0000
0000
0000
0000
0000
0000
0000
0000
0000
0000
0000
0000
0000
0000
0000
0000
0000
0000
0000
0000
0000
0000
1000
0000
0000
0000
0000
0000
0000
0000
0000
0000
0000
0000
0000
0000
0000
0000
0000
0000
0000
0000
0000
0000
0000
0000
0200
0300
0000
0000
0000
0000
0000
0000
0000
0000
0000
0000
0000
0000
0000
0000
0000
0000
0000
0000
0000
0000
0000
0000
0100
0000
0000
0000
0000
0000
0000
0000
0000
0000
0000
0000
0000
0000
0000
0000
0000
0000
0000
0000
0000
0000
0000
0000
1001
0000
0000
0000
0000
0000
0000
0000
0000
0000
0000
0000
0000
0000
0000
0000
0000
0000
0000
0000
0000
0000
0000
0000
,
0000
0001
0100
0000
0010
0000
0100
0000
,
0001
1000
0000
0001
0010
0100
1000
0000
,
1000
0010
0000
0100
0001
1000
0100
0000
,
0100
0010
0000
0100
1000
0001
0000
0001
,
0100
1000
0000
1000
0100
0001
0000
1000
,
0100
0001
0100
0000
1000
0001
0000
1000
,
0000
0010
0100
0010
0000
1000
0001
1000
,
0000
0100
0000
0000
1000
0000
0001
0000
0000
0100
0000
0000
0001
0000
0010
0000
,
0100
1000
0010
0000
0010
0000
0010
0100
,
0001
1000
0100
0000
0001
0000
0100
1000
,
0001
0000
0100
0000
1000
0100
0000
0010
,
1000
0001
0010
0000
0010
0100
0000
1001
,
0000
0100
0010
0000
0110
0000
1000
0001
,
0010
0100
1000
0000
0001
0000
1000
0010
,
0100
0001
1000
0000
0100
0001
0000
0100
,
0000
1000
0000
0000
0001
0000
0100
0000
0000
0001
0000
0000
2000
0000
0000
0000
,
0000
0000
0000
0000
,
0000
0000
0000
0000
,
3000
0000
0000
0000
;

//--------------- dance-single - ----------------
#NOTES:
     dance-single:
     :
     Hard:
     16:
     0,0,0,0,0:
0000
0000
0000
0000
,
0000
0000
0000
0000
,
0000
0000
0000
0000
,
0000
0000
0000
0000
,
1000
0100
1000
0000
0010
0000
1000
0000
0001
0000
0010
0000
0100
0000
1000
0000
,
0001
0100
0001
0000
1000
0000
0001
0000
1000
0000
0010
0000
0100
0000
0001
0000
,
0010
0100
0010
0000
0001
0000
1000
0000
1000
0000
0010
0000
0100
0000
0001
0000
,
0010
0010
0100
0100
0010
0010
0110
0000
,
0001
1000
0001
0000
0100
0000
0010
0000
1000
0000
0001
0000
0010
0000
0100
0000
,
1000
0001
1000
0000
0010
0000
0100
0000
0001
0000
1000
0000
0010
0000
0100
0000
,
0101
1100
0101
1100
,
0001
0000
1000
0100
1000
0000
0001
0100
0001
0000
1000
0100
1000
0000
0010
0000
,
0110
1001
0110
1001
,
1001
0000
1000
0000
0010
0100
0010
0000
,
1000
0010
0100
0001
0000
0001
0010
1000
,
0001
0100
0010
0000
0001
1000
0010
0000
,
0100
0001
1000
0100
0000
0110
0000
0000
,
0010
0001
1000
0000
0001
0100
1000
0100
,
0010
0000
0100
0001
0000
0001
0010
0100
,
1000
0010
0001
0000
0010
1000
0100
0020
,
0000
0000
0000
0030
1001
0010
0100
0010
,
1001
0000
0110
0000
0110
1000
0001
1000
,
0110
0001
1000
0000
0101
1000
0001
0100
,
0110
1000
0001
1000
1100
0001
0100
0010
,
0110
0000
1001
0000
0001
0010
0001
0100
,
0001
1000
0010
1000
0001
0010
0100
1000
,
0001
0100
0010
1000
1100
0000
1000
0001
,
0101
0000
0000
0000
0000
0000
0100
0000
0000
0010
0000
0000
1000
0000
0001
0000
1000
0000
0100
0000
0010
0000
0001
0000
,
1000
0001
0100
0010
1000
0001
1000
0000
0000
0001
0000
0010
,
0100
0000
0000
1100
0000
0000
1000
0000
0100
0010
0000
0100
,
2000
0000
0002
3003
0000
0000
1001
0000
0000
0001
0000
0100
,
0010
0000
1000
0001
0000
0010
0100
0000
1000
0001
0000
0100
,
0020
0000
0200
0330
0000
0000
0001
0000
1000
0100
0000
0000
,
0110
0000
0000
1001
0000
0000
0101
0000
0000
0100
0000
0001
,
2000
0000
0000
0000
0000
0000
0000
0000
0000
0000
0000
0000
0000
0000
0000
0000
0000
0000
0000
0000
0000
0000
0000
0000
0000
0000
0000
0000
0000
0000
0000
0000
0200
0000
0000
0000
0000
0000
0000
0000
0000
0000
0000
0000
0000
0000
0000
0000
3300
0000
0000
0000
0000
0000
0000
0000
0000
0000
0000
0000
0000
0000
0000
0000
0000
0000
0000
0000
0000
0000
0000
0000
0000
0000
0000
0000
0000
0000
0000
0000
0000
0000
0000
0000
0000
0000
0000
0000
0000
0000
0000
0000
0000
0000
0000
0000
2000
3000
0000
0000
0000
0000
0000
0000
0000
0000
0000
0000
0000
0000
0000
0000
0100
0000
0000
0000
0000
0000
0000
0000
0000
0000
0000
0000
0000
0000
0000
0000
1000
0000
0000
0000
0000
0000
0000
0000
0000
0000
0000
0000
0000
0000
0000
0000
0001
0000
0000
0000
0000
0000
0000
0000
0000
0000
0000
0000
0000
0000
0000
0000
0100
0000
0000
0000
0000
0000
0000
0000
0000
0000
0000
0000
0000
0000
0000
0000
0001
0000
0000
0000
0000
0000
0000
0000
0000
0000
0000
0000
0000
0000
0000
0000
,
0010
0100
0110
1001
1000
0100
0010
0100
,
0001
0100
1100
0000
0001
0100
0010
0100
,
1000
0100
0101
0000
1001
0001
0010
0100
,
0010
0001
1000
0010
0100
0010
1000
0100
,
1100
0000
0011
0000
1010
0100
0001
0000
,
0011
0100
1000
0000
0110
0001
1000
0000
,
0110
1000
0001
0100
0101
0000
1010
0000
,
1100
0000
0000
0000
0011
0000
0000
0000
0001
0000
1000
0100
1000
0000
0001
0100
,
0001
0000
1000
0010
1000
0001
0100
0001
0010
0000
0100
0000
1000
0000
0010
0000
,
0100
0001
1000
0100
1100
0000
1001
0000
,
0101
0000
1001
1000
0001
0100
0110
0000
,
1000
0001
1001
0000
0001
1000
1100
0000
,
1000
0000
0001
0000
0101
0000
0000
0000
0001
0000
1000
0100
1000
0000
0010
0000
,
0100
0000
0001
0100
0001
0000
0010
0000
0100
0000
1000
0001
1000
0000
0010
0000
,
0100
0000
0001
1000
0100
0000
0000
0000
1100
0000
0000
0000
0101
0000
0000
0000
,
0011
0000
1010
0000
1000
0010
0100
0001
,
2000
0000
0000
0000
3100
0000
1000
0001
0010
0000
0100
0000
0020
0000
0000
0000
,
0001
0000
0100
0000
0001
0000
0130
1000
,
0010
0000
1000
0000
0100
0000
1000
0001
0100
0000
0010
0000
2000
0000
0000
0000
,
0001
0000
0100
0000
3002
0000
1003
0010
,
0110
0000
0000
0000
1000
0000
0001
0010
0100
0000
0010
0000
0001
0000
1000
0010
,
0100
0000
0010
0000
1000
0000
0001
0010
0100
0000
0010
0000
0002
0000
0000
0000
,
0100
0000
1003
0010
0100
0001
0010
0100
,
1000
0001
0100
0000
1001
0000
0110
0001
,
1000
0000
0000
0000
0001
0000
1000
0100
1000
0000
0010
0100
0010
0000
0100
0001
,
1000
0000
0010
0000
0100
0000
0001
0100
0001
0000
0010
0100
0010
0000
0100
1000
,
0001
0000
0000
0000
1000
0000
0001
0010
0100
0000
0010
0000
0001
0000
0010
0100
,
1000
0001
1000
0010
0100
0010
1000
0001
,
0010
0100
1100
0000
1000
0100
0001
0100
,
1000
0000
0100
0000
0001
0000
0100
0000
1000
0000
0001
0000
0100
0010
0100
0010
,
0100
0001
1001
0000
0001
0100
1000
0100
,
0001
0100
0101
0000
1010
0000
0110
0000
,
2001
0010
0010
0010
,
3010
0110
1001
0110
,
1001
0000
0000
0000
0000
0000
0000
0000
0000
0000
0000
0000
0000
0000
0000
0000
0000
0000
0000
0000
0000
0000
0000
0000
0000
0000
0000
0000
0000
0000
0000
0000
0000
0000
0000
0000
0000
0000
0000
0000
0000
0000
0000
0000
0000
0000
0000
0000
0220
0330
0000
0000
0000
0000
0000
0000
0000
0000
0000
0000
0000
0000
0000
0000
0000
0000
0000
0000
0000
0000
0000
0000
1001
0000
0000
0000
0000
0000
0000
0000
0000
0000
0000
0000
0000
0000
0000
0000
0000
0000
0000
0000
0000
0000
0000
0000
0001
0000
0000
0000
0000
0000
0000
0000
0000
0000
0000
0000
0000
0000
0000
0000
0000
0000
0000
0000
0000
0000
0000
0000
1000
0000
0000
0000
0000
0000
0000
0000
0000
0000
0000
0000
0000
0000
0000
0000
0000
0000
0000
0000
0000
0000
0000
0000
0010
0000
0000
0000
0000
0000
0000
0000
0000
0000
0000
0000
0000
0000
0000
0000
0000
0000
0000
0000
0000
0000
0000
0000
0110
0000
0000
0000
0000
0000
0000
0000
0000
0000
0000
0000
0000
0000
0000
0000
0000
0000
0000
0000
0000
0000
0000
0000
,
0000
1100
1000
0001
0100
1000
0100
0101
,
0000
1001
1000
0010
0100
0010
1000
0001
,
0010
0100
1000
0001
0100
0101
0000
1010
,
0000
0011
0100
1000
0000
1010
0100
0001
,
0000
0001
1000
0110
0000
0100
0010
1001
,
0000
1100
0000
0101
0000
0011
0000
1100
,
0000
0000
1000
0000
0001
0010
0100
0000
0010
0001
1000
0000
0010
0100
0001
0010
,
0100
1000
0010
0000
0100
0000
0001
0000
0010
0000
1000
0000
0001
0000
0100
0000
,
1000
1100
0000
1001
0000
0101
0000
1001
,
0000
1000
0010
0110
0000
0001
0010
0110
,
0000
1000
0001
0101
0000
0001
1000
1100
,
0000
0000
1000
0000
0001
0100
0001
0000
0010
0000
0100
0000
1000
0100
1000
0000
,
0010
0000
0100
0000
0001
1000
0001
0000
0010
0000
0100
0000
1000
0001
0010
0100
,
1000
0000
0000
0001
0000
0100
0000
0001
0000
1000
0000
0100
0000
1000
0000
0001
0000
0100
0000
0000
0000
0100
0000
0010
,
0000
0000
0000
0000
0000
0000
0000
0000
0000
0000
0000
0000
0000
0000
0000
0000
0000
0000
0000
0000
0000
0000
0000
0000
0010
0000
0000
0000
0000
0000
0000
0000
0000
0000
0000
0000
0000
0000
0000
0000
1000
0000
0000
0000
0000
0000
0000
0000
0000
0000
0000
0000
0000
0000
0000
0000
0000
0000
0000
0000
0000
0000
0000
0000
0000
0000
0000
0000
0000
0000
0000
0000
1000
0000
0000
0000
0000
0000
0000
0000
0000
0000
0000
0000
0000
0000
0000
0000
0001
0000
0000
0000
0000
0000
0000
0000
0000
0000
0000
0000
0000
0000
0000
0000
0000
0000
0000
0000
0000
0000
0000
0000
0000
0000
0000
0000
0000
0000
0000
0000
0020
0030
0000
0000
0000
0000
0000
0000
0000
0000
0000
0000
0000
0000
0000
0000
0000
0000
0000
0000
0000
0000
0000
0000
0010
0000
0000
0000
0000
0000
0000
0000
0000
0000
0000
0000
0000
0000
0000
0000
0000
0000
0000
0000
0000
0000
0000
0000
1001
0000
0000
0000
0000
0000
0000
0000
0000
0000
0000
0000
0000
0000
0000
0000
0000
0000
0000
0000
0000
0000
0000
0000
,
0000
1000
0010
0000
0200
0000
0001
0000
,
0301
0010
0100
1000
0001
0100
0020
0000
,
1030
0001
0010
1000
0001
0100
0001
1000
,
0010
0001
1000
0010
0001
0010
0000
0100
,
0001
1000
0001
0010
0100
1000
1000
0001
,
0100
1000
0200
0000
0301
1000
0001
0010
,
0010
0100
0100
1000
1000
0001
0001
0100
,
0000
0010
0000
0000
0110
0000
1000
0000
0000
0001
0000
0000
1001
0000
1000
0000
,
0100
0010
0002
0000
1000
0000
1003
0010
,
0100
0001
1000
0000
1100
0000
0100
0010
,
0001
1000
0020
0000
0100
0230
0000
0001
,
0301
1000
0002
0000
1003
0100
0000
0011
,
0000
0001
1000
0000
0110
0000
1000
0001
,
0100
1000
0100
0001
0020
0000
1030
0010
,
0001
0100
0010
0000
0010
1000
0100
0010
,
0000
0001
0000
0000
0011
0000
1000
0000
0000
0020
0000
0000
0200
0000
0000
0000
,
0000
0000
0000
0000
,
0330
0000
0000
0000
;

//--------------- dance-single - ----------------
#NOTES:
     dance-single:
     :
     Challenge:
     18:
     1.15584,1.269077,1.002119,0.459989,0.83373,985,863,122,56,0,0,1.15584,1.269077,1.002119,0.459989,0.83373,985,863,122,56,0,0:
0000
0000
0000
0000
,
0000
0000
0000
0000
,
0000
0000
0000
0000
,
0000
0000
0000
0000
0100
0100
0100
0100
,
0001
1000
0001
0000
0100
0000
0010
0000
1000
0100
1000
0000
0100
0000
0010
0000
,
0001
1000
0001
0000
0100
0000
0010
0000
0100
0001
0100
0000
0010
0000
1000
0000
,
0100
0010
0100
0000
1000
0000
0001
0000
0100
0001
0100
0000
0010
0000
1000
0000
,
0001
0100
0001
0000
1000
0100
1000
0000
0001
0010
0001
0000
1000
0010
1000
0000
,
0010
0100
0001
0000
1000
0000
0001
0000
0010
0100
1000
0000
0001
0000
0100
0000
,
0001
0100
0010
0000
1000
0000
0001
0000
1000
0100
0010
0000
0100
0000
1000
0000
,
1100
0101
1010
0101
,
0001
0100
0001
1000
0001
0010
0100
1000
0010
1000
0001
1000
0100
0010
0001
0100
,
0110
1001
0110
1001
,
1001
0000
0010
0000
0001
1000
0001
0000
,
0100
0010
0100
0010
0000
1000
0010
1000
,
0001
0010
0100
0000
1000
0010
0100
0000
,
0100
0000
0010
0000
1000
0000
0001
0000
0000
0000
1000
0100
0010
0001
1000
0100
,
0010
0001
1000
0000
0010
0100
0001
1000
,
1100
0000
0001
0101
0000
0100
0010
0100
,
0110
0000
0000
0000
0000
0000
0000
0000
0000
0000
0000
0000
0000
0000
0000
0000
0000
0000
0000
0000
0000
0000
0000
0000
0001
0000
0000
0000
0000
0000
0000
0000
0000
0000
0000
0000
0000
0000
0000
0000
0000
0000
0000
0000
0000
0000
0000
0000
1000
0000
0000
0000
0000
0000
0000
0000
0000
0000
0000
0000
0000
0000
0000
0000
0000
0000
0000
0000
0000
0000
0000
0000
0000
0000
0000
0000
0000
0000
0000
0000
0000
0000
0000
0000
0000
0000
0000
0000
0000
0000
0000
0000
0000
0000
0000
0000
0001
0000
0000
0000
0000
0000
0000
0000
0000
0000
0000
0000
0000
0000
0000
0000
0000
0000
0000
0000
0000
0000
0000
0000
1000
0000
0000
0000
0000
0000
0000
0000
0000
0000
0000
0000
0000
0000
0000
0000
0000
0000
0000
0000
0000
0000
0000
0000
0001
0000
0000
0000
0000
0000
0000
0000
0000
0000
0000
0000
0000
0000
0000
0000
0000
0000
0000
0000
0000
0000
0000
0000
0200
0300
0000
0000
0000
0000
0000
0000
0000
0000
0000
0000
0010
0000
0000
0000
0000
0000
0000
0000
0000
0000
0000
0000
,
0100
0000
0000
0000
0000
0000
0000
0000
0000
0000
0000
0000
0010
0000
0000
0000
0000
0000
0000
0000
0000
0000
0000
0000
0100
0000
0000
0000
0000
0000
0000
0000
0000
0000
0000
0000
0010
0000
0000
0000
0000
0000
0000
0000
0000
0000
0000
0000
0100
0000
0000
0000
0000
0000
0000
0000
0000
0000
0000
0000
0010
0000
0000
0000
0000
0000
0000
0000
0000
0000
0000
0000
0200
0300
0000
0000
0000
0000
0000
0000
0000
0000
0000
0000
0000
0000
0000
0000
0000
0000
0000
0000
0000
0000
0000
0000
1001
0000
0000
0000
0000
0000
0000
0000
0000
0000
0000
0000
0000
0000
0000
0000
0000
0000
0000
0000
0000
0000
0000
0000
0001
0000
0000
0000
0000
0000
0000
0000
0000
0000
0000
0000
0010
0000
0000
0000
0000
0000
0000
0000
0000
0000
0000
0000
0100
0000
0000
0000
0000
0000
0000
0000
0000
0000
0000
0000
0000
0000
0000
0000
0000
0000
0000
0000
0000
0000
0000
0000
1000
0000
0000
0000
0000
0000
0000
0000
0000
0000
0000
0000
0000
0000
0000
0000
0000
0000
0000
0000
0000
0000
0000
0000
,
1001
0000
1000
0010
0100
0000
0001
0000
1100
0000
0001
0000
0101
0000
1000
0000
,
1100
0000
0001
0010
0100
0000
0000
0000
0110
0000
1000
0000
0001
0000
1000
0000
,
0110
0001
1000
0001
1001
0100
0010
0100
,
1001
0010
0110
0000
0002
0103
0020
0130
,
2000
3100
0020
0130
0002
0013
0200
0310
,
2000
3010
0200
0310
1001
0001
0100
0001
,
1001
0000
0000
1000
0000
0000
0100
0000
0000
1000
0000
0000
0001
0000
0100
0000
0001
0000
0100
0000
0010
0000
1000
0000
,
0100
1000
0100
0010
0001
1000
0100
0000
0100
1000
0000
1000
,
0010
0000
0000
1001
0000
1000
0010
0000
0010
0100
0000
0100
,
0002
0000
0020
0003
0000
0130
1000
0000
1000
0100
0000
1000
,
0001
0000
0001
1000
0000
0001
0100
0000
0100
0001
0000
0010
,
0200
0000
0000
0000
2000
0000
0000
0300
0000
0000
3001
0000
0100
0000
0000
0000
1000
0000
0100
0000
0000
0000
0001
0000
,
1000
0000
0100
0010
0000
0001
0010
0000
1000
0010
0000
0001
,
1000
0000
0000
0000
0000
0000
0000
0000
0000
0000
0000
0000
0000
0000
0000
0000
0000
0000
0000
0000
0000
0000
0000
0000
0000
0000
0000
0000
0000
0000
0000
0000
0020
0000
0000
0000
0000
0000
0000
0000
0000
0000
0000
0000
0000
0000
0000
0000
0000
0000
0000
0000
0000
0000
0000
0000
0000
0000
0000
0000
0000
0000
0000
0000
0000
0000
0000
0000
0000
0000
0000
0000
0000
0000
0000
0000
0000
0000
0000
0000
0130
0000
0000
0000
0000
0000
0000
0000
0000
0000
0000
0000
0000
0000
0000
0000
0002
0003
0000
0000
0000
0000
0000
0000
0000
0000
0000
0000
0000
0000
0000
0000
0010
0000
0000
0000
0000
0000
0000
0000
0000
0000
0000
0000
0000
0000
0000
0000
0100
0000
0000
0000
0000
0000
0000
0000
0000
0000
0000
0000
0000
0000
0000
0000
1000
0000
0000
0000
0000
0000
0000
0000
0000
0000
0000
0000
0000
0000
0000
0000
0001
0000
0000
0000
0000
0000
0000
0000
0000
0000
0000
0000
0000
0000
0000
0000
0100
0000
0000
0000
0000
0000
0000
0000
0000
0000
0000
0000
0000
0000
0000
0000
,
0110
0000
0000
0000
0000
0000
0010
0000
0000
0000
1000
0000
0001
0000
0000
0000
0001
0000
1000
0000
0000
0000
0000
0000
1100
0000
0000
0000
0000
0000
0100
0000
0000
1000
0000
0000
0010
0000
0000
0000
0000
0000
0100
0000
0000
0000
0000
0000
,
0101
0000
0010
0000
1100
0000
0000
0000
0101
0000
0100
0001
0010
0000
0100
0000
,
1100
0000
0010
0000
0101
0000
0000
0000
1001
0000
0001
0100
0010
0000
0100
0000
,
0001
0000
1000
0100
0010
0000
0100
0000
1100
0000
1000
0010
0100
0000
0010
1000
,
0001
0000
1000
0100
0010
0000
0001
0000
1001
0000
0010
0000
0100
0000
0000
0000
,
0110
1000
0001
0000
0011
0100
1000
0000
,
1010
0100
0001
0010
1100
0000
0011
0000
,
1100
0000
0000
0000
1001
0000
0000
0000
0001
1000
0100
1000
0001
1000
0100
1000
,
0001
0100
0001
1000
0001
0100
0001
1000
0010
0000
0100
0000
0001
1000
0100
0000
,
0010
0000
0001
1000
0010
0000
0100
0000
0101
0000
0001
0000
1001
0000
0010
0000
,
1100
1000
1001
0100
0010
0100
1001
0000
,
0001
1000
0110
0000
0100
0010
1001
0000
,
1000
0000
0001
0000
0110
0000
1000
0000
0001
0100
0001
0100
0010
0000
0110
0000
,
0100
0001
0100
0001
1000
0000
1001
0000
1000
0100
1000
0100
0010
0000
0110
0000
,
0100
1000
0100
1000
0001
0000
0100
0000
0101
0000
0000
0000
0011
0000
0000
0000
,
1010
0000
0000
0000
1100
0000
0000
0000
1000
0010
1000
0010
0100
0001
0100
0001
,
2000
3000
0000
0000
0000
0000
0000
0000
0000
0000
0000
0000
0200
0300
0000
0000
0000
0000
0000
0000
0000
0000
0000
0000
0020
0030
0000
0000
0000
0000
0000
0000
0000
0000
0000
0000
0002
0003
0000
0000
0000
0000
0000
0000
0000
0000
0000
0000
1000
0000
0000
0000
0000
0000
0000
0000
0000
0000
0000
0000
0000
0000
0000
0000
0000
0000
0000
0000
0000
0000
0000
0000
0001
0000
0000
0000
0000
0000
0000
0000
0000
0000
0000
0000
0010
0000
0000
0000
0000
0000
0000
0000
0000
0000
0000
0000
0100
0000
0000
0000
0000
0000
0000
0000
0000
0000
0000
0000
1000
0000
0000
0000
0000
0000
0000
0000
0000
0000
0000
0000
0010
0000
0000
0000
0000
0000
0000
0000
0000
0000
0000
0000
2000
0000
0000
0000
0000
0000
0000
0000
0000
0000
0000
0000
0001
0000
0000
0000
0000
0000
0000
0000
0000
0000
0000
0000
0000
0000
0000
0000
0000
0000
0000
0000
0000
0000
0000
0000
0001
0000
0000
0000
0000
0000
0000
0000
0000
0000
0000
0000
0000
0000
0000
0000
0000
0000
0000
0000
0000
0000
0000
0000
,
0100
0000
0100
0000
0001
0000
0001
0000
0100
0000
0100
0000
3010
0100
0010
0100
,
0010
0100
0010
0100
0001
0000
1000
0100
0010
0001
0100
0002
1000
0000
1000
0000
,
0100
0000
0100
0000
2003
0000
0010
0000
3020
0000
0100
0000
0130
0001
0010
0100
,
1000
0000
0001
0000
1001
0000
1000
0000
0001
0010
0100
1000
0002
0000
1000
0000
,
1003
0100
0010
0001
2000
0000
3001
0010
0100
0000
1000
0010
0200
0000
0001
0000
,
0001
0001
0302
1000
2003
0010
3020
0100
,
0230
0000
0001
0000
0301
0000
0100
0001
0100
0001
1000
0100
0010
0000
0010
0100
,
1000
0000
0001
0000
0101
0000
0001
0100
0010
0000
0010
0100
0001
0010
0100
1000
,
0001
0000
0010
0000
0100
1000
0100
0010
0100
1000
0010
0100
0010
1000
0100
0010
,
0001
2000
0000
0000
3001
0100
0010
1000
0010
0100
0001
1000
0100
0010
0100
1000
,
0002
0000
1000
0000
1003
0010
0100
0001
0010
0100
1000
0000
1100
0000
0010
0000
,
0101
0000
0010
0000
1001
0000
0000
0000
0001
1000
0100
0100
0002
0000
0103
0100
,
2000
0000
3100
0100
0002
0000
0103
0100
2000
0000
3001
0010
0100
0010
0001
0010
,
0100
1000
0100
0010
0001
0000
1000
0010
0100
0010
1000
0001
0100
0010
0100
0001
,
1000
0001
0010
0100
1000
0000
2000
0000
0010
0000
3020
0000
0100
0000
0130
0000
,
0210
0010
0010
0010
,
0010
0300
0110
0000
1001
0000
0110
0000
,
1001
0000
0000
0000
0000
0000
0000
0000
0000
0000
0000
0000
0000
0000
0000
0000
0000
0000
0000
0000
0000
0000
0000
0000
0000
0000
0000
0000
0000
0000
0000
0000
0000
0000
0000
0000
0000
0000
0000
0000
0000
0000
0000
0000
0000
0000
0000
0000
0220
0330
0000
0000
0000
0000
0000
0000
0000
0000
0000
0000
0000
0000
0000
0000
0000
0000
0000
0000
0000
0000
0000
0000
1001
0000
0000
0000
0000
0000
0000
0000
0000
0000
0000
0000
0000
0000
0000
0000
0000
0000
0000
0000
0000
0000
0000
0000
1000
0000
0000
0000
0000
0000
0000
0000
0000
0000
0000
0000
0001
0000
0000
0000
0000
0000
0000
0000
0000
0000
0000
0000
0010
0000
0000
0000
0000
0000
0000
0000
0000
0000
0000
0000
0000
0000
0000
0000
0000
0000
0000
0000
0000
0000
0000
0000
0100
0000
0000
0000
0000
0000
0000
0000
0000
0000
0000
0000
0000
0000
0000
0000
0000
0000
0000
0000
0000
0000
0000
0000
1100
0000
0000
0000
0000
0000
0000
0000
0000
0000
0000
0000
0000
0000
0000
0000
0000
0000
0000
0000
0000
0000
0000
0000
,
0010
0000
0101
0000
0000
0000
1100
0000
0100
1000
0001
0000
0100
0000
0101
0000
,
0010
0000
1100
0000
0000
0000
1001
0000
1000
0100
0010
0000
0100
0000
1000
0000
,
0001
0100
0010
0000
0100
0000
0101
0000
0001
1000
0100
0000
0010
0100
1000
0000
,
0001
0100
0010
0000
1000
0000
1100
0000
0001
0000
0100
0000
0010
0000
0101
0000
,
1000
0010
0100
1010
0001
0010
0100
0011
,
0100
0000
1000
0000
0010
0000
0101
0000
0001
0010
0100
0000
1000
0000
1100
0000
,
0100
0000
1000
0001
0100
0010
1000
0001
0010
0100
1000
0000
0100
0000
0110
0000
,
0000
0000
1001
0000
1000
0000
0001
0100
0010
0000
1000
0000
0001
0000
1000
0010
,
0100
0101
0010
1100
0010
0101
0010
1100
,
0001
0100
0010
1001
0100
1000
0001
0110
,
1000
0010
0100
1001
0010
0001
1000
0110
,
0001
0000
1000
0100
1000
0100
0010
0000
1000
0000
0001
0100
0001
0100
0010
0000
,
0001
0000
1000
0010
1000
0010
0100
0000
1000
0000
0001
0010
0001
0010
0100
0000
,
0001
0000
0000
1000
0000
0100
0000
0001
0000
1000
0000
0010
0000
0001
0000
1000
0000
0010
0000
0000
0100
0000
0010
0000
,
1000
0000
0000
0000
0000
0000
0000
0000
0000
0000
0000
0000
0000
0000
0000
0000
0100
0000
0000
0000
0000
0000
0000
0000
0000
0000
0000
0000
0000
0000
0000
0000
0010
0000
0000
0000
0000
0000
0000
0000
0000
0000
0000
0000
0000
0000
0000
0000
0001
0000
0000
0000
0000
0000
0000
0000
0000
0000
0000
0000
0000
0000
0000
0000
0010
0000
0000
0000
0000
0000
0000
0000
0000
0000
0000
0000
0000
0000
0000
0000
0100
0000
0000
0000
0000
0000
0000
0000
0000
0000
0000
0000
0000
0000
0000
0000
1000
0000
0000
0000
0000
0000
0000
0000
0000
0000
0000
0000
0000
0000
0000
0000
0000
0000
0000
0000
0000
0000
0000
0000
0002
0003
0000
0000
0000
0000
0000
0000
0000
0000
0000
0000
0020
0030
0000
0000
0000
0000
0000
0000
0000
0000
0000
0000
0200
0300
0000
0000
0000
0000
0000
0000
0000
0000
0000
0000
2000
3000
0000
0000
0000
0000
0000
0000
0000
0000
0000
0000
0002
0003
0000
0000
0000
0000
0000
0000
0000
0000
0000
0000
0000
0000
0000
0000
0000
0000
0000
0000
0000
0000
0000
0000
,
1000
0010
0110
0000
1002
0100
0100
0000
,
1003
0000
0100
0000
0010
0000
0001
0010
0100
1000
0020
0000
0100
0000
0000
0000
,
1030
0001
0100
0001
1000
0010
0100
0101
,
0101
0001
1000
1100
1100
0010
0000
0101
,
0100
0001
1000
0000
0001
0000
0011
0000
0010
0100
1000
0000
0001
0000
0101
0000
,
0100
0001
2000
0000
0100
0000
0000
0000
3001
0000
0101
0000
1000
0000
1010
0000
,
0010
0100
0001
1100
1000
0001
0010
0011
,
0000
0101
0000
0000
0101
0000
1100
0000
0000
1100
0000
0000
1001
0000
0001
0000
,
1000
0010
0200
0000
0001
0000
0000
0000
0001
0000
0000
0000
0301
0000
1000
0000
,
0010
0100
0001
0000
1001
0000
0010
1001
,
1000
0010
0200
0000
0001
0001
0000
0010
,
0310
1000
0002
0000
0010
0200
0003
0301
,
1000
0001
0100
0010
0100
0000
0000
0000
0110
0000
0000
0000
1001
0000
0001
0000
,
0010
0100
1000
0010
0200
0000
0301
0100
,
0001
1000
1100
0000
1000
0010
0100
0101
,
0000
1001
0000
0000
0011
0000
1100
0000
0000
1001
0000
0000
0110
0000
0020
0000
,
0000
0000
0000
0000
,
0000
0000
0000
0000
,
0030
0000
0000
0000
;
